osu file format v14

[General]
AudioFilename: audio.mp3
AudioLeadIn: 0
PreviewTime: 62673
Countdown: 0
SampleSet: Soft
StackLeniency: 0.7
Mode: 0
LetterboxInBreaks: 0
WidescreenStoryboard: 0

[Editor]
DistanceSpacing: 1.1
BeatDivisor: 2
GridSize: 16
TimelineZoom: 1.6

[Metadata]
Title:Sparkling * Traveler
TitleUnicode:スパークリング☆トラベラー
Artist:Tamura Yukari
ArtistUnicode:田村ゆかり
Creator:sahuang
Version:Easy
Source:変態王子と笑わない猫。
Tags:Hentai Ouji to Warawanai Neko. The "HENTAI" prince and the stony cat. PSP C-Territory game 螺旋の果実 rasen no kajitsu opening
BeatmapID:1431832
BeatmapSetID:676998

[Difficulty]
HPDrainRate:2
CircleSize:2.5
OverallDifficulty:3
ApproachRate:3
SliderMultiplier:0.8
SliderTickRate:1

[Events]
//Background and Video events
0,0,"05.jpg",0,0
//Break Periods
//Storyboard Layer 0 (Background)
//Storyboard Layer 1 (Fail)
//Storyboard Layer 2 (Pass)
//Storyboard Layer 3 (Foreground)
//Storyboard Sound Samples

[TimingPoints]
691,344.827586206897,4,2,1,70,1,0
13104,-100,4,2,5,70,0,0
13449,-100,4,2,1,70,0,0
25518,-100,4,2,1,60,0,0
26380,-100,4,2,1,50,0,0
31035,-100,4,2,1,60,0,0
31897,-100,4,2,1,50,0,0
33794,-100,4,2,1,70,0,0
36553,-100,4,2,1,60,0,0
37415,-100,4,2,1,50,0,0
45863,-100,4,2,5,50,0,0
46208,-100,4,2,1,50,0,0
46380,-100,4,2,1,20,0,0
46897,-100,4,2,5,70,0,0
47415,-100,4,2,1,70,0,0
47587,-100,4,2,1,60,0,0
52070,-100,4,2,1,65,0,0
53104,-100,4,2,1,60,0,0
55863,-100,4,2,1,65,0,0
60001,-100,4,2,1,70,0,0
62759,-100,4,2,1,80,0,1
72415,-100,4,2,5,80,0,1
72759,-100,4,2,1,80,0,1
73794,-100,4,2,1,70,0,0
85346,-100,4,2,1,20,0,0
86208,-100,4,2,1,5,0,0

[Colours]
Combo1 : 255,40,40
Combo2 : 11,204,244
Combo3 : 255,255,6
Combo4 : 255,23,255

[HitObjects]
48,164,691,6,0,L|186:148,1,120,6|6,0:0|0:0,0:0:0:0:
277,77,1725,2,0,L|415:93,1,120,6|6,0:0|0:0,0:0:0:0:
472,198,2759,2,0,P|477:241|476:279,1,80,6|12,0:0|0:0,0:0:0:0:
399,321,3449,6,0,L|276:331,2,120,6|6|8,0:0|0:0|0:0,0:0:0:0:
390,277,4656,2,0,P|371:213|394:119,1,160,6|6,0:0|0:0,0:0:0:0:
302,26,5863,1,8,0:0:0:0:
232,80,6208,6,0,P|187:98|90:65,2,120,6|6|8,0:0|0:0|0:0,0:0:0:0:
266,107,7415,2,0,L|276:248,1,120,6|8,0:0|0:0,0:0:0:0:
227,301,8277,1,8,0:0:0:0:
139,308,8622,1,8,0:0:0:0:
75,247,8966,6,0,L|67:111,2,120,6|6|8,0:0|0:0|0:0,0:0:0:0:
112,222,10173,2,0,L|257:212,1,120,6|8,0:0|0:0,0:0:0:0:
301,267,11035,2,0,P|337:270|392:259,1,80,0|8,0:0|0:0,0:0:0:0:
443,201,11725,5,6,0:0:0:0:
400,123,12070,2,0,P|398:81|397:36,2,80,8|8|8,0:0|0:0|0:0,0:0:0:0:
329,175,13104,1,8,0:0:0:0:
255,126,13449,2,0,P|182:148|166:230,1,160,6|8,0:0|0:0,0:0:0:0:
199,303,14484,6,0,L|303:284,1,80,6|8,0:0|0:0,0:0:0:0:
363,307,15173,2,0,P|414:294|454:223,1,120,8|6,0:0|0:0,0:0:0:0:
439,153,16035,1,6,0:0:0:0:
368,99,16380,2,0,P|311:115|279:164,1,120,6|8,0:0|0:0,0:0:0:0:
231,238,17242,6,0,L|145:230,1,80,6|8,0:0|0:0,0:0:0:0:
73,188,17932,2,0,L|90:45,1,120,8|6,0:0|0:0,0:0:0:0:
159,18,18794,1,6,0:0:0:0:
229,71,19139,2,0,P|275:103|339:90,1,120,6|8,0:0|0:0,0:0:0:0:
415,128,20001,6,0,L|420:216,1,80,6|8,0:0|0:0,0:0:0:0:
373,283,20691,2,0,B|314:298|314:298|247:276,1,120,8|6,0:0|0:0,0:0:0:0:
177,243,21553,1,6,0:0:0:0:
101,287,21897,2,0,P|87:242|128:169,1,120,6|8,0:0|0:0,0:0:0:0:
171,109,22759,6,0,L|306:99,1,120,6|6,0:0|0:0,0:0:0:0:
382,195,23794,2,0,L|262:203,1,120,6|6,0:0|0:0,0:0:0:0:
197,317,24828,2,0,L|293:311,1,80,6|6,0:0|0:0,0:0:0:0:
366,308,25518,6,0,P|388:255|372:175,2,120,6|2|8,0:0|0:0|0:0,0:0:0:0:
331,335,26725,2,0,P|277:301|178:334,1,160,2|2,0:0|0:0,0:0:0:0:
56,312,27932,1,8,0:0:0:0:
78,226,28277,6,0,L|59:105,2,120,6|2|8,0:0|0:0|0:0,0:0:0:0:
120,239,29484,2,0,B|205:195|208:269|285:223,1,160,2|2,0:0|0:0,0:0:0:0:
394,174,30691,1,8,0:0:0:0:
461,229,31035,6,0,L|455:349,2,120,6|2|8,0:0|0:0|0:0,0:0:0:0:
486,193,32242,2,0,P|474:124|380:81,1,160,2|2,0:0|0:0,0:0:0:0:
272,107,33449,1,8,0:0:0:0:
199,156,33794,6,0,L|100:153,1,80,6|6,0:0|0:0,0:0:0:0:
48,207,34484,2,0,P|37:269|62:343,1,120,8|6,0:0|0:0,0:0:0:0:
133,354,35346,1,6,0:0:0:0:
199,296,35691,2,0,P|263:286|323:304,1,120,6|8,0:0|0:0,0:0:0:0:
401,319,36553,6,0,L|394:178,2,120,6|2|8,0:0|0:0|0:0,0:0:0:0:
379,357,37759,2,0,B|326:382|326:382|220:357,1,160,2|2,0:0|0:0,0:0:0:0:
101,317,38966,1,8,0:0:0:0:
150,245,39311,6,0,P|206:241|278:290,2,120,6|2|8,0:0|0:0|0:0,0:0:0:0:
118,213,40518,2,0,P|135:150|77:66,1,160,2|2,0:0|0:0,0:0:0:0:
206,12,41725,1,8,0:0:0:0:
276,64,42070,6,0,L|402:46,2,120,6|2|8,0:0|0:0|0:0,0:0:0:0:
256,103,43277,2,0,P|291:179|248:268,1,160,2|2,0:0|0:0,0:0:0:0:
178,344,44484,1,8,0:0:0:0:
265,344,44828,6,0,L|372:330,1,80,2|8,0:0|0:0,0:0:0:0:
406,271,45518,2,0,L|392:164,1,80,8|8,0:0|0:0,0:0:0:0:
359,111,46208,2,0,P|321:75|207:104,1,160,6|8,0:0|0:0,0:0:0:0:
87,202,47587,6,0,P|81:270|152:327,1,160,6|0,0:0|0:0,0:0:0:0:
233,320,48622,1,8,0:0:0:0:
291,254,48966,2,0,L|370:262,2,80,2|8|0,0:0|0:0|0:0,0:0:0:0:
206,228,50001,1,8,0:0:0:0:
153,157,50346,6,0,P|154:100|216:45,2,120,6|2|8,0:0|0:0|0:0,0:0:0:0:
237,132,51725,2,0,L|339:122,1,80,6|8,0:0|0:0,0:0:0:0:
401,148,52415,2,0,P|416:192|408:233,1,80,6|8,0:0|0:0,0:0:0:0:
360,296,53104,6,0,L|182:295,1,160,6|0,0:0|0:0,0:0:0:0:
130,239,54139,1,8,0:0:0:0:
48,272,54484,2,0,P|55:341|110:392,2,120,2|2|8,0:0|0:0|0:0,0:0:0:0:
61,184,55863,6,0,L|49:44,2,120,6|6|8,0:0|0:0|0:0,0:0:0:0:
148,174,57242,2,0,L|136:34,2,120,6|6|8,0:0|0:0|0:0,0:0:0:0:
208,241,58622,6,0,L|355:249,1,120,4|4,3:0|3:0,0:0:0:0:
371,249,59311,2,0,P|353:200|366:112,1,120,4|4,3:0|3:0,0:0:0:0:
385,98,60001,6,0,L|247:87,1,120,6|6,0:0|0:0,0:0:0:0:
201,203,61035,2,0,P|212:268|190:341,1,120,6|6,0:0|0:0,0:0:0:0:
76,366,62070,1,6,0:0:0:0:
18,299,62415,1,6,0:0:0:0:
66,226,62759,6,0,L|189:216,2,120,6|6|8,0:0|0:0|0:0,0:0:0:0:
30,199,63966,2,0,P|49:135|26:41,1,160,6|6,0:0|0:0,0:0:0:0:
160,52,65173,1,8,0:0:0:0:
234,99,65518,6,0,P|293:108|338:42,2,120,6|6|8,0:0|0:0|0:0,0:0:0:0:
209,135,66725,2,0,L|217:254,1,120,6|8,0:0|0:0,0:0:0:0:
223,342,67587,1,8,0:0:0:0:
298,295,67932,1,8,0:0:0:0:
360,356,68276,6,0,P|384:307|350:219,2,120,6|6|8,0:0|0:0|0:0,0:0:0:0:
321,377,69483,2,0,L|176:369,1,120,6|8,0:0|0:0,0:0:0:0:
124,327,70346,2,0,P|117:287|120:247,1,80,0|8,0:0|0:0,0:0:0:0:
151,165,71035,5,6,0:0:0:0:
206,96,71380,2,0,P|208:56|202:17,2,80,8|8|8,0:0|0:0|0:0,0:0:0:0:
241,176,72414,1,8,0:0:0:0:
323,145,72759,2,0,B|371:133|371:133|504:162,1,160,6|8,0:0|0:0,0:0:0:0:
481,244,73794,6,0,L|378:223,1,80,6|8,0:0|0:0,0:0:0:0:
314,230,74483,2,0,P|263:243|223:314,1,120,8|6,0:0|0:0,0:0:0:0:
175,368,75345,1,6,0:0:0:0:
98,330,75691,2,0,L|97:185,1,120,6|8,0:0|0:0,0:0:0:0:
143,135,76552,6,0,L|229:143,1,80,6|8,0:0|0:0,0:0:0:0:
283,206,77242,2,0,L|426:189,1,120,8|6,0:0|0:0,0:0:0:0:
461,127,78104,1,6,0:0:0:0:
402,60,78449,2,0,L|282:74,1,120,6|8,0:0|0:0,0:0:0:0:
215,130,79311,6,0,P|224:168|219:209,1,80,6|8,0:0|0:0,0:0:0:0:
146,257,80001,2,0,P|127:321|155:376,1,120,8|6,0:0|0:0,0:0:0:0:
217,314,80863,1,6,0:0:0:0:
283,372,81208,2,0,P|305:321|287:259,1,120,6|8,0:0|0:0,0:0:0:0:
237,189,82069,6,0,L|227:54,1,120,6|6,0:0|0:0,0:0:0:0:
95,68,83104,2,0,L|85:203,1,120,6|6,0:0|0:0,0:0:0:0:
117,316,84139,2,0,L|223:316,1,80,6|6,0:0|0:0,0:0:0:0:
372,327,85173,6,0,P|415:287|299:262,1,240,6|0,0:0|0:0,0:0:0:0:
