osu file format v14

[General]
AudioFilename: audio.mp3
AudioLeadIn: 0
PreviewTime: 3819
Countdown: 0
SampleSet: Soft
StackLeniency: 0.7
Mode: 0
LetterboxInBreaks: 0
WidescreenStoryboard: 1

[Editor]
Bookmarks: 70172,135113,205702
DistanceSpacing: 1.7
BeatDivisor: 4
GridSize: 32
TimelineZoom: 1.9

[Metadata]
Title:Oshiete A to Z
TitleUnicode:おしえて A to Z
Artist:Tamura Yukari
ArtistUnicode:田村ゆかり
Creator:RVMathew
Version:4th Base with Azunyan
Source:B型H系
Tags:Azunyan- Mayu Sakuma Xexyz teach me Full Version OP opening Ver. Yamada's First Time B Gata H Kei anime Japanese j-pop jpop
BeatmapID:3035404
BeatmapSetID:1449220

[Difficulty]
HPDrainRate:5
CircleSize:4
OverallDifficulty:8
ApproachRate:9
SliderMultiplier:1.7
SliderTickRate:1

[Events]
//Background and Video events
0,0,"stretched-1920-1080-748422.jpg",0,0
//Break Periods
2,172019,182513
//Storyboard Layer 0 (Background)
//Storyboard Layer 1 (Fail)
//Storyboard Layer 2 (Pass)
//Storyboard Layer 3 (Foreground)
//Storyboard Layer 4 (Overlay)
//Storyboard Sound Samples

[TimingPoints]
2408,352.941176470588,4,2,1,70,1,0
2408,-125,4,2,1,70,0,0
4525,-100,4,2,1,70,0,0
5231,-90.9090909090909,4,2,1,75,0,1
13702,-90.9090881347657,4,2,1,75,0,1
13878,-50,4,2,1,75,0,1
14055,-90.9090909090909,4,2,1,75,0,1
14231,-90.9090881347657,4,2,1,75,0,1
14407,-50,4,2,1,75,0,1
14584,-90.9090909090909,4,2,1,75,0,1
14760,-90.9090881347657,4,2,1,75,0,1
14937,-50,4,2,1,75,0,1
15113,-90.9090909090909,4,2,1,75,0,1
15290,-90.9090881347657,4,2,1,75,0,1
15466,-50,4,2,1,75,0,1
15819,-76.9230769230769,4,2,1,75,0,1
16525,-90.9090909090909,4,2,1,75,0,1
24996,-90.9090881347657,4,2,1,75,0,1
25173,-50,4,2,1,75,0,1
25349,-90.9090909090909,4,2,1,75,0,1
25525,-90.9090881347657,4,2,1,75,0,1
25702,-50,4,2,1,75,0,1
25878,-90.9090909090909,4,2,1,75,0,1
26055,-90.9090881347657,4,2,1,75,0,1
26232,-50,4,2,1,75,0,1
26407,-90.9090909090909,4,2,1,75,0,1
26584,-90.9090881347657,4,2,1,75,0,1
26760,-50,4,2,1,75,0,1
27113,-90.9090909090909,4,2,1,75,0,1
27643,-99.9999999999999,4,2,1,70,0,0
32760,-50,4,2,1,70,0,0
33290,-80,4,2,1,70,0,0
34172,-99.9999999999999,4,2,1,70,0,0
38937,-125,4,2,1,70,0,0
50407,-142.857142857143,4,2,3,55,0,0
61702,-100,4,2,1,65,0,0
67702,-100,4,2,2,65,0,0
68407,-100,4,2,1,65,0,0
70172,-83.3333333333333,4,2,1,75,0,1
78643,-83.3333358764648,4,2,1,75,0,1
78819,-50,4,2,1,75,0,1
78996,-83.3333333333333,4,2,1,75,0,1
79172,-83.3333358764648,4,2,1,75,0,1
79349,-50,4,2,1,75,0,1
79525,-83.3333333333333,4,2,1,75,0,1
79702,-83.3333358764648,4,2,1,75,0,1
79878,-50,4,2,1,75,0,1
80055,-83.3333333333333,4,2,1,75,0,1
80231,-83.3333358764648,4,2,1,75,0,1
80407,-50,4,2,1,75,0,1
80760,-83.3333333333333,4,2,1,75,0,1
89937,-83.3333358764648,4,2,1,75,0,1
90113,-50,4,2,1,75,0,1
90290,-83.3333333333333,4,2,1,75,0,1
90466,-83.3333358764648,4,2,1,75,0,1
90643,-50,4,2,1,75,0,1
90819,-83.3333333333333,4,2,1,75,0,1
90996,-83.3333358764648,4,2,1,75,0,1
91172,-50,4,2,1,75,0,1
91349,-83.3333333333333,4,2,1,75,0,1
91525,-83.3333358764648,4,2,1,75,0,1
91702,-50,4,2,1,75,0,1
92055,-83.3333333333333,4,2,1,75,0,1
92584,-100,4,2,1,70,0,0
97702,-58.8235294117647,4,2,1,70,0,0
98231,-80,4,2,1,70,0,0
98760,-100,4,2,1,70,0,0
103878,-125,4,2,1,70,0,0
115349,-142.857142857143,4,2,3,55,0,0
125584,-142.857142857143,4,2,3,60,0,0
126643,-100,4,2,1,65,0,0
132643,-100,4,2,2,65,0,0
132819,-100,4,2,1,65,0,0
135113,-83.3333333333333,4,2,1,75,0,1
143584,-83.3333333333333,4,2,1,75,0,1
143760,-50,4,2,1,75,0,1
143937,-83.3333333333333,4,2,1,75,0,1
144113,-83.3333358764648,4,2,1,75,0,1
144290,-50,4,2,1,75,0,1
144466,-83.3333333333333,4,2,1,75,0,1
144643,-83.3333358764648,4,2,1,75,0,1
144819,-48.5436893203883,4,2,1,75,0,1
144996,-83.3333333333333,4,2,1,75,0,1
145172,-83.3333358764648,4,2,1,75,0,1
145349,-47.1698113207547,4,2,1,75,0,1
145702,-83.3333333333333,4,2,1,75,0,1
154878,-83.3333358764648,4,2,1,75,0,1
155055,-50,4,2,1,75,0,1
155231,-83.3333333333333,4,2,1,75,0,1
155407,-83.3333358764648,4,2,1,75,0,1
155584,-50,4,2,1,75,0,1
155760,-83.3333333333333,4,2,1,75,0,1
155937,-83.3333358764648,4,2,1,75,0,1
156113,-50,4,2,1,75,0,1
156290,-83.3333333333333,4,2,1,75,0,1
156466,-83.3333358764648,4,2,1,75,0,1
156643,-50,4,2,1,75,0,1
156996,-83.3333333333333,4,2,1,75,0,1
157525,-100,4,2,1,70,0,0
168996,-100,4,2,1,70,0,0
170407,-119.38202247191,4,2,1,70,0,0
171290,-119.38202247191,4,2,1,50,0,0
171819,-119.38202247191,4,2,3,55,0,0
181702,-119.38202247191,4,2,3,50,0,0
183113,-100,4,2,1,65,0,0
189113,-100,4,2,2,65,0,0
189290,-100,4,2,1,65,0,0
190172,-100,4,2,1,70,0,0
191584,-125,4,2,1,65,0,0
200055,-83.3333358764648,4,2,1,70,0,0
200231,-55.5555555555556,4,2,1,70,0,0
200407,-83.3333333333333,4,2,1,70,0,0
200584,-83.3333358764648,4,2,1,70,0,0
200760,-55.5555555555556,4,2,1,70,0,0
200937,-83.3333333333333,4,2,1,70,0,0
201113,-83.3333358764648,4,2,1,70,0,0
201289,-55.5555555555556,4,2,1,70,0,0
201466,-83.3333333333333,4,2,1,70,0,0
201643,-83.3333358764648,4,2,1,70,0,0
201819,-55.5555555555556,4,2,1,70,0,0
202172,-100,4,2,1,70,0,0
204290,-200,4,2,1,70,0,0
205172,-125,4,2,1,70,0,0
205702,-83.3333333333333,4,2,1,75,0,1
214172,-83.3333358764648,4,2,1,75,0,1
214349,-50,4,2,1,75,0,1
214525,-83.3333333333333,4,2,1,75,0,1
214702,-83.3333333333333,4,2,1,75,0,1
214878,-50,4,2,1,75,0,1
215055,-83.3333333333333,4,2,1,75,0,1
215231,-83.3333358764648,4,2,1,75,0,1
215408,-50,4,2,1,75,0,1
215584,-83.3333333333333,4,2,1,75,0,1
215760,-83.3333358764648,4,2,1,75,0,1
215937,-50,4,2,1,75,0,1
216290,-83.3333333333333,4,2,1,75,0,1
225466,-83.3333358764648,4,2,1,75,0,1
225642,-50,4,2,1,75,0,1
225819,-83.3333333333333,4,2,1,75,0,1
225996,-83.3333358764648,4,2,1,75,0,1
226172,-50,4,2,1,75,0,1
226349,-83.3333333333333,4,2,1,75,0,1
226525,-83.3333358764648,4,2,1,75,0,1
226701,-50,4,2,1,75,0,1
226878,-83.3333333333333,4,2,1,75,0,1
227055,-83.3333358764648,4,2,1,75,0,1
227231,-50,4,2,1,75,0,1
227584,-50,4,2,1,75,0,1
228113,-66.6666666666667,4,2,1,70,0,0
228643,-100,4,2,1,70,0,0
233231,-58.8235294117647,4,2,1,70,0,0
233760,-100,4,2,1,70,0,0
239407,-85.9550537109375,4,2,1,70,0,0

[Colours]
Combo1 : 255,196,136
Combo2 : 151,255,255
Combo3 : 255,168,211
Combo4 : 240,221,164

[HitObjects]
320,278,2408,6,0,P|343:216|347:184,1,68,4|0,0:2|0:2,0:0:0:0:
227,315,2760,1,8,0:2:0:0:
227,315,2937,2,0,P|268:366|293:385,1,68,8|0,0:2|0:2,0:0:0:0:
241,215,3290,1,0,0:2:0:0:
241,215,3466,2,0,P|175:225|146:237,1,68,8|0,0:2|0:2,0:0:0:0:
73,269,3819,5,4,0:2:0:0:
0,187,3996,1,0,0:2:0:0:
0,187,4084,1,0,0:0:0:0:
0,187,4172,1,0,0:2:0:0:
55,92,4349,1,4,0:2:0:0:
162,114,4525,2,0,L|211:102,2,42.5,0|0|0,0:2|0:0|0:2,0:0:0:0:
247,19,4878,2,0,P|296:31|344:39,1,85,4|0,0:2|0:2,0:0:0:0:
476,0,5231,6,0,P|435:74|413:192,1,187.000005706787,4|8,1:2|0:2,0:0:0:0:
453,267,5760,1,8,0:2:0:0:
303,349,5937,2,0,P|295:300|285:256,1,93.5000028533936,0|0,0:2|1:2,0:0:0:0:
163,135,6290,1,8,0:2:0:0:
120,296,6466,1,0,1:2:0:0:
307,175,6643,6,0,B|267:165|220:198|220:198|250:149|240:104,1,187.000005706787,0|8,1:2|0:2,0:0:0:0:
128,21,7172,1,8,0:2:0:0:
128,21,7349,1,0,0:2:0:0:
163,136,7525,1,0,1:2:0:0:
45,108,7702,1,8,0:2:0:0:
163,136,7878,1,0,1:2:0:0:
54,269,8055,6,0,L|16:75,1,187.000005706787,0|8,1:2|0:2,0:0:0:0:
73,255,8584,2,0,L|56:356,1,93.5000028533936,8|0,0:2|0:2,0:0:0:0:
221,198,8937,2,0,L|204:299,1,93.5000028533936,0|8,1:2|0:2,0:0:0:0:
296,384,9290,1,0,1:2:0:0:
479,307,9466,6,0,B|371:323|414:251|302:271,1,187.000005706787,0|8,1:2|0:2,0:0:0:0:
307,141,9996,2,0,B|418:120|375:192|483:176,1,187.000005706787,8|0,0:2|1:2,0:0:0:0:
407,57,10525,1,8,0:2:0:0:
483,176,10702,1,0,1:2:0:0:
317,158,10878,6,0,P|231:145|111:132,1,187.000005706787,0|8,1:2|0:2,0:0:0:0:
12,162,11407,1,8,0:2:0:0:
137,0,11584,2,0,B|170:21|181:53|181:53|176:122|129:183,1,187.000005706787,0|8,0:2|0:2,0:0:0:0:
74,266,12113,1,0,1:2:0:0:
268,319,12290,5,0,1:2:0:0:
143,162,12466,1,0,0:2:0:0:
152,364,12643,1,8,0:2:0:0:
264,196,12819,2,0,P|340:181|463:171,1,187.000005706787,8|0,0:2|1:2,0:0:0:0:
482,253,13349,1,8,0:2:0:0:
424,97,13525,1,8,1:2:0:0:
424,97,13613,1,8,1:2:0:0:
424,97,13702,6,0,P|396:91|345:87,1,46.7500014266968,8|0,1:2|0:0,0:0:0:0:
264,196,13878,2,0,P|184:192|82:160,1,170,8|0,1:2|0:2,0:0:0:0:
31,58,14232,6,0,P|32:85|37:125,1,46.7500014266968,8|0,1:2|0:0,0:0:0:0:
94,188,14407,2,0,P|175:211|260:216,1,170,8|0,1:2|0:2,0:0:0:0:
357,113,14760,6,0,P|356:140|351:180,1,46.7500014266968,8|0,1:2|0:0,0:0:0:0:
256,236,14937,2,0,P|171:231|90:208,1,170,8|0,1:2|0:2,0:0:0:0:
22,77,15290,6,0,P|23:104|28:144,1,46.7500014266968,8|0,1:2|0:0,0:0:0:0:
84,226,15466,2,0,P|166:250|251:255,1,170,8|0,1:2|0:2,0:0:0:0:
309,51,15731,1,0,1:2:0:0:
294,34,15819,2,0,P|267:129|269:166,1,110.499994941712,8|0,1:2|0:2,0:0:0:0:
436,287,16172,2,0,P|367:216|334:199,1,110.499994941712,8|0,1:2|0:2,0:0:0:0:
75,312,16525,6,0,L|296:262,1,187.000005706787,4|8,1:2|0:2,0:0:0:0:
358,211,17055,1,8,0:2:0:0:
242,287,17231,2,0,L|138:256,1,93.5000028533936,0|0,0:2|1:2,0:0:0:0:
58,99,17584,1,8,0:2:0:0:
184,170,17760,1,0,1:2:0:0:
23,267,17937,6,0,P|10:175|31:76,1,187.000005706787,0|8,1:2|0:2,0:0:0:0:
177,0,18466,1,8,0:2:0:0:
184,170,18643,1,0,0:2:0:0:
28,83,18819,1,0,1:2:0:0:
179,89,18996,1,8,0:2:0:0:
28,83,19172,1,0,1:2:0:0:
114,235,19349,6,0,P|208:200|315:170,1,187.000005706787,0|8,1:2|0:2,0:0:0:0:
341,70,19878,2,0,L|220:36,1,93.5000028533936,8|0,0:2|0:2,0:0:0:0:
369,272,20231,2,0,L|459:297,1,93.5000028533936,0|8,1:2|0:2,0:0:0:0:
508,160,20584,1,0,1:2:0:0:
333,43,20760,6,0,P|303:114|277:232,1,187.000005706787,0|8,1:2|0:2,0:0:0:0:
334,375,21290,2,0,P|272:330|132:355,1,187.000005706787,8|0,0:2|1:2,0:0:0:0:
35,349,21819,1,8,0:2:0:0:
0,182,21996,1,0,1:2:0:0:
0,182,22084,1,0,0:0:0:0:
0,182,22172,6,0,B|71:201|71:201|106:182|106:182|197:203,1,187.000005706787,0|8,1:2|0:2,0:0:0:0:
290,226,22702,1,8,0:2:0:0:
183,27,22878,2,0,B|158:52|147:83|147:83|146:121|184:217,1,187.000005706787,0|8,0:2|0:2,0:0:0:0:
229,297,23407,1,0,1:2:0:0:
355,168,23584,5,0,1:2:0:0:
177,198,23760,1,0,0:2:0:0:
255,116,23937,1,8,0:2:0:0:
338,279,24113,2,0,P|428:254|463:153,1,187.000005706787,8|0,0:2|1:2,0:0:0:0:
477,58,24643,1,8,0:2:0:0:
375,86,24819,1,8,1:2:0:0:
375,86,24907,1,8,1:2:0:0:
375,86,24996,6,0,P|328:91|301:104,1,46.7500014266968,8|0,1:2|0:0,0:0:0:0:
226,48,25173,2,0,L|247:221,1,170,8|0,1:2|0:2,0:0:0:0:
171,384,25526,6,0,L|165:337,1,46.7500014266968,8|0,1:2|0:0,0:0:0:0:
230,231,25702,2,0,L|210:63,1,170,8|0,1:2|0:2,0:0:0:0:
106,0,26055,6,0,L|111:46,1,46.7500014266968,8|0,1:2|0:0,0:0:0:0:
194,78,26232,2,0,L|215:251,1,170,8|0,1:2|0:2,0:0:0:0:
151,380,26584,6,0,L|145:333,1,46.7500014266968,8|0,1:2|0:0,0:0:0:0:
198,261,26760,2,0,L|178:93,1,170,8|0,1:2|0:2,0:0:0:0:
106,0,27025,1,0,1:2:0:0:
84,23,27113,2,0,P|69:60|67:91,1,46.7500014266968,8|0,1:2|0:0,0:0:0:0:
2,160,27290,2,0,P|26:191|52:208,1,46.7500014266968,0|0,0:2|0:0,0:0:0:0:
79,299,27466,2,0,P|118:293|146:279,1,46.7500014266968,8|0,1:2|0:0,0:0:0:0:
322,141,27643,6,0,P|245:108|153:115,1,170,6|0,0:2|0:2,0:0:0:0:
390,262,28172,2,0,P|435:222|459:169,1,85,10|0,0:2|0:2,0:0:0:0:
251,260,28525,2,0,P|263:318|297:366,1,85,2|0,0:2|0:2,0:0:0:0:
487,329,28878,1,8,0:2:0:0:
390,262,29055,1,0,0:2:0:0:
512,140,29231,6,0,L|314:85,1,170,2|8,0:2|0:2,0:0:0:0:
228,0,29760,2,0,B|259:59|259:59|228:162,1,170,10|2,0:2|0:2,0:0:0:0:
132,259,30290,1,8,0:2:0:0:
53,103,30466,6,0,B|154:93|119:152|224:143,1,170,6|0,0:2|0:2,0:0:0:0:
325,252,30996,2,0,P|274:248|227:245,1,85,10|0,0:2|0:2,0:0:0:0:
95,364,31349,2,0,P|137:360|179:357,1,85,2|0,0:2|0:2,0:0:0:0:
411,369,31702,1,8,0:2:0:0:
314,271,31878,1,0,0:2:0:0:
475,187,32055,6,0,L|420:361,1,170,2|8,0:2|0:2,0:0:0:0:
457,166,32584,1,10,0:2:0:0:
314,271,32760,6,0,L|262:108,1,170,2|2,0:2|0:2,0:0:0:0:
284,122,33290,6,0,B|236:189|176:192|176:192|121:148|92:154,1,212.5,6|0,0:2|0:2,0:0:0:0:
7,136,33819,1,10,0:2:0:0:
0,254,33996,1,0,0:2:0:0:
82,173,34172,2,0,P|98:89|125:9,1,170,2|8,0:2|0:2,0:0:0:0:
125,9,34702,1,0,0:2:0:0:
243,72,34878,6,0,P|387:34|438:23,1,170,2|8,0:2|0:2,0:0:0:0:
438,138,35407,2,0,P|355:157|273:180,1,170,10|2,0:2|0:2,0:0:0:0:
161,175,35937,1,8,0:2:0:0:
335,303,36113,1,2,0:2:0:0:
335,303,36202,1,0,0:0:0:0:
335,303,36290,6,0,P|295:291|230:278,1,85,12|0,1:2|0:2,0:0:0:0:
19,306,36643,2,0,P|59:318|124:331,1,85,8|0,1:2|0:2,0:0:0:0:
244,121,36996,5,8,1:2:0:0:
176,247,37172,1,0,0:2:0:0:
244,121,37349,1,8,1:2:0:0:
5,161,37525,1,0,0:2:0:0:
5,161,37613,1,0,0:0:0:0:
5,161,37702,6,0,B|37:162|56:139|56:139|71:161|99:169|99:169|139:143|189:147,1,170,8|8,1:2|1:2,0:0:0:0:
271,12,38231,1,0,0:2:0:0:
267,19,38319,1,0,0:0:0:0:
266,28,38407,1,8,1:2:0:0:
308,198,38584,1,8,1:2:0:0:
325,177,38937,6,0,B|377:155|377:155|476:186,1,136,4|0,0:2|0:2,0:0:0:0:
512,253,39466,1,8,0:2:0:0:
427,342,39643,2,0,L|344:311,1,68,8|0,0:2|0:2,0:0:0:0:
212,160,39996,2,0,P|231:244|239:309,1,136,0|0,0:2|0:2,0:0:0:0:
139,353,40525,6,0,L|116:275,1,68,0|0,0:2|0:2,0:0:0:0:
51,160,40878,2,0,L|31:225,1,68,8|8,0:2|0:2,0:0:0:0:
126,363,41231,2,0,L|103:285,1,68,0|0,0:2|0:2,0:0:0:0:
38,170,41584,2,0,L|18:235,1,68,8|0,0:2|0:2,0:0:0:0:
244,153,41937,6,0,P|114:92|99:80,1,136,0|8,0:2|0:2,0:0:0:0:
175,0,42466,2,0,P|233:33|298:55,1,136,8|0,0:2|0:2,0:0:0:0:
413,4,42996,1,8,0:2:0:0:
488,115,43172,1,0,1:2:0:0:
469,111,43260,1,0,1:2:0:0:
452,107,43349,5,0,1:2:0:0:
401,21,43525,1,8,1:2:0:0:
341,152,43702,2,0,P|353:213|361:301,1,136,8|0,1:2|0:2,0:0:0:0:
311,365,44231,1,8,1:2:0:0:
374,272,44407,1,8,1:2:0:0:
204,334,44584,1,0,0:2:0:0:
192,340,44672,1,0,0:0:0:0:
181,345,44760,6,0,P|155:284|150:190,1,136,4|8,0:2|0:2,0:0:0:0:
197,144,45290,2,0,P|150:174|62:158,1,136,8|0,0:2|0:2,0:0:0:0:
28,82,45819,1,8,0:2:0:0:
73,165,45996,1,0,0:2:0:0:
140,7,46172,6,0,L|124:86,1,68,0|0,0:2|0:2,0:0:0:0:
217,161,46525,2,0,L|230:94,1,68,8|8,0:2|0:2,0:0:0:0:
357,15,46878,2,0,P|309:3|283:-2,1,68,0|0,0:2|0:2,0:0:0:0:
426,153,47231,2,0,P|459:146|492:137,1,68,8|0,0:2|0:2,0:0:0:0:
331,287,47584,6,0,P|303:203|305:146,2,136,0|8|0,0:2|0:2|0:2,0:0:0:0:
402,216,48466,1,0,0:2:0:0:
356,384,48643,1,8,0:2:0:0:
205,264,48819,1,0,1:2:0:0:
218,267,48907,1,0,1:2:0:0:
228,274,48996,5,0,1:2:0:0:
331,287,49172,1,8,1:2:0:0:
160,367,49349,2,0,P|112:314|95:245,1,136,8|0,1:2|0:2,0:0:0:0:
128,104,49878,1,8,1:2:0:0:
95,253,50055,1,8,1:2:0:0:
238,162,50231,1,0,0:2:0:0:
238,162,50319,1,0,0:0:0:0:
238,162,50407,6,0,L|367:184,1,118.999996368408,2|0,3:2|0:2,0:0:0:0:
355,182,50937,1,0,3:2:0:0:
453,77,51113,2,0,L|335:56,1,118.999996368408,2|8,3:2|3:2,0:0:0:0:
211,134,51819,6,0,P|214:60|209:3,1,118.999996368408,2|0,3:2|0:2,0:0:0:0:
210,15,52349,1,0,3:2:0:0:
106,61,52525,2,0,P|102:120|105:179,1,118.999996368408,2|8,3:2|3:2,0:0:0:0:
136,316,53231,6,0,P|56:292|13:288,1,118.999996368408,2|0,3:2|0:2,0:0:0:0:
20,288,53760,1,0,3:2:0:0:
187,238,53937,2,0,P|243:257|302:265,1,118.999996368408,2|8,3:2|3:2,0:0:0:0:
425,130,54643,5,2,3:2:0:0:
365,197,54819,2,0,L|402:329,1,118.999996368408,0|0,3:2|3:2,0:0:0:0:
314,353,55349,1,2,3:2:0:0:
249,288,55525,1,0,3:2:0:0:
314,353,55702,1,8,3:2:0:0:
166,330,55878,1,0,0:2:0:0:
166,330,55966,1,0,0:0:0:0:
166,330,56055,6,0,P|105:307|51:298,1,118.999996368408,2|0,3:2|0:2,0:0:0:0:
52,298,56584,1,0,3:2:0:0:
85,188,56760,2,0,P|146:211|200:220,1,118.999996368408,2|8,3:2|3:2,0:0:0:0:
326,0,57466,6,0,B|295:15|280:47|280:47|273:111|303:164,1,178.499994552612,2|0,3:2|3:2,0:0:0:0:
379,220,58172,2,0,P|426:208|510:197,1,118.999996368408,2|8,3:2|3:2,0:0:0:0:
280,272,58878,2,0,P|283:216|305:137,2,118.999996368408,2|0|2,3:2|0:2|3:2,0:0:0:0:
227,48,59937,1,8,3:2:0:0:
143,153,60290,5,2,3:2:0:0:
143,153,60466,2,0,P|73:135|4:124,1,118.999996368408,0|0,3:2|3:2,0:0:0:0:
84,38,60996,1,2,3:2:0:0:
7,147,61172,1,0,3:2:0:0:
7,147,61260,1,0,3:2:0:0:
7,147,61349,1,8,3:2:0:0:
84,38,61525,1,0,0:2:0:0:
134,169,61702,6,0,P|211:146|312:119,1,170,4|8,0:2|0:2,0:0:0:0:
477,333,62231,2,0,P|400:310|299:283,1,170,8|0,0:2|0:2,0:0:0:0:
164,340,62760,1,8,0:2:0:0:
272,216,62937,1,0,0:2:0:0:
272,216,63025,1,0,0:0:0:0:
272,216,63113,6,0,L|298:398,1,170,0|8,0:2|0:2,0:0:0:0:
477,333,63643,2,0,L|452:164,1,170,8|0,0:2|0:2,0:0:0:0:
345,43,64172,1,8,0:2:0:0:
282,194,64349,1,0,0:2:0:0:
190,45,64525,6,0,B|212:22|237:12|237:12|289:13|361:51,1,170,4|8,0:2|0:2,0:0:0:0:
55,146,65055,2,0,P|33:96|28:63,1,85,8|0,0:2|0:2,0:0:0:0:
109,0,65407,1,0,0:2:0:0:
15,82,65584,1,8,0:2:0:0:
219,188,65760,1,0,0:2:0:0:
219,188,65849,1,0,0:0:0:0:
219,188,65937,6,0,L|41:142,1,170,0|8,0:2|0:2,0:0:0:0:
12,240,66466,1,8,0:2:0:0:
123,201,66643,1,0,0:2:0:0:
6,262,66819,1,0,0:2:0:0:
117,223,66996,1,8,0:2:0:0:
194,306,67172,1,0,0:2:0:0:
194,306,67260,1,0,0:0:0:0:
194,306,67349,5,12,0:2:0:0:
354,193,67525,1,0,0:2:0:0:
289,377,67702,1,8,0:2:0:0:
233,189,67878,1,0,0:2:0:0:
389,307,68055,1,8,0:2:0:0:
194,306,68231,1,0,0:2:0:0:
292,280,68407,5,8,0:2:0:0:
292,280,68496,1,0,0:0:0:0:
292,280,68584,1,0,0:2:0:0:
292,280,68672,1,0,0:0:0:0:
292,280,68760,5,0,0:2:0:0:
354,193,69113,1,0,0:2:0:0:
310,96,69466,1,0,0:2:0:0:
203,85,69643,2,0,L|186:35,2,42.5,0|0|0,1:2|1:2|1:2,0:0:0:0:
141,172,69996,1,0,1:2:0:0:
141,172,70084,1,0,1:2:0:0:
141,172,70172,6,0,P|77:144|76:22,1,203.999993774414,4|8,1:2|0:2,0:0:0:0:
29,136,70702,1,8,0:2:0:0:
98,283,70878,2,0,P|124:218|246:215,1,203.999993774414,0|8,0:2|0:2,0:0:0:0:
308,309,71407,1,0,1:2:0:0:
439,182,71584,6,0,P|420:286|409:393,1,203.999993774414,0|8,1:2|0:2,0:0:0:0:
454,207,72113,1,8,0:2:0:0:
339,62,72290,1,0,0:2:0:0:
271,234,72466,1,0,1:2:0:0:
454,207,72643,1,8,0:2:0:0:
316,136,72819,1,0,1:2:0:0:
239,312,72996,6,0,P|173:300|88:186,1,203.999993774414,0|8,1:2|0:2,0:0:0:0:
227,88,73525,2,0,L|205:187,1,101.999996887207,8|0,0:2|0:2,0:0:0:0:
70,182,73878,2,0,L|49:282,1,101.999996887207,0|8,1:2|0:2,0:0:0:0:
49,281,74231,1,0,1:2:0:0:
227,88,74407,6,0,B|121:119|133:36|31:69,1,203.999993774414,0|8,1:2|0:2,0:0:0:0:
284,296,74937,2,0,B|391:266|379:349|481:316,1,203.999993774414,8|0,0:2|1:2,0:0:0:0:
256,192,75466,1,8,0:2:0:0:
256,192,75643,1,0,1:2:0:0:
455,50,75819,6,0,B|479:99|479:99|434:256,1,203.999993774414,0|8,1:2|0:2,0:0:0:0:
330,375,76349,1,8,0:2:0:0:
240,211,76525,2,0,P|306:199|354:200,1,101.999996887207,0|0,0:2|1:2,0:0:0:0:
142,351,76878,2,0,P|91:349|41:338,1,101.999996887207,8|0,0:2|1:2,0:0:0:0:
36,186,77231,5,0,1:2:0:0:
178,279,77407,1,0,0:2:0:0:
27,355,77584,1,8,0:2:0:0:
115,237,77760,2,0,L|148:27,1,203.999993774414,8|0,0:2|1:2,0:0:0:0:
162,145,78290,1,8,0:2:0:0:
247,12,78466,1,0,1:2:0:0:
247,12,78554,1,0,1:2:0:0:
247,12,78643,6,0,L|225:68,1,50.9999984436036,8|0,1:2|0:0,0:0:0:0:
260,171,78819,2,0,P|348:201|455:205,1,170,8|0,1:2|0:2,0:0:0:0:
485,78,79172,6,0,P|477:106|469:137,1,50.9999984436036,8|0,1:2|0:0,0:0:0:0:
437,198,79349,2,0,P|353:214|277:251,1,170,8|0,1:2|0:2,0:0:0:0:
173,149,79702,6,0,P|181:177|189:208,1,50.9999984436036,8|0,1:2|0:0,0:0:0:0:
260,248,79878,2,0,P|348:278|455:282,1,170,8|0,1:2|0:2,0:0:0:0:
450,148,80232,6,0,P|442:176|434:207,1,50.9999984436036,8|0,1:2|0:0,0:0:0:0:
437,275,80407,2,0,P|353:291|277:328,1,170,8|0,1:2|0:2,0:0:0:0:
187,345,80672,1,0,1:2:0:0:
199,363,80760,2,0,P|143:344|94:338,1,101.999996887207,8|0,1:2|0:2,0:0:0:0:
173,149,81113,2,0,P|229:168|278:174,1,101.999996887207,8|0,1:2|0:2,0:0:0:0:
26,32,81466,6,0,L|68:241,1,203.999993774414,4|8,1:2|0:2,0:0:0:0:
101,339,81996,1,8,0:2:0:0:
292,272,82172,2,0,P|188:251|164:249,1,101.999996887207,0|0,0:2|1:2,0:0:0:0:
118,99,82525,1,8,0:2:0:0:
66,232,82702,1,0,1:2:0:0:
253,152,82878,6,0,L|491:190,1,203.999993774414,0|8,1:2|0:2,0:0:0:0:
485,264,83407,1,8,0:2:0:0:
432,94,83584,2,0,L|331:77,1,101.999996887207,0|0,0:2|1:2,0:0:0:0:
161,83,83937,1,8,0:2:0:0:
238,13,84113,1,0,1:2:0:0:
66,29,84290,6,0,B|41:94|41:94|88:237,1,203.999993774414,0|8,1:2|0:2,0:0:0:0:
306,211,84819,2,0,P|241:183|196:178,1,101.999996887207,8|0,0:2|0:2,0:0:0:0:
107,376,85172,2,0,P|163:333|190:297,1,101.999996887207,0|8,1:2|0:2,0:0:0:0:
210,178,85525,1,0,1:2:0:0:
398,252,85702,6,0,P|423:155|383:40,1,203.999993774414,0|8,1:2|0:2,0:0:0:0:
114,252,86231,2,0,P|89:154|116:57,1,203.999993774414,8|0,0:2|1:2,0:0:0:0:
256,0,86760,1,8,0:2:0:0:
256,128,86937,1,0,1:2:0:0:
256,128,87025,1,0,0:0:0:0:
256,128,87113,6,0,L|256:256,1,101.999996887207,0|0,1:2|0:2,0:0:0:0:
357,384,87466,1,8,0:2:0:0:
392,272,87643,1,8,0:2:0:0:
179,330,87819,2,0,L|414:284,1,203.999993774414,0|8,0:2|0:2,0:0:0:0:
501,251,88349,1,0,1:2:0:0:
371,139,88525,5,0,1:2:0:0:
255,231,88702,1,0,0:2:0:0:
371,139,88878,1,8,0:2:0:0:
501,251,89055,2,0,P|476:154|471:36,1,203.999993774414,8|0,0:2|1:2,0:0:0:0:
371,139,89584,1,8,0:2:0:0:
286,209,89760,1,0,1:2:0:0:
286,209,89849,1,0,1:2:0:0:
286,209,89937,6,0,P|255:204|218:198,1,50.9999984436036,8|0,1:2|0:0,0:0:0:0:
143,168,90113,2,0,L|122:0,1,170,8|0,1:2|0:2,0:0:0:0:
257,16,90466,6,0,P|226:11|189:5,1,50.9999984436036,8|0,1:2|0:0,0:0:0:0:
109,17,90643,2,0,L|130:185,1,170,8|0,1:2|0:2,0:0:0:0:
274,229,90996,6,0,P|243:224|206:218,1,50.9999984436036,8|0,1:2|0:0,0:0:0:0:
117,202,91172,2,0,L|96:34,1,170,8|0,1:2|0:2,0:0:0:0:
245,35,91526,6,0,P|220:30|195:26,1,50.9999984436036,8|0,1:2|0:0,0:0:0:0:
83,51,91702,2,0,L|104:219,1,170,8|0,1:2|0:2,0:0:0:0:
31,368,91966,1,0,1:2:0:0:
40,346,92055,2,0,P|106:315|115:314,1,50.9999984436036,8|0,1:2|0:0,0:0:0:0:
184,276,92231,2,0,P|250:307|259:308,1,50.9999984436036,0|0,0:2|0:0,0:0:0:0:
330,355,92407,2,0,P|396:324|405:323,1,50.9999984436036,8|0,1:2|0:0,0:0:0:0:
423,179,92584,6,0,P|411:221|401:374,1,170,6|0,0:2|0:2,0:0:0:0:
501,212,93113,2,0,L|405:171,1,85,10|0,0:2|0:2,0:0:0:0:
305,84,93466,2,0,L|383:50,1,85,2|0,0:2|0:2,0:0:0:0:
474,94,93819,1,8,0:2:0:0:
383,50,93996,1,0,0:2:0:0:
242,160,94172,6,0,P|217:95|241:-3,1,170,2|8,0:2|0:2,0:0:0:0:
263,152,94702,2,0,P|219:206|122:234,1,170,10|2,0:2|0:2,0:0:0:0:
45,174,95231,1,8,0:2:0:0:
0,332,95407,6,0,B|46:314|46:314|178:354,1,170,6|0,0:2|0:2,0:0:0:0:
313,260,95937,1,10,0:2:0:0:
234,312,96113,1,0,0:2:0:0:
402,366,96290,2,0,P|420:288|383:170,1,170,2|8,0:2|0:2,0:0:0:0:
375,74,96819,1,0,0:2:0:0:
306,178,96996,6,0,L|493:143,1,170,2|8,0:2|0:2,0:0:0:0:
473,146,97525,1,10,0:2:0:0:
322,195,97702,6,0,L|160:149,1,144.500002756119,2|2,0:2|0:2,0:0:0:0:
3,292,98231,6,0,B|45:185|-44:197|8:60,1,212.5,6|0,0:2|0:2,0:0:0:0:
0,85,98760,1,10,0:2:0:0:
87,0,98937,1,0,0:2:0:0:
209,141,99113,2,0,L|114:117,1,85,2|0,0:2|0:2,0:0:0:0:
285,12,99466,2,0,L|367:32,1,85,8|0,0:2|0:2,0:0:0:0:
494,120,99819,6,0,P|454:197|420:307,1,170,2|8,0:2|0:2,0:0:0:0:
479,372,100349,2,0,P|388:306|316:342,1,170,10|2,0:2|0:2,0:0:0:0:
271,384,100878,1,8,0:2:0:0:
160,161,101055,6,0,L|188:329,1,170,6|0,0:2|0:2,0:0:0:0:
177,174,101584,2,0,L|198:71,1,85,8|8,0:2|0:2,0:0:0:0:
47,260,101937,2,0,L|30:176,1,85,0|0,0:2|0:2,0:0:0:0:
61,67,102290,1,8,0:2:0:0:
30,176,102466,1,0,0:2:0:0:
174,72,102643,6,0,P|285:30|358:18,1,170,0|8,0:2|0:2,0:0:0:0:
452,82,103172,1,8,0:2:0:0:
335,20,103349,1,8,0:2:0:0:
379,194,103525,1,8,0:2:0:0:
400,213,103878,6,0,P|329:195|251:176,1,136,4|0,0:2|0:2,0:0:0:0:
174,234,104407,1,8,0:2:0:0:
117,136,104584,2,0,L|190:108,1,68,8|0,0:2|0:2,0:0:0:0:
25,221,104937,2,0,P|15:153|0:87,1,136,0|0,0:2|0:2,0:0:0:0:
92,0,105466,6,0,L|173:4,1,68,0|0,0:2|0:2,0:0:0:0:
257,86,105819,2,0,L|190:99,1,68,8|8,0:2|0:2,0:0:0:0:
85,14,106172,2,0,L|166:18,1,68,0|0,0:2|0:2,0:0:0:0:
247,98,106525,2,0,L|180:111,1,68,8|0,0:2|0:2,0:0:0:0:
357,6,106878,6,0,B|333:50|333:50|352:143,1,136,0|8,0:2|0:2,0:0:0:0:
449,155,107407,2,0,B|431:70|431:70|455:26,1,136,8|0,0:2|0:2,0:0:0:0:
455,26,107937,1,8,0:2:0:0:
485,163,108113,1,0,1:2:0:0:
466,159,108202,1,0,1:2:0:0:
449,155,108290,5,0,1:2:0:0:
357,232,108466,1,8,1:2:0:0:
489,265,108643,2,0,P|415:241|342:231,1,136,8|0,1:2|0:2,0:0:0:0:
245,253,109172,1,8,1:2:0:0:
357,232,109349,1,8,1:2:0:0:
290,147,109525,1,0,0:2:0:0:
290,147,109613,1,0,0:0:0:0:
290,147,109702,5,6,0:2:0:0:
278,128,110584,1,8,0:2:0:0:
163,201,110760,1,8,0:2:0:0:
278,128,110937,1,0,0:2:0:0:
147,182,111113,6,0,L|133:248,1,68,0|0,0:2|0:2,0:0:0:0:
222,311,111466,2,0,L|235:244,1,68,8|8,0:2|0:2,0:0:0:0:
84,353,111819,2,0,P|50:346|17:337,1,68,0|0,0:2|0:2,0:0:0:0:
67,232,112172,2,0,P|99:240|133:248,1,68,8|0,0:2|0:2,0:0:0:0:
244,149,112525,6,0,B|220:100|220:100|240:12,2,136,0|8|0,0:2|0:2|0:2,0:0:0:0:
307,229,113407,1,0,0:2:0:0:
244,149,113584,1,8,0:2:0:0:
407,127,113760,1,0,1:2:0:0:
398,117,113849,1,0,1:2:0:0:
384,115,113937,5,0,1:2:0:0:
307,229,114113,1,8,1:2:0:0:
478,238,114290,2,0,L|512:106,1,136,8|0,1:2|0:2,0:0:0:0:
438,0,114819,1,8,1:2:0:0:
512,106,114996,1,8,1:2:0:0:
388,117,115172,1,0,0:2:0:0:
388,117,115260,1,0,0:0:0:0:
388,117,115349,6,0,P|309:101|250:97,1,118.999996368408,2|0,3:2|0:2,0:0:0:0:
189,209,116055,2,0,P|248:215|306:228,1,118.999996368408,2|8,3:2|3:2,0:0:0:0:
306,228,116584,1,0,0:2:0:0:
133,277,116760,6,0,P|103:203|116:148,1,118.999996368408,2|0,3:2|0:2,0:0:0:0:
180,94,117290,1,0,3:2:0:0:
124,179,117466,2,0,P|57:155|4:143,1,118.999996368408,2|8,3:2|3:2,0:0:0:0:
188,0,118172,6,0,L|205:143,1,118.999996368408,2|0,3:2|0:2,0:0:0:0:
202,118,118702,1,0,3:2:0:0:
285,33,118878,2,0,L|300:152,1,118.999996368408,2|8,3:2|3:2,0:0:0:0:
230,275,119584,5,2,3:2:0:0:
230,275,119760,2,0,P|287:258|345:247,1,118.999996368408,0|0,3:2|3:2,0:0:0:0:
462,231,120290,2,0,P|472:195|473:164,2,59.4999981842042,2|0|8,3:2|3:2|3:2,0:0:0:0:
495,367,120996,6,0,P|442:349|363:334,1,118.999996368408,2|0,3:2|0:2,0:0:0:0:
380,336,121525,1,0,3:2:0:0:
267,366,121702,2,0,L|146:331,1,118.999996368408,2|8,3:2|3:2,0:0:0:0:
10,269,122407,2,0,B|110:293|82:223|192:244,1,178.499994552612,2|0,3:2|3:2,0:0:0:0:
197,126,123113,2,0,P|183:169|183:252,1,118.999996368408,2|8,3:2|3:2,0:0:0:0:
177,238,123643,1,0,0:2:0:0:
277,71,123819,6,0,P|229:45|151:40,2,118.999996368408,2|0|2,3:2|0:2|3:2,0:0:0:0:
277,71,124702,1,0,0:2:0:0:
102,107,124878,2,0,L|78:34,1,59.4999981842042,8|0,3:2|0:2,0:0:0:0:
16,187,125231,5,2,3:2:0:0:
16,187,125407,2,0,L|60:321,1,118.999996368408,0|0,3:2|3:2,0:0:0:0:
146,377,125937,1,2,3:2:0:0:
212,280,126113,1,0,3:2:0:0:
212,280,126202,1,0,3:2:0:0:
212,280,126290,1,8,3:2:0:0:
146,377,126466,1,0,0:2:0:0:
315,327,126643,6,0,P|396:305|484:293,1,170,4|8,0:2|0:2,0:0:0:0:
454,164,127172,2,0,P|373:186|285:198,1,170,8|0,0:2|0:2,0:0:0:0:
101,144,127702,1,8,0:2:0:0:
220,4,127878,1,0,0:2:0:0:
220,4,127966,1,0,0:0:0:0:
220,4,128055,6,0,B|232:50|232:50|198:181,1,170,0|8,0:2|0:2,0:0:0:0:
101,144,128584,2,0,L|88:50,1,85,8|0,0:2|0:2,0:0:0:0:
14,243,128937,1,0,0:2:0:0:
101,144,129113,1,8,0:2:0:0:
170,310,129290,1,0,0:2:0:0:
170,310,129378,1,0,0:0:0:0:
170,310,129466,6,0,B|259:324|233:257|348:288,1,170,4|8,0:2|0:2,0:0:0:0:
468,384,129996,2,0,B|442:334|442:334|486:196,1,170,8|0,0:2|0:2,0:0:0:0:
512,89,130525,1,8,0:2:0:0:
364,125,130702,1,0,0:2:0:0:
364,125,130790,1,0,0:0:0:0:
364,125,130878,6,0,P|299:114|168:97,1,170,0|8,0:2|0:2,0:0:0:0:
0,100,131407,1,8,0:2:0:0:
103,38,131584,1,0,0:2:0:0:
216,87,131760,1,0,0:2:0:0:
85,63,131937,1,8,0:2:0:0:
22,181,132113,1,0,0:2:0:0:
22,181,132202,1,0,0:0:0:0:
22,181,132290,5,4,0:2:0:0:
114,277,132466,1,0,0:2:0:0:
116,183,132643,1,8,0:2:0:0:
20,275,132819,1,8,0:2:0:0:
274,348,132996,5,0,0:2:0:0:
218,227,133172,1,0,0:2:0:0:
185,315,133349,1,8,0:2:0:0:
306,259,133525,1,0,0:2:0:0:
306,259,133613,1,0,0:0:0:0:
306,259,133702,5,0,0:2:0:0:
394,291,134055,1,0,0:2:0:0:
480,322,134407,1,0,0:2:0:0:
512,234,134584,2,0,L|509:186,2,42.5,0|0|0,1:2|1:2|1:2,0:0:0:0:
437,115,134937,1,0,1:2:0:0:
437,115,135025,1,0,1:2:0:0:
437,115,135113,6,0,B|317:80|351:173|229:136,1,203.999993774414,4|8,1:2|0:2,0:0:0:0:
166,30,135643,1,8,0:2:0:0:
2,161,135819,2,0,P|119:144|138:238,1,203.999993774414,0|8,0:2|0:2,0:0:0:0:
119,312,136349,1,0,1:2:0:0:
242,139,136525,6,0,L|276:343,1,203.999993774414,0|8,1:2|0:2,0:0:0:0:
227,160,137055,1,8,0:2:0:0:
346,24,137231,1,0,0:2:0:0:
440,181,137407,1,0,1:2:0:0:
297,87,137584,1,8,0:2:0:0:
440,181,137760,1,0,1:2:0:0:
497,27,137937,6,0,P|440:133|422:231,1,203.999993774414,0|8,1:2|0:2,0:0:0:0:
512,379,138466,2,0,P|453:335|397:323,1,101.999996887207,8|0,0:2|0:2,0:0:0:0:
242,316,138819,2,0,P|309:286|347:244,1,101.999996887207,0|8,1:2|0:2,0:0:0:0:
349,162,139172,1,0,1:2:0:0:
270,68,139349,6,0,B|134:23|134:23|76:44,1,203.999993774414,0|8,1:2|0:2,0:0:0:0:
242,316,139878,2,0,B|377:360|377:360|435:339,1,203.999993774414,8|0,0:2|1:2,0:0:0:0:
256,192,140407,1,8,0:2:0:0:
256,192,140584,1,0,1:2:0:0:
79,247,140760,6,0,P|83:193|74:28,1,203.999993774414,0|8,1:2|0:2,0:0:0:0:
46,146,141290,1,8,0:2:0:0:
173,267,141466,2,0,P|177:213|168:48,1,203.999993774414,0|8,0:2|0:2,0:0:0:0:
315,2,141996,1,0,1:2:0:0:
345,163,142172,5,0,1:2:0:0:
241,37,142349,1,0,0:2:0:0:
341,159,142525,1,8,0:2:0:0:
493,51,142702,2,0,P|442:155|411:273,1,203.999993774414,8|0,0:2|1:2,0:0:0:0:
452,371,143231,1,8,0:2:0:0:
354,303,143407,1,0,1:2:0:0:
354,303,143496,1,0,1:2:0:0:
354,303,143583,6,0,L|299:285,1,50.9999984436036,8|0,1:2|0:0,0:0:0:0:
231,229,143760,2,0,L|29:257,1,170,8|0,1:2|0:2,0:0:0:0:
0,350,144113,6,0,L|55:332,1,50.9999984436036,8|0,1:2|0:0,0:0:0:0:
63,253,144290,2,0,B|149:232|149:232|231:229,1,170,8|0,1:2|0:2,0:0:0:0:
357,284,144643,6,0,L|302:266,1,50.9999984436036,8|0,1:2|0:0,0:0:0:0:
231,229,144819,2,0,B|147:219|147:219|6:274,1,175.099998530502,8|0,1:2|0:2,0:0:0:0:
1,366,145173,6,0,L|56:348,1,50.9999984436036,8|0,1:2|0:0,0:0:0:0:
64,251,145349,2,0,B|147:208|147:208|231:229,1,180.200000274963,8|0,1:2|0:2,0:0:0:0:
390,196,145613,1,8,1:2:0:0:
382,173,145702,2,0,L|282:139,1,101.999996887207,8|0,1:2|0:2,0:0:0:0:
385,334,146055,2,0,L|481:367,1,101.999996887207,8|0,1:2|0:2,0:0:0:0:
285,140,146407,6,0,B|252:199|252:199|291:365,1,203.999993774414,4|8,1:2|0:2,0:0:0:0:
283,331,146937,1,8,0:2:0:0:
162,316,147113,2,0,L|128:179,1,101.999996887207,0|0,0:2|1:2,0:0:0:0:
0,141,147466,1,8,0:2:0:0:
0,274,147643,1,0,1:2:0:0:
104,195,147819,6,0,P|196:178|329:162,1,203.999993774414,0|8,1:2|0:2,0:0:0:0:
426,181,148349,1,8,0:2:0:0:
391,66,148525,2,0,P|315:45|256:41,1,101.999996887207,0|0,0:2|1:2,0:0:0:0:
113,98,148878,1,8,0:2:0:0:
178,0,149055,1,0,1:2:0:0:
113,98,149231,6,0,L|149:333,1,203.999993774414,0|8,1:2|0:2,0:0:0:0:
276,384,149760,2,0,L|294:274,1,101.999996887207,8|0,0:2|0:2,0:0:0:0:
129,321,150113,2,0,L|145:220,1,101.999996887207,0|8,1:2|0:2,0:0:0:0:
206,78,150466,1,0,1:2:0:0:
293,283,150643,6,0,B|414:248|374:319|501:288,1,203.999993774414,0|8,1:2|0:2,0:0:0:0:
206,78,151172,2,0,B|85:113|125:42|-2:73,1,203.999993774414,8|0,0:2|1:2,0:0:0:0:
256,192,151702,1,8,0:2:0:0:
256,192,151878,1,0,1:2:0:0:
186,51,152055,6,0,P|163:121|139:287,1,203.999993774414,0|8,1:2|0:2,0:0:0:0:
187,373,152584,1,8,0:2:0:0:
11,291,152760,2,0,B|58:243|141:249|141:249|99:275|86:314,1,203.999993774414,0|8,0:2|0:2,0:0:0:0:
96,292,153290,1,0,1:2:0:0:
187,373,153466,5,0,1:2:0:0:
319,275,153643,1,0,0:2:0:0:
187,373,153819,1,8,0:2:0:0:
409,333,153996,2,0,L|194:291,1,203.999993774414,8|0,0:2|1:2,0:0:0:0:
208,293,154525,1,8,0:2:0:0:
304,229,154702,1,0,1:2:0:0:
304,229,154790,1,0,1:2:0:0:
304,229,154879,6,0,L|293:179,1,50.9999984436036,8|0,1:2|0:0,0:0:0:0:
245,115,155055,2,0,P|162:97|76:90,1,170,8|0,1:2|0:2,0:0:0:0:
9,193,155408,6,0,L|28:139,1,50.9999984436036,8|0,1:2|0:0,0:0:0:0:
81,73,155584,2,0,P|165:79|248:97,1,170,8|0,1:2|0:2,0:0:0:0:
318,211,155937,6,0,L|307:161,1,50.9999984436036,8|0,1:2|0:0,0:0:0:0:
251,79,156113,2,0,P|168:61|83:54,1,170,8|0,1:2|0:2,0:0:0:0:
0,166,156466,6,0,L|19:112,1,50.9999984436036,8|0,1:2|0:0,0:0:0:0:
87,37,156643,2,0,P|171:43|254:61,1,170,8|0,1:2|0:2,0:0:0:0:
399,130,156907,1,0,1:2:0:0:
383,114,156996,2,0,P|374:89|372:64,1,50.9999984436036,8|0,1:2|0:0,0:0:0:0:
318,211,157172,2,0,P|301:230|280:245,1,50.9999984436036,0|0,0:2|0:0,0:0:0:0:
435,219,157349,2,0,P|459:224|483:234,1,50.9999984436036,8|0,1:2|0:0,0:0:0:0:
244,358,157525,6,0,P|203:317|180:194,1,170,6|0,1:2|0:2,0:0:0:0:
221,126,158055,1,8,1:2:0:0:
177,210,158231,1,0,0:2:0:0:
177,210,158319,1,0,0:0:0:0:
177,210,158407,1,0,1:2:0:0:
69,100,158584,1,0,0:2:0:0:
83,194,158760,1,8,1:2:0:0:
154,57,158937,6,0,P|222:45|326:101,1,170,0|0,1:2|1:2,0:0:0:0:
380,167,159466,1,8,1:2:0:0:
493,102,159643,2,0,P|460:189|440:286,1,170,0|0,1:2|1:2,0:0:0:0:
479,375,160172,1,8,1:2:0:0:
362,289,160349,1,0,1:2:0:0:
362,289,160437,1,0,1:2:0:0:
362,289,160525,6,0,L|470:255,1,85,0|0,1:2|0:2,0:0:0:0:
246,358,160878,2,0,L|164:383,1,85,8|0,0:2|1:2,0:0:0:0:
23,249,161231,1,0,1:2:0:0:
128,273,161407,1,0,0:2:0:0:
23,249,161584,1,8,1:2:0:0:
145,364,161760,6,0,L|189:177,1,170,0|0,1:2|1:2,0:0:0:0:
122,76,162290,1,8,1:2:0:0:
266,219,162466,2,0,L|150:190,1,85,0|0,1:2|0:2,0:2:0:0:
102,50,162819,1,0,1:2:0:0:
69,160,162996,1,8,1:2:0:0:
228,89,163172,1,0,1:2:0:0:
228,89,163260,1,0,1:2:0:0:
228,89,163349,6,0,B|340:77,2,85,0|0|8,1:2|1:2|1:2,0:0:0:0:
484,33,163878,2,0,P|445:106|455:216,1,170,0|0,1:2|1:2,0:0:0:0:
452,316,164407,1,8,1:2:0:0:
294,274,164584,6,0,B|334:278|375:249|375:249|349:292|358:332,1,170,0|0,1:2|1:2,0:0:0:0:
452,316,165113,1,8,1:2:0:0:
261,355,165290,2,0,P|187:319|86:299,1,170,0|0,1:2|1:2,0:0:0:0:
175,222,165819,2,0,P|232:215|296:191,1,85,8|0,1:2|0:2,0:0:0:0:
313,120,166172,1,0,1:2:0:0:
384,192,166349,1,0,0:2:0:0:
405,67,166525,6,0,L|413:25,1,42.5,8|0,1:2|0:0,0:0:0:0:
299,104,166702,1,8,1:2:0:0:
299,104,166790,1,0,1:2:0:0:
299,104,166878,2,0,L|310:49,1,42.5,0|0,1:2|0:0,0:0:0:0:
193,141,167055,2,0,L|204:86,1,42.5,0|0,1:2|0:0,0:0:0:0:
88,0,167231,1,8,1:2:0:0:
91,20,167319,1,0,1:2:0:0:
94,41,167407,1,0,1:2:0:0:
98,62,167496,1,0,1:2:0:0:
102,82,167584,6,0,P|99:119|89:181,1,85,0|0,1:2|1:2,0:0:0:0:
261,191,167937,2,0,P|230:169|181:130,1,85,8|0,1:2|0:2,0:0:0:0:
87,274,168290,2,0,P|120:258|179:235,1,85,0|0,1:2|1:2,0:0:0:0:
256,299,168643,1,8,1:2:0:0:
261,191,168819,1,0,0:2:0:0:
352,249,168996,6,0,L|449:222,1,85,4|0,0:2|0:2,0:0:0:0:
512,300,169349,1,0,0:2:0:0:
351,127,169525,2,0,L|448:100,1,85,4|0,0:2|0:2,0:0:0:0:
511,178,169878,1,0,0:2:0:0:
511,178,169966,1,0,0:0:0:0:
511,178,170055,1,4,0:2:0:0:
386,40,170231,1,0,0:2:0:0:
261,191,170407,6,1,B|216:184|216:184|177:201|177:201|131:190|131:190|86:209|86:209|27:177|16:134|23:84|53:57,1,356.000000000001,4|0,0:2|3:2,0:0:0:0:
111,15,171466,1,0,3:2:0:0:
122,98,171643,1,0,3:2:0:0:
45,65,171819,1,2,3:2:0:0:
167,188,183113,6,0,L|-9:226,1,170,4|8,0:2|0:2,0:0:0:0:
125,329,183643,2,0,L|302:358,1,170,8|0,0:2|0:2,0:0:0:0:
377,267,184172,1,8,0:2:0:0:
469,362,184349,1,0,0:2:0:0:
469,362,184437,1,0,0:0:0:0:
469,362,184525,6,0,P|489:274|482:177,1,170,0|8,0:2|0:2,0:0:0:0:
401,92,185055,2,0,B|363:122|363:122|226:86,1,170,8|0,0:2|0:2,0:0:0:0:
106,93,185584,1,8,0:2:0:0:
172,7,185760,1,0,0:2:0:0:
245,91,185937,6,0,B|269:147|269:147|238:272,1,170,4|8,0:2|0:2,0:0:0:0:
60,249,186466,2,0,P|98:227|141:209,1,85,8|0,0:2|0:2,0:0:0:0:
230,240,186819,1,0,0:2:0:0:
156,318,186996,1,8,0:2:0:0:
333,276,187172,1,0,0:2:0:0:
333,276,187260,1,0,0:0:0:0:
333,276,187349,6,0,L|511:322,1,170,0|8,0:2|0:2,0:0:0:0:
512,161,187878,1,8,0:2:0:0:
490,241,188055,1,0,0:2:0:0:
430,139,188231,1,0,0:2:0:0:
410,219,188407,1,8,0:2:0:0:
339,110,188584,1,0,0:2:0:0:
339,110,188672,1,0,0:0:0:0:
339,110,188760,6,0,P|274:92|235:82,1,85,4|0,0:2|0:2,0:0:0:0:
199,267,189113,2,0,P|247:219|275:190,1,85,8|8,0:2|0:2,0:0:0:0:
133,67,189466,2,0,P|149:132|160:171,1,85,0|8,0:2|0:2,0:0:0:0:
199,267,189819,1,8,0:2:0:0:
87,244,189996,1,0,1:2:0:0:
87,244,190084,1,0,1:2:0:0:
87,244,190172,1,0,1:2:0:0:
133,67,191055,6,0,P|140:39|151:1,2,42.5,0|0|0,1:2|1:2|1:2,0:0:0:0:
199,138,191407,1,0,1:2:0:0:
199,138,191496,1,0,1:2:0:0:
199,138,191584,6,0,L|353:109,1,136,4|8,1:2|0:2,0:0:0:0:
332,112,192113,1,8,0:2:0:0:
403,206,192290,2,0,L|270:232,1,136,0|8,0:2|0:2,0:0:0:0:
270,232,192819,1,0,0:2:0:0:
193,295,192996,6,0,P|184:220|156:137,1,136,0|8,0:2|0:2,0:0:0:0:
166,162,193525,1,8,0:2:0:0:
68,184,193702,2,0,P|87:249|95:317,1,136,0|8,0:2|0:2,0:0:0:0:
94,316,194231,1,0,0:2:0:0:
60,205,194407,6,0,L|78:61,1,136,0|8,0:2|0:2,0:0:0:0:
163,11,194937,2,0,L|179:97,1,68,8|0,0:2|0:2,0:0:0:0:
257,21,195290,2,0,L|273:107,1,68,0|8,0:2|0:2,0:0:0:0:
314,168,195643,1,0,0:2:0:0:
382,60,195819,6,0,B|364:138|413:113|393:192,1,136,0|8,0:2|0:2,0:0:0:0:
479,52,196349,2,0,B|461:130|510:105|490:184,1,136,8|0,0:2|0:2,0:0:0:0:
446,273,196878,1,8,0:2:0:0:
446,273,197055,1,0,0:2:0:0:
401,352,197231,6,0,P|343:330|256:306,1,136,0|8,0:2|0:2,0:0:0:0:
271,309,197760,1,8,0:2:0:0:
158,361,197937,2,0,P|185:307|163:217,1,136,0|8,0:2|0:2,0:0:0:0:
97,174,198466,1,0,0:2:0:0:
35,262,198643,6,0,L|24:340,2,68,0|0|8,0:2|0:2|0:2,0:0:0:0:
85,194,199172,2,0,L|106:44,1,136,8|0,0:2|0:2,0:0:0:0:
197,14,199702,1,8,0:2:0:0:
197,14,199878,1,0,0:2:0:0:
158,216,200055,6,0,L|211:174,1,50.9999984436036,8|0,1:2|0:0,0:0:0:0:
267,96,200231,2,0,L|421:64,1,152.999995330811,8|0,1:2|0:2,0:0:0:0:
507,177,200584,6,0,L|444:164,1,50.9999984436036,8|0,1:2|0:0,0:0:0:0:
416,83,200760,2,0,L|267:115,1,152.999995330811,8|0,1:2|0:2,0:0:0:0:
169,231,201114,6,0,L|222:189,1,50.9999984436036,8|0,1:2|0:0,0:0:0:0:
267,134,201290,2,0,L|416:102,1,152.999995330811,8|0,1:2|0:2,0:0:0:0:
512,202,201643,6,0,L|449:189,1,50.9999984436036,8|0,1:2|0:0,0:0:0:0:
416,121,201819,2,0,L|267:153,1,152.999995330811,8|0,1:2|0:2,0:0:0:0:
169,231,202084,1,0,1:2:0:0:
185,250,202172,2,0,L|267:268,1,85,8|0,1:2|0:2,0:0:0:0:
106,342,202525,2,0,L|23:323,1,85,8|0,1:2|0:2,0:0:0:0:
0,164,202878,5,8,0:2:0:0:
185,250,203231,5,8,0:2:0:0:
102,56,203407,1,0,1:2:0:0:
102,56,203496,1,0,1:2:0:0:
102,56,203584,5,8,0:2:0:0:
148,169,203760,1,8,0:2:0:0:
261,0,203937,1,8,0:2:0:0:
237,136,204113,1,8,0:2:0:0:
314,93,204290,6,0,P|355:92|418:97,2,85,2|0|0,0:2|0:2|0:2,0:0:0:0:
237,136,205172,6,0,P|214:132|193:123,1,34,0|0,1:2|0:0,0:0:0:0:
142,87,205349,1,4,1:2:0:0:
142,87,205702,6,0,P|78:115|77:237,1,203.999993774414,0|12,1:2|0:2,0:0:0:0:
124,338,206231,1,8,0:2:0:0:
230,273,206407,2,0,B|356:265|290:333|438:330,1,203.999993774414,0|8,0:2|0:2,0:0:0:0:
396,232,206937,1,0,1:2:0:0:
246,296,207113,6,0,P|227:192|216:85,1,203.999993774414,0|8,1:2|0:2,0:0:0:0:
313,0,207643,1,8,0:2:0:0:
216,94,207819,1,0,0:2:0:0:
302,146,207996,1,0,1:2:0:0:
147,57,208172,1,8,0:2:0:0:
302,146,208349,1,0,1:2:0:0:
141,238,208525,6,0,L|114:35,1,203.999993774414,0|8,1:2|0:2,0:0:0:0:
121,216,209055,2,0,L|99:315,1,101.999996887207,8|0,0:2|0:2,0:0:0:0:
302,146,209407,2,0,L|281:246,1,101.999996887207,0|8,1:2|0:2,0:0:0:0:
289,377,209760,1,0,1:2:0:0:
461,258,209937,6,0,B|421:213|421:213|254:251,1,203.999993774414,0|8,1:2|0:2,0:0:0:0:
34,59,210466,2,0,B|74:104|74:104|241:66,1,203.999993774414,8|0,0:2|1:2,0:0:0:0:
339,19,210996,1,8,0:2:0:0:
339,19,211172,1,0,1:2:0:0:
421,122,211349,6,0,P|416:202|400:328,1,203.999993774414,0|8,1:2|0:2,0:0:0:0:
292,384,211878,1,8,0:2:0:0:
187,295,212055,2,0,P|233:271|293:255,1,101.999996887207,0|0,0:2|1:2,0:0:0:0:
87,384,212407,2,0,P|40:362|0:332,1,101.999996887207,8|0,0:2|1:2,0:0:0:0:
12,134,212760,5,0,1:2:0:0:
154,227,212937,1,0,0:2:0:0:
12,303,213113,1,8,0:2:0:0:
12,134,213290,2,0,P|88:136|213:164,1,203.999993774414,8|0,0:2|1:2,0:0:0:0:
296,209,213819,1,8,0:2:0:0:
317,60,213996,1,0,1:2:0:0:
317,60,214084,1,0,1:2:0:0:
317,60,214172,6,0,L|341:146,1,50.9999984436036,8|0,1:2|0:0,0:0:0:0:
402,146,214349,2,0,L|436:351,1,170,8|0,1:2|0:2,0:0:0:0:
335,384,214701,6,0,L|348:334,1,50.9999984436036,8|0,1:2|0:0,0:0:0:0:
436,298,214878,2,0,L|409:131,1,170,8|0,1:2|0:2,0:0:0:0:
326,45,215231,6,0,L|350:131,1,50.9999984436036,8|0,1:2|0:0,0:0:0:0:
416,116,215408,2,0,L|450:321,1,170,8|0,1:2|0:2,0:0:0:0:
352,370,215760,6,0,L|365:320,1,50.9999984436036,8|0,1:2|0:0,0:0:0:0:
450,268,215937,2,0,L|423:101,1,170,8|0,1:2|0:2,0:0:0:0:
326,45,216202,1,0,1:2:0:0:
350,31,216290,2,0,L|234:7,1,101.999996887207,8|0,1:2|0:2,0:0:0:0:
178,145,216643,2,0,L|277:165,1,101.999996887207,8|0,1:2|0:2,0:0:0:0:
32,7,216996,6,0,L|72:207,1,203.999993774414,4|12,1:2|0:2,0:0:0:0:
106,318,217525,1,8,0:2:0:0:
270,274,217702,6,0,B|226:284|176:249|176:249|208:302|197:350,1,203.999993774414,0|8,0:2|0:2,0:0:0:0:
106,318,218231,1,0,1:2:0:0:
295,372,218407,2,0,P|375:340|520:306,1,203.999993774414,0|8,1:2|0:2,0:0:0:0:
385,312,218937,1,8,0:2:0:0:
385,312,219113,1,0,0:2:0:0:
463,204,219290,1,0,1:2:0:0:
358,107,219466,1,8,0:2:0:0:
463,204,219643,1,0,1:2:0:0:
271,219,219819,6,0,B|152:231|199:151|41:183,1,203.999993774414,0|8,1:2|0:2,0:0:0:0:
3,93,220349,2,0,L|122:64,1,101.999996887207,8|0,0:2|0:2,0:0:0:0:
28,287,220702,2,0,L|147:258,1,101.999996887207,0|8,1:2|0:2,0:0:0:0:
256,128,221055,1,0,1:2:0:0:
354,279,221231,6,0,B|398:234|394:176|394:176|361:123|375:69,1,203.999993774414,0|8,1:2|0:2,0:0:0:0:
158,279,221760,2,0,B|113:234|117:176|117:176|150:123|136:69,1,203.999993774414,8|0,0:2|1:2,0:0:0:0:
256,0,222290,1,8,0:2:0:0:
256,0,222466,1,0,1:2:0:0:
256,128,222643,6,0,L|256:256,1,101.999996887207,0|0,1:2|0:2,0:0:0:0:
283,355,222996,1,8,0:2:0:0:
256,230,223172,1,8,0:2:0:0:
164,309,223349,2,0,P|93:330|4:224,1,203.999993774414,0|8,0:2|0:2,0:0:0:0:
33,124,223878,1,0,1:2:0:0:
164,185,224055,5,0,1:2:0:0:
5,249,224231,1,0,0:2:0:0:
164,185,224407,1,8,0:2:0:0:
48,41,224584,2,0,L|100:245,1,203.999993774414,8|0,0:2|1:2,0:0:0:0:
98,238,225113,1,8,0:2:0:0:
172,330,225290,1,0,1:2:0:0:
172,330,225378,1,0,1:2:0:0:
172,330,225466,6,0,L|229:300,1,50.9999984436036,8|0,1:2|0:0,0:0:0:0:
303,256,225642,2,0,L|261:67,1,170,8|0,1:2|0:2,0:0:0:0:
391,19,225997,6,0,L|334:49,1,50.9999984436036,8|0,1:2|0:0,0:0:0:0:
284,108,226172,2,0,L|321:274,1,170,8|0,1:2|0:2,0:0:0:0:
189,349,226526,6,0,L|246:319,1,50.9999984436036,8|0,1:2|0:0,0:0:0:0:
339,292,226702,2,0,L|297:103,1,170,8|0,1:2|0:2,0:0:0:0:
406,31,227055,6,0,L|349:61,1,50.9999984436036,8|0,1:2|0:0,0:0:0:0:
320,144,227231,2,0,L|357:310,1,170,8|0,1:2|0:2,0:0:0:0:
87,55,227584,5,8,1:2:0:0:
70,39,228113,6,0,P|58:156|59:303,1,255.000009727478,6|0,0:2|0:2,0:0:0:0:
138,384,228643,2,0,L|240:357,1,85,10|0,0:2|0:2,0:0:0:0:
347,277,228996,2,0,L|251:253,1,85,2|0,0:2|0:2,0:0:0:0:
191,343,229349,1,8,0:2:0:0:
264,256,229525,1,0,0:2:0:0:
411,359,229702,6,0,P|435:278|409:199,1,170,2|8,0:2|0:2,0:0:0:0:
293,122,230231,2,0,P|249:176|152:204,1,170,2|2,0:2|0:2,0:0:0:0:
85,153,230760,1,8,0:2:0:0:
2,258,230937,6,0,B|-17:212|-17:212|17:79,1,170,6|0,0:2|0:2,0:0:0:0:
113,37,231466,1,10,0:2:0:0:
13,96,231643,1,0,0:2:0:0:
141,59,231819,2,0,P|242:88|344:111,1,170,2|8,0:2|0:2,0:0:0:0:
406,37,232349,1,0,0:2:0:0:
491,170,232525,6,0,L|304:205,1,170,2|8,0:2|0:2,0:0:0:0:
323,201,233055,1,10,0:2:0:0:
236,301,233231,6,0,B|295:342|295:342|387:324,1,144.500002756119,2|2,0:2|0:2,0:0:0:0:
248,280,233760,6,0,P|176:270|69:323,1,170,6|0,0:2|0:2,0:0:0:0:
18,185,234290,1,10,0:2:0:0:
126,194,234466,1,0,0:2:0:0:
18,185,234643,2,0,L|0:75,1,85,2|0,0:2|0:2,0:0:0:0:
68,17,234996,1,8,0:2:0:0:
4,101,235172,1,0,0:2:0:0:
241,58,235349,6,0,P|182:35|128:36,1,85,2|0,1:2|0:2,0:0:0:0:
320,153,235702,2,0,P|369:113|395:66,1,85,8|2,1:2|0:2,0:0:0:0:
198,173,236055,2,0,P|207:235|235:281,1,85,2|2,1:2|1:2,0:0:0:0:
273,350,236407,1,8,0:2:0:0:
273,350,236584,1,2,0:2:0:0:
483,252,236760,5,8,1:2:0:0:
345,169,236937,1,0,0:2:0:0:
372,279,237113,1,8,1:2:0:0:
455,141,237290,1,0,0:2:0:0:
180,195,237466,5,8,1:2:0:0:
97,57,237643,1,0,0:2:0:0:
69,167,237819,1,8,1:2:0:0:
207,84,237996,1,0,0:2:0:0:
291,223,238172,5,8,1:2:0:0:
153,306,238349,1,0,0:2:0:0:
153,306,238437,1,0,0:0:0:0:
153,306,238525,2,0,L|91:278,1,42.5,8|0,1:2|0:0,0:0:0:0:
252,205,238702,2,0,L|290:222,1,42.5,0|0,0:2|0:0,0:0:0:0:
250,359,238878,5,8,1:2:0:0:
207,84,239055,1,8,1:2:0:0:
195,65,239407,6,1,B|232:71|232:71|264:57|264:57|302:66|302:66|339:50|339:50|387:77|396:112|391:153|366:175,1,296.666675187653,4|0,0:2|0:0,0:0:0:0:
