osu file format v14

[General]
AudioFilename: audio.mp3
AudioLeadIn: 0
PreviewTime: 3819
Countdown: 0
SampleSet: Soft
StackLeniency: 0.3
Mode: 0
LetterboxInBreaks: 0
WidescreenStoryboard: 1

[Editor]
DistanceSpacing: 1.4
BeatDivisor: 4
GridSize: 32
TimelineZoom: 1

[Metadata]
Title:Oshiete A to Z
TitleUnicode:おしえて A to Z
Artist:Tamura Yukari
ArtistUnicode:田村ゆかり
Creator:RVMathew
Version:3rd Base
Source:B型H系
Tags:Azunyan- Mayu Sakuma Xexyz teach me Full Version OP opening Ver. Yamada's First Time B Gata H Kei anime Japanese j-pop jpop
BeatmapID:2979854
BeatmapSetID:1449220

[Difficulty]
HPDrainRate:5
CircleSize:4.2
OverallDifficulty:7
ApproachRate:8
SliderMultiplier:1.24
SliderTickRate:1

[Events]
//Background and Video events
0,0,"stretched-1920-1080-748422.jpg",0,0
//Break Periods
2,159136,168096
//Storyboard Layer 0 (Background)
//Storyboard Layer 1 (Fail)
//Storyboard Layer 2 (Pass)
//Storyboard Layer 3 (Foreground)
//Storyboard Layer 4 (Overlay)
//Storyboard Sound Samples

[TimingPoints]
2408,352.941176470588,4,2,1,70,1,0
5231,-90.9090909090909,4,2,1,75,0,1
16172,-90.9090909090909,4,2,1,75,0,0
16525,-90.9090909090909,4,2,1,75,0,1
27643,-100,4,2,1,70,0,0
50407,-117.647058823529,4,2,3,55,0,0
61702,-100,4,2,1,65,0,0
70172,-90.9090909090909,4,2,1,75,0,1
81113,-90.9090909090909,4,2,1,75,0,0
81466,-90.9090909090909,4,2,1,75,0,1
92584,-100,4,2,1,70,0,0
109702,-105.263157894737,4,2,1,70,0,0
110584,-100,4,2,1,70,0,0
115349,-117.647058823529,4,2,3,55,0,0
125584,-117.647058823529,4,2,3,60,0,0
126643,-100,4,2,1,65,0,0
135113,-90.9090909090909,4,2,1,75,0,1
146055,-90.9090909090909,4,2,1,75,0,0
146407,-90.9090909090909,4,2,1,75,0,1
157525,-117.647058823529,4,2,1,70,0,0
158937,-117.647058823529,4,2,1,10,0,0
168996,-100,4,2,1,70,0,0
171290,-100,4,2,1,50,0,0
171819,-117.647058823529,4,2,3,55,0,0
181702,-117.647058823529,4,2,3,50,0,0
183113,-100,4,2,1,65,0,0
190172,-100,4,2,1,70,0,0
191584,-100,4,2,1,65,0,0
200055,-100,4,2,1,70,0,0
205702,-90.9090909090909,4,2,1,75,0,1
216643,-90.9090909090909,4,2,1,75,0,0
216996,-90.9090909090909,4,2,1,75,0,1
228113,-100,4,2,1,70,0,0

[Colours]
Combo1 : 255,196,136
Combo2 : 151,255,255
Combo3 : 255,168,211
Combo4 : 240,221,164

[HitObjects]
490,20,2408,6,0,L|478:106,1,62,4|0,0:2|0:2,0:0:0:0:
467,171,2760,1,8,0:2:0:0:
467,171,2937,2,0,L|327:195,1,124,8|0,0:2|0:2,0:0:0:0:
259,207,3466,2,0,L|247:291,1,62,8|0,0:2|0:2,0:0:0:0:
230,353,3819,6,0,P|166:360|112:319,1,124,4|0,0:2|0:2,0:0:0:0:
62,262,4349,1,4,0:2:0:0:
62,262,4525,2,0,P|55:198|96:144,1,124,0|4,0:2|0:2,0:0:0:0:
256,48,5231,6,0,L|284:181,1,136.400004162598,4|8,1:2|0:2,0:0:0:0:
380,210,5760,1,8,0:2:0:0:
380,210,5937,2,0,L|352:77,1,136.400004162598,0|8,0:2|0:2,0:0:0:0:
256,48,6466,1,0,1:2:0:0:
186,113,6643,6,0,P|127:80|62:92,1,136.400004162598,0|8,1:2|0:2,0:0:0:0:
117,177,7172,1,8,0:2:0:0:
117,177,7349,2,0,P|112:214|128:262,2,68.2000020812989,0|0|8,0:2|1:2|0:2,0:0:0:0:
186,113,7878,1,0,1:2:0:0:
256,178,8055,6,0,P|321:169|380:210,1,136.400004162598,0|8,1:2|0:2,0:0:0:0:
301,261,8584,2,0,L|337:118,1,136.400004162598,8|0,0:2|1:2,0:0:0:0:
358,36,9113,1,8,0:2:0:0:
271,70,9290,1,0,1:2:0:0:
271,70,9466,6,0,P|214:41|134:67,1,136.400004162598,0|8,1:2|0:2,0:0:0:0:
78,126,9996,2,0,P|49:182|75:262,1,136.400004162598,8|0,0:2|1:2,0:0:0:0:
128,323,10525,1,8,0:2:0:0:
210,260,10702,1,0,1:2:0:0:
210,260,10878,6,0,P|280:261|331:323,1,136.400004162598,0|8,1:2|0:2,0:0:0:0:
247,349,11407,1,8,0:2:0:0:
247,349,11584,2,0,P|263:280|238:220,1,136.400004162598,0|8,0:2|0:2,0:0:0:0:
179,154,12113,1,0,1:2:0:0:
179,154,12290,6,0,P|180:118|201:83,1,68.2000020812989,0|0,1:2|0:2,0:0:0:0:
259,20,12643,1,8,0:2:0:0:
259,20,12819,2,0,L|396:20,1,136.400004162598,8|0,0:2|1:2,0:0:0:0:
481,65,13349,1,8,0:2:0:0:
446,154,13525,1,8,1:2:0:0:
436,180,13613,1,8,1:2:0:0:
426,205,13702,5,8,1:2:0:0:
383,313,13878,1,8,1:2:0:0:
383,313,14231,5,8,1:2:0:0:
276,270,14407,1,8,1:2:0:0:
276,270,14760,5,8,1:2:0:0:
318,161,14937,1,8,1:2:0:0:
318,161,15290,5,8,1:2:0:0:
426,205,15466,1,8,1:2:0:0:
426,205,15819,5,8,1:2:0:0:
256,69,16172,1,8,1:2:0:0:
86,205,16525,6,0,P|76:270|119:333,1,136.400004162598,4|8,1:2|0:2,0:0:0:0:
173,255,17055,1,8,0:2:0:0:
173,255,17231,2,0,P|238:265|301:222,1,136.400004162598,0|8,0:2|0:2,0:0:0:0:
221,169,17760,1,0,1:2:0:0:
296,229,17937,6,0,P|286:294|329:357,1,136.400004162598,0|8,1:2|0:2,0:0:0:0:
383,279,18466,1,8,0:2:0:0:
383,279,18643,2,0,L|395:199,2,68.2000020812989,0|0|8,0:2|1:2|0:2,0:0:0:0:
321,351,19172,1,0,1:2:0:0:
225,351,19349,6,0,L|83:351,1,136.400004162598,0|8,1:2|0:2,0:0:0:0:
31,274,19878,2,0,P|-1:212|18:140,1,136.400004162598,8|0,0:2|1:2,0:0:0:0:
75,77,20407,1,8,0:2:0:0:
157,134,20584,1,0,1:2:0:0:
157,134,20760,6,0,P|223:138|281:90,1,136.400004162598,0|8,1:2|0:2,0:0:0:0:
342,168,21290,2,0,P|408:164|466:212,1,136.400004162598,8|0,0:2|1:2,0:0:0:0:
380,255,21819,1,8,0:2:0:0:
426,352,21996,1,0,1:2:0:0:
426,352,22172,6,0,L|268:352,1,136.400004162598,0|8,1:2|0:2,0:0:0:0:
209,309,22702,1,8,0:2:0:0:
209,309,22878,2,0,P|194:240|228:181,1,136.400004162598,0|8,0:2|0:2,0:0:0:0:
311,140,23407,1,0,1:2:0:0:
311,140,23584,6,0,P|310:104|289:69,1,68.2000020812989,0|0,1:2|0:2,0:0:0:0:
218,28,23937,1,8,0:2:0:0:
218,28,24113,2,0,L|81:28,1,136.400004162598,8|0,0:2|1:2,0:0:0:0:
18,100,24643,1,8,0:2:0:0:
111,120,24819,1,8,1:2:0:0:
101,146,24907,1,8,1:2:0:0:
91,171,24996,5,8,1:2:0:0:
134,279,25172,1,8,1:2:0:0:
134,279,25525,5,8,1:2:0:0:
241,236,25702,1,8,1:2:0:0:
241,236,26055,5,8,1:2:0:0:
199,127,26231,1,8,1:2:0:0:
199,127,26584,5,8,1:2:0:0:
91,171,26760,1,8,1:2:0:0:
91,171,27113,5,8,1:2:0:0:
117,79,27290,1,0,0:2:0:0:
199,127,27466,1,8,1:2:0:0:
236,28,27643,6,0,P|298:30|343:68,1,124,6|0,0:2|0:2,0:0:0:0:
393,140,28172,2,0,P|439:100|500:99,2,124,10|2|8,0:2|0:2|0:2,0:0:0:0:
325,195,29055,1,0,0:2:0:0:
256,120,29231,6,0,P|226:179|240:252,1,124,2|8,0:2|0:2,0:0:0:0:
268,319,29760,1,10,0:2:0:0:
268,319,29937,2,0,L|179:303,2,62,2|2|8,0:2|0:2|0:2,0:0:0:0:
353,332,30466,6,0,P|407:332|465:280,1,124,6|0,0:2|0:2,0:0:0:0:
490,208,30996,2,0,P|490:154|438:96,2,124,10|2|8,0:2|0:2|0:2,0:0:0:0:
460,290,31878,1,0,0:2:0:0:
370,260,32055,6,0,P|306:251|250:288,1,124,2|8,0:2|0:2,0:0:0:0:
190,336,32584,1,10,0:2:0:0:
155,246,32760,1,2,0:2:0:0:
225,182,32937,1,2,0:2:0:0:
225,182,33290,6,0,P|225:123|169:69,1,124,6|0,0:2|0:2,0:0:0:0:
143,152,33819,2,0,P|84:152|30:208,2,124,10|2|8,0:2|0:2|0:2,0:0:0:0:
111,233,34702,1,0,0:2:0:0:
154,322,34878,6,0,P|200:358|277:347,1,124,2|8,0:2|0:2,0:0:0:0:
330,300,35407,1,10,0:2:0:0:
330,300,35584,2,0,P|326:265|338:219,2,62,2|2|8,0:2|0:2|0:2,0:0:0:0:
408,338,36113,1,2,0:2:0:0:
488,265,36290,6,0,P|496:234|496:203,1,62,12|0,1:2|0:2,0:0:0:0:
420,160,36643,2,0,P|412:189|411:220,1,62,8|0,1:2|0:2,0:0:0:0:
496,117,36996,2,0,P|504:86|504:55,1,62,8|0,1:2|0:2,0:0:0:0:
431,8,37349,1,8,1:2:0:0:
374,73,37525,1,0,0:2:0:0:
287,27,37702,6,0,P|223:18|173:53,1,124,8|8,1:2|1:2,0:0:0:0:
244,102,38231,1,0,0:2:0:0:
186,183,38407,1,8,1:2:0:0:
256,255,38584,1,8,1:2:0:0:
256,255,38937,6,0,P|205:286|137:279,1,124,4|0,0:2|0:2,0:0:0:0:
60,252,39466,1,8,0:2:0:0:
22,173,39643,1,8,0:2:0:0:
132,12,39996,2,0,P|177:50|190:115,1,124,0|0,0:2|0:2,0:0:0:0:
159,192,40525,6,0,P|120:237|55:250,1,124,0|8,0:2|0:2,0:0:0:0:
77,165,41055,1,8,0:2:0:0:
159,192,41231,2,0,P|151:222|159:274,1,62,0|0,0:2|0:2,0:0:0:0:
236,231,41584,2,0,P|265:222|291:206,1,62,8|0,0:2|0:2,0:0:0:0:
227,148,41937,6,0,P|196:90|210:30,1,124,0|8,0:2|0:2,0:0:0:0:
284,79,42466,2,0,P|341:48|401:62,1,124,8|0,0:2|0:2,0:0:0:0:
475,99,42996,1,8,0:2:0:0:
427,171,43172,1,0,1:2:0:0:
434,195,43260,1,0,1:2:0:0:
441,219,43349,5,0,1:2:0:0:
401,312,43525,1,8,1:2:0:0:
401,312,43702,2,0,P|333:324|279:297,1,124,8|0,1:2|0:2,0:0:0:0:
232,233,44231,1,8,1:2:0:0:
294,152,44407,1,8,1:2:0:0:
135,35,44760,6,0,P|186:60|256:50,1,124,4|8,0:2|0:2,0:0:0:0:
330,15,45290,1,8,0:2:0:0:
330,15,45643,1,0,0:2:0:0:
251,52,45819,1,8,0:2:0:0:
294,133,45996,1,0,0:2:0:0:
294,133,46172,6,0,P|256:184|264:250,1,124,0|8,0:2|0:2,0:0:0:0:
301,319,46702,1,8,0:2:0:0:
372,270,46878,2,0,L|495:258,1,124,0|8,0:2|0:2,0:0:0:0:
510,84,47584,6,0,L|386:95,1,124,0|8,0:2|0:2,0:0:0:0:
310,51,48113,1,0,0:2:0:0:
256,119,48290,2,0,L|167:103,1,62,0|0,0:2|0:2,0:0:0:0:
122,165,48643,1,8,0:2:0:0:
122,165,48819,6,0,P|61:156|9:191,1,124,0|8,1:2|1:2,0:0:0:0:
80,241,49349,2,0,P|102:298|159:325,1,124,8|0,1:2|0:2,0:0:0:0:
189,241,49878,1,8,1:2:0:0:
122,165,50055,1,8,1:2:0:0:
315,73,50407,6,0,P|261:72|213:42,2,105.400002010345,2|0|2,3:2|0:2|3:2,0:0:0:0:
382,41,51290,1,0,0:2:0:0:
425,101,51466,1,8,3:2:0:0:
425,101,51819,6,0,P|495:117|454:166,1,158.100003015518,2|0,3:2|3:2,0:0:0:0:
396,205,52525,2,0,P|374:249|384:317,1,105.400002010345,2|8,3:2|3:2,0:0:0:0:
378,303,53231,5,2,3:2:0:0:
508,238,53584,1,0,0:2:0:0:
488,92,53937,1,2,3:2:0:0:
343,66,54290,1,8,3:2:0:0:
274,197,54643,5,2,3:2:0:0:
274,197,54819,2,0,P|221:201|158:179,1,105.400002010345,0|0,3:2|3:2,0:0:0:0:
113,140,55349,2,0,P|86:140|61:148,1,52.7000010051727,2|0,3:2|3:2,0:0:0:0:
1,192,55702,1,8,3:2:0:0:
168,331,56055,6,0,P|222:330|270:300,2,105.400002010345,2|0|2,3:2|0:2|3:2,0:0:0:0:
118,275,56937,1,0,0:2:0:0:
52,308,57113,1,8,3:2:0:0:
52,308,57466,6,0,P|12:214|38:153,1,158.100003015518,2|0,3:2|3:2,0:0:0:0:
90,123,58172,2,0,P|89:70|61:26,1,105.400002010345,2|8,3:2|3:2,0:0:0:0:
62,27,58878,5,2,3:2:0:0:
199,81,59231,1,0,0:2:0:0:
256,217,59584,1,2,3:2:0:0:
313,81,59937,1,8,3:2:0:0:
454,31,60290,5,2,3:2:0:0:
454,31,60466,2,0,P|453:81|476:138,1,105.400002010345,0|0,3:2|3:2,0:0:0:0:
431,194,60996,2,0,P|437:222|435:261,1,52.7000010051727,2|0,3:2|3:2,0:0:0:0:
429,271,61260,1,0,3:2:0:0:
411,291,61349,2,0,L|342:291,1,52.7000010051727,8|0,3:2|0:2,0:0:0:0:
256,355,61702,6,0,L|128:355,1,124,4|8,0:2|0:2,0:0:0:0:
72,291,62231,2,0,P|44:240|63:171,1,124,8|0,0:2|0:2,0:0:0:0:
129,226,62760,1,8,0:2:0:0:
189,151,62937,1,0,0:2:0:0:
189,151,63113,6,0,P|186:90|144:46,1,124,0|8,0:2|0:2,0:0:0:0:
63,14,63643,1,8,0:2:0:0:
63,14,63996,1,0,0:2:0:0:
11,83,64172,2,0,L|27:154,1,62,8|0,0:2|0:2,0:0:0:0:
45,237,64525,6,0,P|109:250|162:214,1,124,4|8,0:2|0:2,0:0:0:0:
229,271,65055,2,0,P|281:241|340:255,1,124,8|0,0:2|0:2,0:0:0:0:
416,297,65584,1,8,0:2:0:0:
480,222,65760,1,0,0:2:0:0:
480,222,65937,6,0,P|494:167|449:98,1,124,0|8,0:2|0:2,0:0:0:0:
407,175,66466,1,8,0:2:0:0:
331,132,66643,1,0,0:2:0:0:
285,205,66819,1,0,0:2:0:0:
360,249,66996,1,8,0:2:0:0:
322,328,67172,1,0,0:2:0:0:
322,328,67349,6,0,P|387:330|441:278,1,124,12|8,0:2|0:2,0:0:0:0:
360,249,67878,1,0,0:2:0:0:
360,249,68055,2,0,P|299:245|250:281,1,124,8|8,0:2|0:2,0:0:0:0:
189,342,68584,1,8,0:2:0:0:
189,342,68672,1,0,0:2:0:0:
189,342,68760,6,0,P|128:329|89:281,1,124,0|0,0:2|0:2,0:0:0:0:
98,111,69466,2,0,P|121:54|175:25,1,124,0|0,0:2|1:2,0:0:0:0:
268,21,69996,1,0,1:2:0:0:
268,21,70084,1,0,1:2:0:0:
268,21,70172,6,0,L|240:154,1,136.400004162598,4|8,1:2|0:2,0:0:0:0:
144,183,70702,1,8,0:2:0:0:
144,183,70878,2,0,L|172:50,1,136.400004162598,0|8,0:2|0:2,0:0:0:0:
268,21,71407,1,0,1:2:0:0:
326,113,71584,6,0,P|385:80|450:92,1,136.400004162598,0|8,1:2|0:2,0:0:0:0:
403,177,72113,1,8,0:2:0:0:
403,177,72290,2,0,P|408:214|392:262,2,68.2000020812989,0|0|8,0:2|1:2|0:2,0:0:0:0:
326,113,72819,1,0,1:2:0:0:
256,178,72996,6,0,P|191:169|132:210,1,136.400004162598,0|8,1:2|0:2,0:0:0:0:
211,261,73525,2,0,L|175:118,1,136.400004162598,8|0,0:2|1:2,0:0:0:0:
154,36,74055,1,8,0:2:0:0:
248,68,74231,1,0,1:2:0:0:
248,68,74407,6,0,P|305:39|385:65,1,136.400004162598,0|8,1:2|0:2,0:0:0:0:
436,127,74937,2,0,P|465:183|439:263,1,136.400004162598,8|0,0:2|1:2,0:0:0:0:
384,323,75466,1,8,0:2:0:0:
285,289,75643,1,0,1:2:0:0:
285,289,75819,6,0,P|215:288|164:226,1,136.400004162598,0|8,1:2|0:2,0:0:0:0:
256,198,76349,1,8,0:2:0:0:
256,198,76525,2,0,P|326:197|377:135,1,136.400004162598,0|8,0:2|0:2,0:0:0:0:
396,63,77055,1,0,1:2:0:0:
396,63,77231,6,0,L|325:63,1,68.2000020812989,0|0,1:2|0:2,0:0:0:0:
243,29,77584,1,8,0:2:0:0:
243,29,77760,2,0,L|106:29,1,136.400004162598,8|0,0:2|1:2,0:0:0:0:
34,92,78290,1,8,0:2:0:0:
106,154,78466,1,0,1:2:0:0:
96,180,78555,1,0,1:2:0:0:
86,205,78643,5,8,1:2:0:0:
129,313,78819,1,8,1:2:0:0:
129,313,79172,5,8,1:2:0:0:
236,270,79349,1,8,1:2:0:0:
236,270,79702,5,8,1:2:0:0:
194,161,79878,1,8,1:2:0:0:
194,161,80231,5,8,1:2:0:0:
86,205,80407,1,8,1:2:0:0:
86,205,80760,5,8,1:2:0:0:
256,69,81113,1,8,1:2:0:0:
426,205,81466,6,0,P|436:270|396:336,1,136.400004162598,4|8,1:2|0:2,0:0:0:0:
339,255,81996,1,8,0:2:0:0:
339,255,82172,2,0,P|274:265|211:222,1,136.400004162598,0|8,0:2|0:2,0:0:0:0:
291,169,82702,1,0,1:2:0:0:
216,229,82878,6,0,P|226:294|183:357,1,136.400004162598,0|8,1:2|0:2,0:0:0:0:
129,279,83407,1,8,0:2:0:0:
129,279,83584,2,0,L|117:199,2,68.2000020812989,0|0|8,0:2|1:2|0:2,0:0:0:0:
191,351,84113,1,0,1:2:0:0:
293,351,84290,6,0,L|435:351,1,136.400004162598,0|8,1:2|0:2,0:0:0:0:
483,272,84819,2,0,P|515:210|496:138,1,136.400004162598,8|0,0:2|1:2,0:0:0:0:
437,77,85349,1,8,0:2:0:0:
355,134,85525,1,0,1:2:0:0:
355,134,85702,6,0,P|289:138|231:90,1,136.400004162598,0|8,1:2|0:2,0:0:0:0:
170,168,86231,2,0,P|104:164|46:212,1,136.400004162598,8|0,0:2|1:2,0:0:0:0:
132,255,86760,1,8,0:2:0:0:
86,352,86937,1,0,1:2:0:0:
86,352,87113,6,0,L|244:352,1,136.400004162598,0|8,1:2|0:2,0:0:0:0:
308,306,87643,1,8,0:2:0:0:
308,306,87819,2,0,P|318:236|272:183,1,136.400004162598,0|8,0:2|0:2,0:0:0:0:
199,144,88349,1,0,1:2:0:0:
199,144,88525,6,0,P|200:108|221:73,1,68.2000020812989,0|0,1:2|0:2,0:0:0:0:
294,28,88878,1,8,0:2:0:0:
294,28,89055,2,0,L|431:28,1,136.400004162598,8|0,0:2|1:2,0:0:0:0:
494,100,89584,1,8,0:2:0:0:
401,120,89760,1,0,1:2:0:0:
411,146,89849,1,0,1:2:0:0:
421,171,89937,5,8,1:2:0:0:
378,279,90113,1,8,1:2:0:0:
378,279,90466,5,8,1:2:0:0:
271,236,90643,1,8,1:2:0:0:
271,236,90996,5,8,1:2:0:0:
313,127,91172,1,8,1:2:0:0:
313,127,91525,5,8,1:2:0:0:
421,171,91702,1,8,1:2:0:0:
421,171,92055,5,8,1:2:0:0:
313,127,92231,1,0,0:2:0:0:
395,79,92407,1,8,1:2:0:0:
276,28,92584,6,0,P|214:30|169:68,1,124,6|0,0:2|0:2,0:0:0:0:
119,140,93113,2,0,P|73:100|12:99,2,124,10|2|8,0:2|0:2|0:2,0:0:0:0:
168,68,93996,1,0,0:2:0:0:
256,120,94172,6,0,P|285:176|266:253,1,124,2|8,0:2|0:2,0:0:0:0:
244,319,94702,1,10,0:2:0:0:
244,319,94878,2,0,L|333:303,2,62,2|2|8,0:2|0:2|0:2,0:0:0:0:
157,331,95407,6,0,P|101:331|45:279,1,124,6|0,0:2|0:2,0:0:0:0:
127,248,95937,2,0,P|127:194|179:136,2,124,10|2|8,0:2|0:2|0:2,0:0:0:0:
157,331,96819,1,0,0:2:0:0:
242,313,96996,6,0,P|295:342|355:332,1,124,2|8,0:2|0:2,0:0:0:0:
438,297,97525,1,10,0:2:0:0:
363,237,97702,1,2,0:2:0:0:
429,168,97878,1,2,0:2:0:0:
429,168,98231,6,0,P|429:109|373:55,1,124,6|0,0:2|0:2,0:0:0:0:
348,138,98760,2,0,P|296:167|278:242,2,124,10|2|8,0:2|0:2|0:2,0:0:0:0:
361,228,99643,1,0,0:2:0:0:
361,228,99819,6,0,P|412:257|486:236,1,124,2|8,0:2|0:2,0:0:0:0:
429,168,100349,1,10,0:2:0:0:
361,228,100525,2,0,P|371:257|372:288,1,62,2|2,0:2|0:2,0:0:0:0:
313,351,100878,1,8,0:2:0:0:
232,288,101055,6,0,P|182:319|115:310,1,124,6|0,0:2|0:2,0:0:0:0:
160,175,101584,2,0,P|156:205|162:236,1,62,8|8,0:2|0:2,0:0:0:0:
243,204,101937,2,0,P|239:143|199:97,1,124,0|8,0:2|0:2,0:0:0:0:
160,175,102466,1,0,0:2:0:0:
243,204,102643,6,0,P|277:198|305:181,1,62,0|0,0:2|0:2,0:0:0:0:
380,141,102996,1,8,0:2:0:0:
424,221,103172,1,8,0:2:0:0:
345,266,103349,1,8,0:2:0:0:
300,185,103525,1,8,0:2:0:0:
212,334,103878,6,0,P|161:365|93:358,1,124,4|0,0:2|0:2,0:0:0:0:
34,302,104407,1,8,0:2:0:0:
9,218,104584,1,8,0:2:0:0:
125,72,104937,2,0,P|175:40|240:48,1,124,0|0,0:2|0:2,0:0:0:0:
308,98,105466,6,0,P|368:104|420:73,1,124,0|8,0:2|0:2,0:0:0:0:
349,21,105996,1,8,0:2:0:0:
308,98,106172,2,0,P|327:122|337:151,1,62,0|0,0:2|0:2,0:0:0:0:
229,244,106525,2,0,P|241:215|261:192,1,62,8|0,0:2|0:2,0:0:0:0:
307,300,106878,6,0,P|365:331|425:317,1,124,0|8,0:2|0:2,0:0:0:0:
475,253,107407,2,0,P|489:189|459:135,1,124,8|0,0:2|0:2,0:0:0:0:
392,87,107937,1,8,0:2:0:0:
334,151,108113,1,0,1:2:0:0:
310,144,108202,1,0,1:2:0:0:
286,137,108290,5,0,1:2:0:0:
224,66,108466,1,8,1:2:0:0:
224,66,108643,2,0,P|156:54|107:87,1,124,8|0,1:2|0:2,0:0:0:0:
177,138,109172,1,8,1:2:0:0:
98,207,109349,1,8,1:2:0:0:
224,325,109702,6,0,B|248:361|291:357|291:357|207:371|174:315|174:315|134:342|92:334,1,294.499992136002,6|8,0:2|0:2,0:0:0:0:
15,303,110760,1,8,0:2:0:0:
81,247,110937,1,0,0:2:0:0:
43,158,111113,6,0,P|15:100|35:37,1,124,0|8,0:2|0:2,0:0:0:0:
102,93,111643,1,8,0:2:0:0:
160,28,111819,2,0,P|187:85|167:148,1,124,0|8,0:2|0:2,0:0:0:0:
0,270,112525,6,0,L|124:259,1,124,0|8,0:2|0:2,0:0:0:0:
200,303,113055,1,0,0:2:0:0:
254,235,113231,2,0,L|343:251,1,62,0|0,0:2|0:2,0:0:0:0:
388,189,113584,1,8,0:2:0:0:
388,189,113760,6,0,P|449:198|501:163,1,124,0|8,1:2|1:2,0:0:0:0:
430,113,114290,2,0,P|408:56|351:29,1,124,8|0,1:2|0:2,0:0:0:0:
321,113,114819,1,8,1:2:0:0:
388,189,114996,1,8,1:2:0:0:
210,275,115349,6,0,P|156:276|108:306,2,105.400002010345,2|0|2,3:2|0:2|3:2,0:0:0:0:
256,334,116231,1,0,0:2:0:0:
302,275,116407,1,8,3:2:0:0:
302,275,116760,6,0,P|372:259|331:210,1,158.100003015518,2|0,3:2|3:2,0:0:0:0:
293,150,117466,2,0,P|298:101|343:49,1,105.400002010345,2|8,3:2|3:2,0:0:0:0:
330,57,118172,5,2,3:2:0:0:
175,239,118525,1,0,0:2:0:0:
407,182,118878,1,2,3:2:0:0:
186,93,119231,1,8,3:2:0:0:
313,295,119584,5,2,3:2:0:0:
313,295,119760,2,0,P|366:299|429:277,1,105.400002010345,0|0,3:2|3:2,0:0:0:0:
470,233,120290,2,0,P|477:207|477:181,1,52.7000010051727,2|0,3:2|3:2,0:0:0:0:
450,113,120643,1,8,3:2:0:0:
256,22,120996,6,0,P|202:23|154:53,2,105.400002010345,2|0|2,3:2|0:2|3:2,0:0:0:0:
305,78,121878,1,0,0:2:0:0:
371,45,122055,1,8,3:2:0:0:
371,45,122407,6,0,P|411:139|385:200,1,158.100003015518,2|0,3:2|3:2,0:0:0:0:
450,236,123113,2,0,P|426:283|430:335,1,105.400002010345,2|8,3:2|3:2,0:0:0:0:
429,334,123819,5,2,3:2:0:0:
290,274,124172,1,0,0:2:0:0:
409,187,124525,1,2,3:2:0:0:
270,127,124878,1,8,3:2:0:0:
466,50,125231,5,2,3:2:0:0:
413,100,125407,1,0,3:2:0:0:
413,100,125584,2,0,P|393:55|419:-7,2,105.400002010345,0|2|8,0:2|3:2|3:2,0:0:0:0:
466,152,126466,1,0,0:2:0:0:
375,230,126643,6,0,P|314:227|258:268,1,124,4|8,0:2|0:2,0:0:0:0:
208,329,127172,2,0,P|147:331|96:297,1,124,8|0,0:2|0:2,0:0:0:0:
32,239,127702,1,8,0:2:0:0:
101,168,127878,1,0,0:2:0:0:
101,168,128055,6,0,P|72:114|85:54,1,124,0|8,0:2|0:2,0:0:0:0:
158,103,128584,1,8,0:2:0:0:
158,103,128937,1,0,0:2:0:0:
227,154,129113,2,0,L|211:225,1,62,8|0,0:2|0:2,0:0:0:0:
123,303,129466,6,0,P|187:290|240:326,1,124,4|8,0:2|0:2,0:0:0:0:
307,269,129996,2,0,P|359:299|418:285,1,124,8|0,0:2|0:2,0:0:0:0:
478,221,130525,1,8,0:2:0:0:
402,166,130702,1,0,0:2:0:0:
402,166,130878,6,0,P|416:111|374:40,1,124,0|8,0:2|0:2,0:0:0:0:
320,118,131407,1,8,0:2:0:0:
269,48,131584,1,0,0:2:0:0:
186,75,131760,1,0,0:2:0:0:
186,162,131937,1,8,0:2:0:0:
269,189,132113,1,0,0:2:0:0:
361,133,132290,6,0,P|380:193|361:251,1,124,4|8,0:2|0:2,0:2:0:0:
305,315,132819,1,8,0:2:0:0:
228,273,132996,2,0,L|160:281,1,62,0|0,0:2|0:2,0:2:0:0:
105,341,133349,1,8,0:2:0:0:
43,295,133525,1,0,0:2:0:0:
43,295,133613,1,0,0:2:0:0:
43,295,133702,6,0,P|11:242|18:176,1,124,0|0,0:2|0:2,0:0:0:0:
169,118,134407,2,0,P|197:64|258:39,1,124,0|0,0:2|1:2,0:0:0:0:
272,147,134937,1,0,1:2:0:0:
272,147,135025,1,0,1:2:0:0:
272,147,135113,6,0,P|266:212|311:273,1,136.400004162598,4|8,1:2|0:2,0:0:0:0:
357,189,135643,1,8,0:2:0:0:
409,110,135819,2,0,P|447:165|442:232,1,136.400004162598,0|8,0:2|0:2,0:0:0:0:
357,189,136349,1,0,1:2:0:0:
304,268,136525,6,0,P|245:301|180:289,1,136.400004162598,0|8,1:2|0:2,0:0:0:0:
108,351,137055,1,8,0:2:0:0:
108,351,137231,2,0,P|71:356|23:340,2,68.2000020812989,0|0|8,0:2|1:2|0:2,0:0:0:0:
180,289,137760,1,0,1:2:0:0:
110,205,137937,6,0,P|119:140|78:81,1,136.400004162598,0|8,1:2|0:2,0:0:0:0:
24,160,138466,2,0,P|15:225|56:284,1,136.400004162598,8|0,0:2|1:2,0:0:0:0:
132,335,138996,1,8,0:2:0:0:
196,264,139172,1,0,1:2:0:0:
196,264,139349,6,0,P|246:303|329:293,1,136.400004162598,0|8,1:2|0:2,0:0:0:0:
398,251,139878,2,0,P|437:201|426:118,1,136.400004162598,8|0,0:2|1:2,0:0:0:0:
380,50,140407,1,8,0:2:0:0:
286,21,140584,1,0,1:2:0:0:
286,21,140760,6,0,L|149:21,1,136.400004162598,0|8,1:2|0:2,0:0:0:0:
98,103,141290,1,8,0:2:0:0:
98,103,141466,2,0,L|235:103,1,136.400004162598,0|8,0:2|0:2,0:0:0:0:
298,181,141996,1,0,1:2:0:0:
298,181,142172,6,0,P|297:217|276:252,1,68.2000020812989,0|0,1:2|0:2,0:0:0:0:
223,321,142525,1,8,0:2:0:0:
223,321,142702,2,0,B|245:358|245:358|202:329|136:348,1,136.400004162598,8|0,0:2|1:2,0:0:0:0:
71,298,143231,1,8,0:2:0:0:
111,211,143407,1,0,1:2:0:0:
101,185,143496,1,0,1:2:0:0:
91,160,143584,5,8,1:2:0:0:
210,208,143760,1,8,1:2:0:0:
210,208,144113,5,8,1:2:0:0:
256,88,144290,1,8,1:2:0:0:
256,88,144643,5,8,1:2:0:0:
138,41,144819,1,8,1:2:0:0:
138,41,145172,5,8,1:2:0:0:
91,160,145349,1,8,1:2:0:0:
91,160,145702,5,8,1:2:0:0:
256,302,146055,1,8,1:2:0:0:
421,160,146407,6,0,P|431:95|388:32,1,136.400004162598,4|8,1:2|0:2,0:0:0:0:
341,117,146937,1,8,0:2:0:0:
341,117,147113,2,0,P|276:107|213:150,1,136.400004162598,0|8,0:2|0:2,0:0:0:0:
293,201,147643,1,0,1:2:0:0:
210,248,147819,6,0,P|252:298|247:374,1,136.400004162598,0|8,1:2|0:2,0:0:0:0:
162,331,148349,1,8,0:2:0:0:
70,357,148525,2,0,P|70:323|87:275,1,68.2000020812989,0|0,0:2|1:2,0:0:0:0:
26,210,148878,2,0,P|25:176|9:128,1,68.2000020812989,8|0,0:2|1:2,0:0:0:0:
103,62,149231,6,0,L|245:62,1,136.400004162598,0|8,1:2|0:2,0:0:0:0:
317,116,149760,2,0,P|349:178|330:250,1,136.400004162598,8|0,0:2|1:2,0:0:0:0:
271,311,150290,1,8,0:2:0:0:
189,254,150466,1,0,1:2:0:0:
189,254,150643,6,0,P|122:248|65:298,1,136.400004162598,0|8,1:2|0:2,0:0:0:0:
148,336,151172,2,0,L|108:190,1,136.400004162598,8|0,0:2|1:2,0:0:0:0:
86,112,151702,1,8,0:2:0:0:
162,33,151878,1,0,1:2:0:0:
162,33,152055,6,0,P|232:43|303:4,1,136.400004162598,0|8,1:2|0:2,0:0:0:0:
354,86,152584,1,8,0:2:0:0:
354,86,152760,2,0,P|424:76|495:115,1,136.400004162598,0|8,0:2|0:2,0:0:0:0:
442,191,153290,1,0,1:2:0:0:
442,191,153466,6,0,P|456:221|456:255,1,68.2000020812989,0|0,1:2|0:2,0:0:0:0:
405,338,153819,1,8,0:2:0:0:
405,338,153996,2,0,L|268:338,1,136.400004162598,8|0,0:2|1:2,0:0:0:0:
307,250,154525,1,8,0:2:0:0:
225,201,154702,1,0,1:2:0:0:
235,175,154790,1,0,1:2:0:0:
245,149,154878,5,0,1:2:0:0:
184,66,155055,1,0,1:2:0:0:
184,66,155407,5,0,1:2:0:0:
101,179,155584,1,0,1:2:0:0:
101,179,155937,5,0,1:2:0:0:
236,136,156113,1,0,1:2:0:0:
236,136,156466,5,0,1:2:0:0:
101,91,156643,1,0,1:2:0:0:
101,91,156996,5,0,1:2:0:0:
184,66,157172,1,0,0:2:0:0:
236,136,157349,1,8,1:2:0:0:
339,111,157525,6,0,B|362:66|349:25|349:25|382:83|357:148|357:148|323:204|352:262|424:252|440:185|384:160,1,421.600008041382,6|0,1:2|1:2,0:0:0:0:
377,81,168996,6,0,L|416:32,2,62,4|0|0,0:2|0:2|0:2,0:0:0:0:
319,145,169525,2,0,L|257:135,2,62,4|0|0,0:2|0:2|0:2,0:0:0:0:
404,163,170055,2,0,L|426:221,1,62,4|0,0:2|0:2,0:0:0:0:
343,284,170407,6,0,B|294:307|292:360|292:360|249:320|233:248|120:304|206:407|242:330,1,310,4|0,0:2|3:2,0:0:0:0:
237,337,171466,1,0,3:2:0:0:
299,192,171819,6,0,P|306:147|275:89,2,105.400002010345,2|0|2,3:2|0:2|0:2,0:0:0:0:
235,230,172702,1,0,0:2:0:0:
171,192,172878,1,0,0:2:0:0:
171,192,173231,6,0,P|115:237|173:263,1,158.100003015518,2|0,0:2|0:2,0:0:0:0:
234,229,173937,2,0,P|260:274|255:326,1,105.400002010345,2|0,0:2|0:2,0:0:0:0:
256,326,174643,5,2,0:2:0:0:
364,226,174996,1,0,0:2:0:0:
148,226,175349,1,2,0:2:0:0:
256,326,175702,1,0,0:2:0:0:
364,226,176055,6,0,P|407:268|395:178,1,210.800004020691,2|2,0:2|0:2,0:0:0:0:
413,176,177113,1,0,0:2:0:0:
213,107,177466,6,0,P|206:62|237:4,2,105.400002010345,2|0|2,3:2|0:2|3:2,0:0:0:0:
277,145,178349,1,0,0:2:0:0:
341,107,178525,1,0,0:2:0:0:
341,107,178878,6,0,P|396:152|338:178,1,158.100003015518,2|0,3:2|3:2,0:0:0:0:
277,144,179584,2,0,P|251:188|256:240,1,105.400002010345,2|0,3:2|0:2,0:0:0:0:
256,240,180290,5,2,3:2:0:0:
116,286,180643,1,0,0:2:0:0:
70,146,180996,1,2,3:2:0:0:
211,100,181349,1,0,3:2:0:0:
185,262,181702,5,2,3:2:0:0:
93,215,182055,1,0,0:2:0:0:
183,160,182407,1,2,3:2:0:0:
185,262,182760,2,0,P|180:291|194:332,1,52.7000010051727,0|0,3:2|0:2,0:2:0:0:
256,355,183113,6,0,L|384:355,1,124,4|8,0:2|0:2,0:0:0:0:
440,291,183643,2,0,P|468:240|449:171,1,124,8|0,0:2|0:2,0:0:0:0:
383,226,184172,1,8,0:2:0:0:
327,155,184349,1,0,0:2:0:0:
327,155,184525,6,0,P|330:94|372:50,1,124,0|8,0:2|0:2,0:0:0:0:
449,14,185055,1,8,0:2:0:0:
449,14,185407,1,0,0:2:0:0:
501,83,185584,2,0,L|485:154,1,62,8|0,0:2|0:2,0:0:0:0:
467,237,185937,6,0,P|403:250|350:214,1,124,4|8,0:2|0:2,0:0:0:0:
283,271,186466,2,0,P|231:241|172:255,1,124,8|0,0:2|0:2,0:0:0:0:
92,290,186996,1,8,0:2:0:0:
32,222,187172,1,0,0:2:0:0:
32,222,187349,6,0,P|18:167|63:98,1,124,0|8,0:2|0:2,0:0:0:0:
104,174,187878,1,8,0:2:0:0:
47,109,188055,1,0,0:2:0:0:
90,35,188231,1,0,0:2:0:0:
171,56,188407,1,8,0:2:0:0:
182,139,188584,1,0,0:2:0:0:
273,98,188760,6,0,P|309:143|314:223,1,124,4|8,0:2|0:2,0:2:0:0:
283,287,189290,1,8,0:2:0:0:
206,328,189466,2,0,P|173:327|135:310,1,62,0|8,0:2|0:2,0:2:0:0:
69,274,189819,1,8,0:2:0:0:
34,194,189996,1,0,0:2:0:0:
25,172,190084,1,0,0:2:0:0:
16,149,190172,5,0,1:2:0:0:
256,192,190260,12,0,191231,1:2:0:0:
411,29,191584,6,0,P|447:84|429:158,1,124,4|8,1:2|0:2,0:0:0:0:
360,102,192113,1,8,0:2:0:0:
302,167,192290,1,0,0:2:0:0:
174,48,192643,1,8,0:2:0:0:
113,109,192819,1,0,0:2:0:0:
30,80,192996,6,0,P|31:140|89:194,1,124,0|8,0:2|0:2,0:0:0:0:
113,109,193525,1,8,0:2:0:0:
167,177,193702,2,0,P|166:237|108:291,1,124,0|8,0:2|0:2,0:0:0:0:
126,283,194407,6,0,P|176:303|210:363,1,124,0|8,0:2|0:2,0:0:0:0:
303,362,194937,2,0,P|331:308|386:283,1,124,8|0,0:2|0:2,0:0:0:0:
386,282,195643,1,0,0:2:0:0:
346,205,195819,5,0,0:2:0:0:
437,57,196172,1,8,0:2:0:0:
477,135,196349,1,8,0:2:0:0:
477,135,196702,1,0,0:2:0:0:
391,135,196878,1,8,0:2:0:0:
346,205,197055,1,0,0:2:0:0:
432,205,197231,6,0,P|462:256|450:329,1,124,0|8,0:2|0:2,0:0:0:0:
388,372,197760,1,8,0:2:0:0:
388,372,197937,2,0,L|264:372,1,124,0|8,0:2|0:2,0:0:0:0:
210,310,198466,1,0,0:2:0:0:
210,310,198643,6,0,L|142:310,2,62,0|0|8,0:2|0:2|0:2,0:0:0:0:
256,236,199172,2,0,P|264:172|219:116,1,124,8|0,0:2|0:2,0:0:0:0:
180,194,199702,1,8,0:2:0:0:
79,52,200055,5,8,1:2:0:0:
4,126,200231,1,8,1:2:0:0:
4,126,200584,5,8,1:2:0:0:
99,171,200760,1,8,1:2:0:0:
99,171,201113,5,8,1:2:0:0:
24,246,201290,1,8,1:2:0:0:
24,246,201643,5,8,1:2:0:0:
98,318,201819,1,8,1:2:0:0:
256,246,202172,5,8,1:2:0:0:
414,318,202525,2,0,P|411:288|421:255,1,62,8|0,1:2|0:2,0:0:0:0:
429,242,202790,1,0,0:0:0:0:
443,230,202878,6,0,P|455:168|416:100,1,124,8|8,0:2|0:2,0:0:0:0:
366,56,203407,1,0,0:2:0:0:
302,115,203584,2,0,P|266:126|222:123,1,62,8|8,0:2|0:2,0:0:0:0:
135,21,203937,2,0,P|159:42|176:68,1,62,8|8,0:2|0:2,0:0:0:0:
154,152,204290,6,0,P|128:208|145:270,1,124,0|0,0:2|0:2,0:0:0:0:
277,376,204996,2,0,P|320:371|351:339,1,62,0|0,0:2|1:2,0:0:0:0:
408,314,205349,1,4,1:2:0:0:
449,139,205702,6,0,L|316:111,1,136.400004162598,4|12,1:2|0:2,0:0:0:0:
291,18,206231,1,8,0:2:0:0:
291,18,206407,2,0,L|424:46,1,136.400004162598,0|8,0:2|0:2,0:0:0:0:
449,139,206937,1,0,1:2:0:0:
385,210,207113,6,0,P|418:269|406:334,1,136.400004162598,0|8,1:2|0:2,0:0:0:0:
322,377,207643,1,8,0:2:0:0:
322,377,207819,2,0,P|285:382|237:366,1,68.2000020812989,0|0,0:2|1:2,0:0:0:0:
192,303,208172,1,8,0:2:0:0:
267,244,208349,1,0,1:2:0:0:
193,163,208525,6,0,P|128:154|69:195,1,136.400004162598,0|8,1:2|0:2,0:0:0:0:
148,246,209055,2,0,L|112:103,1,136.400004162598,8|0,0:2|1:2,0:0:0:0:
176,40,209584,1,8,0:2:0:0:
266,85,209760,1,0,1:2:0:0:
266,85,209937,6,0,P|323:56|403:82,1,136.400004162598,0|8,1:2|0:2,0:0:0:0:
459,141,210466,2,0,P|488:197|462:277,1,136.400004162598,8|0,0:2|1:2,0:0:0:0:
409,338,210996,1,8,0:2:0:0:
327,275,211172,1,0,1:2:0:0:
257,358,211349,6,0,P|187:357|136:295,1,136.400004162598,0|8,1:2|0:2,0:0:0:0:
230,271,211878,1,8,0:2:0:0:
230,271,212055,2,0,P|214:202|245:145,1,136.400004162598,0|8,0:2|0:2,0:0:0:0:
311,221,212584,1,0,1:2:0:0:
311,221,212760,6,0,P|341:236|375:236,1,68.2000020812989,0|0,1:2|0:2,0:0:0:0:
447,173,213113,1,8,0:2:0:0:
447,173,213290,2,0,P|447:100|411:51,1,136.400004162598,8|0,0:2|1:2,0:0:0:0:
327,4,213819,1,8,0:2:0:0:
260,72,213996,1,0,1:2:0:0:
270,98,214084,1,0,1:2:0:0:
280,123,214172,5,8,1:2:0:0:
233,242,214349,1,8,1:2:0:0:
233,242,214702,5,8,1:2:0:0:
115,195,214878,1,8,1:2:0:0:
115,195,215231,5,8,1:2:0:0:
161,75,215407,1,8,1:2:0:0:
161,75,215760,5,8,1:2:0:0:
280,123,215937,1,8,1:2:0:0:
280,123,216290,5,8,1:2:0:0:
147,282,216643,1,8,1:2:0:0:
347,363,216996,6,0,P|412:373|475:330,1,136.400004162598,4|12,1:2|0:2,0:0:0:0:
397,276,217525,1,8,0:2:0:0:
397,276,217702,2,0,P|407:211|364:148,1,136.400004162598,0|8,0:2|0:2,0:0:0:0:
313,229,218231,1,0,1:2:0:0:
250,301,218407,6,0,P|185:311|122:268,1,136.400004162598,0|8,1:2|0:2,0:0:0:0:
70,205,218937,1,8,0:2:0:0:
70,205,219113,2,0,L|-16:217,2,68.2000020812989,0|0|8,0:2|1:2|0:2,0:0:0:0:
136,136,219643,1,0,1:2:0:0:
68,48,219819,6,0,P|132:64|198:28,1,136.400004162598,0|8,1:2|0:2,0:0:0:0:
256,106,220349,2,0,P|321:114|369:172,1,136.400004162598,8|0,0:2|1:2,0:0:0:0:
302,236,220878,1,8,0:2:0:0:
353,323,221055,1,0,1:2:0:0:
353,323,221231,6,0,P|419:327|477:279,1,136.400004162598,0|8,1:2|0:2,0:0:0:0:
505,196,221760,2,0,P|509:130|461:72,1,136.400004162598,8|0,0:2|1:2,0:0:0:0:
393,137,222290,1,8,0:2:0:0:
354,47,222466,1,0,1:2:0:0:
354,47,222643,6,0,L|196:47,1,136.400004162598,0|8,1:2|0:2,0:0:0:0:
142,100,223172,1,8,0:2:0:0:
142,100,223349,2,0,P|127:169|161:228,1,136.400004162598,0|8,0:2|0:2,0:0:0:0:
242,275,223878,1,0,1:2:0:0:
242,275,224055,6,0,P|241:311|220:346,1,68.2000020812989,0|0,1:2|0:2,0:0:0:0:
136,361,224407,1,8,0:2:0:0:
136,361,224584,2,0,L|-1:361,1,136.400004162598,8|0,0:2|1:2,0:0:0:0:
45,276,225113,1,8,0:2:0:0:
89,191,225290,1,0,1:2:0:0:
79,165,225378,1,0,1:2:0:0:
69,139,225466,5,8,1:2:0:0:
132,53,225643,1,8,1:2:0:0:
132,53,225996,5,8,1:2:0:0:
218,170,226172,1,8,1:2:0:0:
218,170,226525,5,8,1:2:0:0:
77,126,226702,1,8,1:2:0:0:
77,126,227055,5,8,1:2:0:0:
218,79,227231,1,8,1:2:0:0:
218,79,227584,5,8,1:2:0:0:
139,73,227760,1,0,0:2:0:0:
77,126,227937,1,0,0:2:0:0:
127,222,228113,6,0,P|189:224|234:262,1,124,6|0,0:2|0:2,0:0:0:0:
284,334,228643,2,0,P|329:294|390:292,2,124,10|2|8,0:2|0:2|0:2,0:0:0:0:
234,262,229525,1,0,0:2:0:0:
287,178,229702,6,0,P|277:115|216:64,1,124,2|8,0:2|0:2,0:0:0:0:
170,127,230231,1,2,0:2:0:0:
170,127,230407,2,0,P|130:126|91:110,2,62,2|2|8,0:2|0:2|0:2,0:0:0:0:
237,73,230937,6,0,P|299:71|344:33,1,124,6|0,0:2|0:2,0:0:0:0:
397,102,231466,2,0,P|442:62|503:60,2,124,10|2|8,0:2|0:2|0:2,0:0:0:0:
473,143,232349,1,0,0:2:0:0:
421,227,232525,6,0,P|430:291|393:347,1,124,2|8,0:2|0:2,0:0:0:0:
320,371,233055,1,10,0:2:0:0:
258,299,233231,1,2,0:2:0:0:
168,338,233407,1,2,0:2:0:0:
168,338,233760,6,0,P|109:338|55:282,1,124,6|0,0:2|0:2,0:0:0:0:
138,256,234290,2,0,P|138:197|194:143,2,124,10|2|8,0:2|0:2|0:2,0:0:0:0:
219,224,235172,1,0,0:2:0:0:
294,159,235349,6,0,P|294:100|238:46,1,124,2|8,1:2|1:2,0:0:0:0:
175,25,235878,1,2,0:2:0:0:
175,25,236055,2,0,P|140:21|94:33,1,62,2|2,1:2|1:2,0:0:0:0:
32,53,236407,1,8,0:2:0:0:
95,112,236584,1,2,0:2:0:0:
17,163,236760,6,0,P|9:194|9:225,1,62,8|0,1:2|0:2,0:0:0:0:
84,266,237113,2,0,P|92:237|93:206,1,62,8|0,1:2|0:2,0:0:0:0:
6,307,237466,2,0,P|0:336|-1:367,1,62,8|0,1:2|0:2,0:0:0:0:
83,347,237819,1,8,1:2:0:0:
171,331,237996,1,0,0:2:0:0:
171,331,238172,6,0,P|228:359|291:349,1,124,8|8,1:2|1:2,0:0:0:0:
342,284,238702,1,0,0:2:0:0:
256,192,238878,1,8,1:2:0:0:
256,192,239055,1,8,1:2:0:0:
256,192,239407,5,4,0:2:0:0:
