osu file format v14

[General]
AudioFilename: audio.mp3
AudioLeadIn: 0
PreviewTime: 3819
Countdown: 0
SampleSet: Soft
StackLeniency: 0.7
Mode: 0
LetterboxInBreaks: 0
WidescreenStoryboard: 1

[Editor]
DistanceSpacing: 1.1
BeatDivisor: 2
GridSize: 8
TimelineZoom: 1

[Metadata]
Title:Oshiete A to Z
TitleUnicode:おしえて A to Z
Artist:Tamura Yukari
ArtistUnicode:田村ゆかり
Creator:RVMathew
Version:2nd Base
Source:B型H系
Tags:Azunyan- Mayu Sakuma Xexyz teach me Full Version OP opening Ver. Yamada's First Time B Gata H Kei anime Japanese j-pop jpop
BeatmapID:2979855
BeatmapSetID:1449220

[Difficulty]
HPDrainRate:3
CircleSize:3
OverallDifficulty:4
ApproachRate:5
SliderMultiplier:1
SliderTickRate:1

[Events]
//Background and Video events
0,0,"stretched-1920-1080-748422.jpg",0,0
//Break Periods
2,157725,167796
//Storyboard Layer 0 (Background)
//Storyboard Layer 1 (Fail)
//Storyboard Layer 2 (Pass)
//Storyboard Layer 3 (Foreground)
//Storyboard Layer 4 (Overlay)
//Storyboard Sound Samples

[TimingPoints]
2408,352.941176470588,4,2,1,70,1,0
5231,-100,4,2,1,75,0,1
5584,-100,4,2,2,75,0,1
5760,-100,4,2,1,75,0,1
6996,-100,4,2,2,75,0,1
7172,-100,4,2,1,75,0,1
16172,-100,4,2,1,75,0,0
16525,-100,4,2,1,75,0,1
16878,-100,4,2,2,75,0,1
17055,-100,4,2,1,75,0,1
18290,-100,4,2,2,75,0,1
18466,-100,4,2,1,75,0,1
27643,-100,4,2,1,70,0,0
39996,-100,4,2,2,70,0,0
40349,-100,4,2,1,70,0,0
45819,-100,4,2,2,70,0,0
45996,-100,4,2,1,70,0,0
50407,-100,4,2,3,55,0,0
61702,-100,4,2,1,65,0,0
68231,-100,4,2,1,65,0,0
70172,-100,4,2,1,75,0,1
70525,-100,4,2,2,75,0,1
70702,-100,4,2,1,75,0,1
71937,-100,4,2,2,75,0,1
72113,-100,4,2,1,75,0,1
81113,-100,4,2,1,75,0,0
81466,-100,4,2,1,75,0,1
81819,-100,4,2,2,75,0,1
81996,-100,4,2,1,75,0,1
83231,-100,4,2,2,75,0,1
83407,-100,4,2,1,75,0,1
92584,-100,4,2,1,70,0,0
105113,-100,4,2,2,70,0,0
105290,-100,4,2,1,70,0,0
115349,-100,4,2,3,55,0,0
125584,-100,4,2,3,60,0,0
126643,-100,4,2,1,65,0,0
135113,-100,4,2,1,75,0,1
135466,-100,4,2,2,75,0,1
135643,-100,4,2,1,75,0,1
136878,-100,4,2,2,75,0,1
137055,-100,4,2,1,75,0,1
146055,-100,4,2,1,75,0,0
146407,-100,4,2,1,75,0,1
146760,-100,4,2,2,75,0,1
146937,-100,4,2,1,75,0,1
148172,-100,4,2,2,75,0,1
148349,-100,4,2,1,75,0,1
157525,-100,4,2,1,70,0,0
171290,-100,4,2,1,50,0,0
171819,-100,4,2,3,55,0,0
181702,-100,4,2,3,50,0,0
183113,-100,4,2,1,65,0,0
190172,-100,4,2,1,70,0,0
191584,-100,4,2,1,65,0,0
191937,-100,4,2,2,65,0,0
192113,-100,4,2,1,65,0,0
193349,-100,4,2,2,65,0,0
193525,-100,4,2,1,65,0,0
197584,-100,4,2,2,65,0,0
197760,-100,4,2,1,65,0,0
198996,-100,4,2,2,65,0,0
199172,-100,4,2,1,65,0,0
200055,-100,4,2,1,70,0,0
205702,-100,4,2,1,75,0,1
206055,-100,4,2,2,75,0,1
206231,-100,4,2,1,75,0,1
207466,-100,4,2,2,75,0,1
207643,-100,4,2,1,75,0,1
211702,-100,4,2,2,75,0,1
211878,-100,4,2,1,75,0,1
216643,-100,4,2,1,75,0,0
217349,-100,4,2,2,75,0,1
217525,-100,4,2,1,75,0,1
218760,-100,4,2,2,75,0,1
218937,-100,4,2,1,75,0,1
228113,-100,4,2,1,70,0,0

[Colours]
Combo1 : 255,196,136
Combo2 : 151,255,255
Combo3 : 255,168,211
Combo4 : 240,221,164

[HitObjects]
256,360,3819,5,4,0:2:0:0:
256,250,4172,1,0,0:2:0:0:
256,140,4525,2,0,L|256:40,1,100,0|4,0:2|0:2,0:0:0:0:
366,40,5231,6,0,P|441:53|477:113,1,150,4|8,1:2|0:2,0:0:0:0:
469,167,5937,1,0,0:2:0:0:
390,243,6290,1,8,0:2:0:0:
469,319,6643,2,0,P|395:300|324:334,1,150,0|8,1:2|0:2,0:0:0:0:
285,360,7349,1,0,0:2:0:0:
208,281,7702,1,8,0:2:0:0:
265,187,8055,6,0,P|269:142|241:92,1,100,0|8,1:2|0:2,0:0:0:0:
205,56,8584,1,8,0:2:0:0:
97,33,8937,1,0,1:2:0:0:
30,120,9290,2,0,L|44:168,1,50,0|0,1:2|1:2,0:0:0:0:
151,192,9819,2,0,L|137:144,1,50,8|8,0:2|0:2,0:0:0:0:
246,163,10349,2,0,L|260:211,1,50,0|8,1:2|0:2,0:0:0:0:
288,317,10878,6,0,P|240:313|185:326,1,100,0|8,1:2|0:2,0:0:0:0:
157,287,11407,1,8,0:2:0:0:
157,287,11584,2,0,P|109:291|54:278,1,100,0|8,0:2|0:2,0:0:0:0:
48,170,12290,2,0,L|40:102,1,50,0|0,1:2|0:2,0:0:0:0:
69,74,12643,1,8,0:2:0:0:
69,74,12819,2,0,P|159:39|206:57,1,150,8|8,0:2|0:2,0:0:0:0:
293,122,13702,6,0,L|343:122,1,50,8|8,1:2|1:2,0:0:0:0:
427,193,14231,2,0,L|426:249,1,50,8|8,1:2|1:2,0:0:0:0:
343,315,14760,2,0,L|286:315,1,50,8|8,1:2|1:2,0:0:0:0:
183,315,15290,2,0,L|127:315,1,50,8|8,1:2|1:2,0:0:0:0:
23,315,15819,1,8,1:2:0:0:
75,218,16172,1,8,1:2:0:0:
9,131,16525,6,0,P|88:131|147:79,1,150,4|8,1:2|0:2,0:0:0:0:
171,42,17231,1,0,0:2:0:0:
256,112,17584,1,8,0:2:0:0:
341,42,17937,2,0,P|296:100|311:176,1,150,0|8,1:2|0:2,0:0:0:0:
325,224,18643,1,0,0:2:0:0:
408,296,18996,1,8,0:2:0:0:
491,224,19349,6,0,P|497:169|482:118,1,100,0|8,1:2|0:2,0:0:0:0:
456,80,19878,1,8,0:2:0:0:
361,24,20231,1,0,1:2:0:0:
259,58,20584,1,0,1:2:0:0:
259,58,20760,1,0,1:2:0:0:
156,89,21113,1,8,0:2:0:0:
156,89,21290,1,8,0:2:0:0:
57,40,21643,2,0,L|65:89,1,50,0|8,1:2|0:2,0:0:0:0:
13,186,22172,6,0,P|38:237|24:298,1,100,0|8,1:2|0:2,0:0:0:0:
12,332,22702,1,8,0:2:0:0:
12,332,22878,2,0,L|121:321,1,100,0|8,0:2|0:2,0:0:0:0:
221,311,23584,2,0,L|282:325,1,50,0|0,1:2|0:2,0:0:0:0:
327,341,23937,1,8,0:2:0:0:
327,341,24113,2,0,P|425:336|465:298,1,150,8|8,0:2|0:2,0:0:0:0:
501,201,24996,6,0,L|513:142,1,50,8|8,1:2|1:2,0:0:0:0:
419,91,25525,2,0,L|409:139,1,50,8|8,1:2|1:2,0:0:0:0:
299,148,26055,2,0,L|311:89,1,50,8|8,1:2|1:2,0:0:0:0:
217,38,26584,2,0,L|207:86,1,50,8|8,1:2|1:2,0:0:0:0:
117,150,27113,2,0,L|126:198,1,50,8|0,1:2|0:2,0:0:0:0:
142,257,27466,1,8,1:2:0:0:
142,257,27643,6,0,P|233:293|293:270,1,150,6|10,0:2|0:2,0:0:0:0:
353,197,28525,2,0,P|358:157|333:98,1,100,2|8,0:2|0:2,0:0:0:0:
246,39,29231,2,0,L|130:47,1,100,2|8,0:2|0:2,0:0:0:0:
99,70,29760,1,10,0:2:0:0:
99,70,29937,2,0,L|82:16,2,50,2|2|8,0:2|0:2|0:2,0:0:0:0:
76,120,30466,6,0,P|42:184|66:254,1,150,6|10,0:2|0:2,0:0:0:0:
153,321,31349,1,2,0:2:0:0:
256,361,31702,1,8,0:2:0:0:
321,272,32055,2,0,L|436:272,1,100,2|8,0:2|0:2,0:0:0:0:
466,239,32584,1,10,0:2:0:0:
466,239,32760,2,0,L|466:176,1,50,2|2,0:2|0:2,0:0:0:0:
466,79,33290,6,0,P|405:36|332:44,1,150,6|10,0:2|0:2,0:0:0:0:
256,123,34172,1,2,0:2:0:0:
333,201,34525,1,8,0:2:0:0:
256,280,34878,2,0,L|150:280,1,100,2|8,0:2|0:2,0:0:0:0:
105,284,35407,1,10,0:2:0:0:
105,284,35584,2,0,L|50:284,2,50,2|2|8,0:2|0:2|0:2,0:0:0:0:
166,192,36290,5,12,1:2:0:0:
101,103,36643,1,8,1:2:0:0:
166,14,36996,1,8,1:2:0:0:
231,103,37349,2,0,L|285:103,1,50,8|0,1:2|0:2,0:0:0:0:
336,103,37702,2,0,L|436:103,1,100,8|8,1:2|1:2,0:0:0:0:
505,196,38407,1,8,1:2:0:0:
505,196,38584,1,8,1:2:0:0:
436,282,38937,6,0,P|342:282|297:317,1,150,4|8,0:2|0:2,0:0:0:0:
256,347,39643,1,8,0:2:0:0:
166,283,39996,2,0,P|160:236|180:187,1,100,0|0,0:2|0:2,0:0:0:0:
216,146,40525,2,0,P|221:99|202:50,1,100,0|8,0:2|0:2,0:0:0:0:
99,12,41231,1,0,0:2:0:0:
7,72,41584,1,8,0:2:0:0:
52,172,41937,6,0,P|90:216|91:265,1,100,0|8,0:2|0:2,0:0:0:0:
75,308,42466,2,0,L|195:283,1,100,8|0,0:2|0:2,0:0:0:0:
227,275,42996,1,8,0:2:0:0:
166,127,43525,1,8,1:2:0:0:
166,127,43702,1,8,1:2:0:0:
306,39,44231,1,8,1:2:0:0:
306,39,44407,1,8,1:2:0:0:
409,77,44760,6,0,P|396:127|412:182,1,100,4|8,0:2|0:2,0:0:0:0:
438,219,45290,1,8,0:2:0:0:
396,321,45643,2,0,P|348:308|288:321,1,100,0|0,0:2|0:2,0:0:0:0:
255,349,46172,2,0,P|206:356|158:343,1,100,0|8,0:2|0:2,0:0:0:0:
61,291,46878,1,0,0:2:0:0:
153,231,47231,1,8,0:2:0:0:
65,164,47584,6,0,L|44:43,1,100,0|8,0:2|0:2,0:0:0:0:
149,108,48290,2,0,L|136:37,2,50,0|0|8,0:2|0:2|0:2,0:0:0:0:
159,162,48819,2,0,P|126:240|97:256,1,100,0|8,1:2|1:2,0:0:0:0:
65,269,49349,1,8,1:2:0:0:
212,354,49878,1,8,1:2:0:0:
212,354,50055,1,8,1:2:0:0:
295,283,50407,6,0,P|277:239|278:182,2,100,2|0|2,3:2|0:2|3:2,0:0:0:0:
380,353,51466,1,8,3:2:0:0:
478,304,51819,2,0,P|494:280|490:142,1,150,2|0,3:2|3:2,0:0:0:0:
455,133,52525,2,0,L|473:20,1,100,2|8,3:2|3:2,0:0:0:0:
367,73,53231,5,2,3:2:0:0:
261,42,53584,1,0,0:2:0:0:
229,147,53937,1,2,3:2:0:0:
335,178,54290,1,8,3:2:0:0:
380,277,54643,1,2,3:2:0:0:
380,277,54819,2,0,P|330:271|276:293,1,100,0|0,3:2|3:2,0:0:0:0:
237,317,55349,2,0,L|134:299,1,100,2|8,3:2|3:2,0:0:0:0:
98,197,56055,6,0,L|-5:179,2,100,2|0|2,3:2|0:2|3:2,0:0:0:0:
182,126,57113,1,8,3:2:0:0:
282,171,57466,2,0,L|434:145,1,150,2|0,3:2|3:2,0:0:0:0:
484,135,58172,2,0,L|459:242,1,100,2|8,3:2|3:2,0:0:0:0:
435,340,58878,5,2,3:2:0:0:
342,281,59231,1,0,0:2:0:0:
256,349,59584,1,2,3:2:0:0:
169,281,59937,1,8,3:2:0:0:
78,340,60290,1,2,3:2:0:0:
78,340,60466,2,0,P|73:288|54:245,1,100,0|0,3:2|3:2,0:0:0:0:
19,202,60996,2,0,P|23:152|43:106,1,100,2|8,3:2|3:2,0:0:0:0:
135,46,61702,6,0,L|138:165,1,100,4|8,0:2|0:2,0:0:0:0:
172,189,62231,2,0,P|156:285|188:338,1,150,8|8,0:2|0:2,0:0:0:0:
282,368,63113,2,0,L|381:358,1,100,0|8,0:2|0:2,0:0:0:0:
436,349,63643,1,8,0:2:0:0:
494,257,63996,1,0,0:2:0:0:
494,257,64172,1,8,0:2:0:0:
407,189,64525,6,0,P|411:136|442:88,1,100,4|8,0:2|0:2,0:0:0:0:
468,52,65055,2,0,P|394:41|323:65,1,150,8|8,0:2|0:2,0:0:0:0:
240,136,65937,2,0,P|231:184|251:248,1,100,0|8,0:2|0:2,0:0:0:0:
274,279,66466,1,8,0:2:0:0:
192,352,66819,1,0,0:2:0:0:
192,352,66996,1,8,0:2:0:0:
114,274,67349,6,0,P|110:225|73:166,1,100,12|8,0:2|0:2,0:0:0:0:
100,129,67878,1,0,0:2:0:0:
100,129,68055,2,0,P|76:85|73:35,1,100,8|8,0:2|0:2,0:0:0:0:
181,16,68760,2,0,L|290:16,1,100,0|0,0:2|0:2,0:0:0:0:
331,114,69466,2,0,L|231:114,1,100,0|0,0:2|1:2,0:0:0:0:
123,137,70172,6,0,P|75:220|89:265,1,150,4|8,1:2|0:2,0:0:0:0:
122,311,70878,1,0,0:2:0:0:
224,351,71231,1,8,0:2:0:0:
292,264,71584,2,0,P|359:292|431:273,1,150,0|8,1:2|0:2,0:0:0:0:
478,244,72290,1,0,0:2:0:0:
511,139,72643,1,8,0:2:0:0:
429,65,72996,6,0,P|384:61|334:89,1,100,0|8,1:2|0:2,0:0:0:0:
298,125,73525,1,8,0:2:0:0:
209,60,73878,1,0,1:2:0:0:
147,151,74231,2,0,L|161:199,1,50,0|0,1:2|1:2,0:0:0:0:
264,235,74760,2,0,L|250:187,1,50,8|8,0:2|0:2,0:0:0:0:
360,221,75290,1,0,1:2:0:0:
360,221,75466,1,8,0:2:0:0:
311,319,75819,6,0,P|263:315|208:328,1,100,0|8,1:2|0:2,0:0:0:0:
189,282,76349,1,8,0:2:0:0:
189,282,76525,2,0,P|141:286|86:273,1,100,0|8,0:2|0:2,0:0:0:0:
82,165,77231,2,0,L|74:97,1,50,0|0,1:2|0:2,0:0:0:0:
103,69,77584,1,8,0:2:0:0:
103,69,77760,2,0,P|193:34|240:52,1,150,8|8,0:2|0:2,0:0:0:0:
327,117,78643,6,0,L|315:165,1,50,8|8,1:2|1:2,0:0:0:0:
226,230,79172,2,0,L|215:278,1,50,8|8,1:2|1:2,0:0:0:0:
300,357,79702,1,8,1:2:0:0:
300,357,79878,1,8,1:2:0:0:
404,316,80231,1,8,1:2:0:0:
404,316,80407,1,8,1:2:0:0:
504,270,80760,1,8,1:2:0:0:
413,208,81113,1,8,1:2:0:0:
511,159,81466,6,0,P|487:67|446:35,1,150,4|8,1:2|0:2,0:0:0:0:
395,15,82172,1,0,0:2:0:0:
301,72,82525,1,8,0:2:0:0:
207,15,82878,2,0,P|162:73|164:147,1,150,0|8,1:2|0:2,0:0:0:0:
189,196,83584,1,0,0:2:0:0:
256,283,83937,1,8,0:2:0:0:
168,349,84290,6,0,P|113:364|53:349,1,100,0|8,1:2|0:2,0:0:0:0:
18,343,84819,1,8,0:2:0:0:
70,246,85172,1,0,1:2:0:0:
12,159,85525,1,0,1:2:0:0:
12,159,85702,1,0,1:2:0:0:
104,98,86055,1,8,0:2:0:0:
104,98,86231,1,8,0:2:0:0:
192,32,86584,2,0,L|200:81,1,50,0|8,1:2|0:2,0:0:0:0:
220,190,87113,6,0,P|195:241|209:302,1,100,0|8,1:2|0:2,0:0:0:0:
221,336,87643,1,8,0:2:0:0:
221,336,87819,2,0,L|112:325,1,100,0|8,0:2|0:2,0:0:0:0:
13,306,88525,2,0,L|4:244,1,50,0|0,1:2|0:2,0:0:0:0:
46,219,88878,1,8,0:2:0:0:
46,219,89055,2,0,P|4:130|19:76,1,150,8|8,0:2|0:2,0:0:0:0:
107,24,89937,6,0,L|169:24,1,50,8|8,1:2|1:2,0:0:0:0:
200,125,90466,2,0,L|150:125,1,50,8|8,1:2|1:2,0:0:0:0:
91,220,90996,1,8,1:2:0:0:
91,220,91172,1,8,1:2:0:0:
29,312,91525,1,8,1:2:0:0:
29,312,91702,1,8,1:2:0:0:
129,358,92055,2,0,L|200:358,1,50,8|0,1:2|0:2,0:0:0:0:
228,331,92407,1,8,1:2:0:0:
228,331,92584,6,0,P|319:367|379:344,1,150,6|10,0:2|0:2,0:0:0:0:
310,257,93466,2,0,P|315:217|290:158,1,100,2|8,0:2|0:2,0:0:0:0:
400,190,94172,2,0,P|393:137|416:85,1,100,2|8,0:2|0:2,0:0:0:0:
462,71,94702,1,10,0:2:0:0:
462,71,94878,2,0,L|451:20,2,50,2|2|8,0:2|0:2|0:2,0:0:0:0:
503,108,95407,6,0,L|472:272,1,150,6|10,0:2|0:2,0:0:0:0:
448,362,96290,1,2,0:2:0:0:
358,298,96643,1,8,0:2:0:0:
257,342,96996,2,0,L|157:342,1,100,2|8,0:2|0:2,0:0:0:0:
106,346,97525,1,10,0:2:0:0:
106,346,97702,2,0,L|106:283,1,50,2|2,0:2|0:2,0:0:0:0:
35,211,98231,6,0,P|-8:150|0:77,1,150,6|10,0:2|0:2,0:0:0:0:
100,121,99113,1,2,0:2:0:0:
176,42,99466,1,8,0:2:0:0:
274,90,99819,2,0,P|281:139|264:196,1,100,2|8,0:2|0:2,0:0:0:0:
232,229,100349,1,10,0:2:0:0:
232,229,100525,2,0,L|240:284,1,50,2|2,0:2|0:2,0:0:0:0:
307,365,101055,6,0,P|360:377|418:360,1,100,6|0,0:2|0:2,0:0:0:0:
457,353,101584,1,8,0:2:0:0:
432,246,101937,1,0,0:2:0:0:
502,161,102290,2,0,P|505:130|501:104,1,50,8|0,0:2|0:2,0:0:0:0:
480,61,102643,2,0,P|430:47|380:56,1,100,0|8,0:2|0:2,0:0:0:0:
294,117,103349,1,8,0:2:0:0:
294,117,103525,1,8,0:2:0:0:
337,218,103878,6,0,P|240:229|181:194,1,150,4|8,0:2|0:2,0:0:0:0:
149,177,104584,1,8,0:2:0:0:
196,77,104937,2,0,P|237:51|292:50,1,100,0|0,0:2|0:2,0:0:0:0:
341,61,105466,2,0,P|375:95|388:148,1,100,0|8,0:2|0:2,0:0:0:0:
322,231,106172,1,0,0:2:0:0:
256,319,106525,1,8,0:2:0:0:
163,261,106878,6,0,P|112:263|66:242,1,100,0|8,0:2|0:2,0:0:0:0:
25,209,107407,2,0,L|41:97,1,100,8|0,0:2|0:2,0:0:0:0:
48,55,107937,1,8,0:2:0:0:
212,19,108466,1,8,1:2:0:0:
212,19,108643,1,8,1:2:0:0:
320,151,109172,1,8,1:2:0:0:
320,151,109349,1,8,1:2:0:0:
283,255,109702,6,0,B|211:191|115:319|43:255,1,250,6|8,0:2|0:2,0:0:0:0:
1,228,110760,1,8,0:2:0:0:
67,140,111113,1,0,0:2:0:0:
25,38,111466,1,8,0:2:0:0:
133,60,111819,1,0,0:2:0:0:
175,162,112172,1,8,0:2:0:0:
113,252,112525,6,0,P|158:270|213:265,1,100,0|8,0:2|0:2,0:0:0:0:
314,235,113231,2,0,L|301:293,2,50,0|0|8,0:2|0:2|0:2,0:0:0:0:
354,197,113760,2,0,P|353:143|330:91,1,100,0|8,1:2|1:2,0:0:0:0:
300,59,114290,1,8,1:2:0:0:
144,21,114819,1,8,1:2:0:0:
144,21,114996,1,8,1:2:0:0:
48,75,115349,6,0,P|26:122|34:172,1,100,2|0,3:2|0:2,0:0:0:0:
63,274,116055,2,0,P|110:296|160:288,1,100,2|8,3:2|3:2,0:0:0:0:
253,238,116760,2,0,P|350:221|402:259,1,150,2|0,3:2|3:2,0:0:0:0:
433,280,117466,2,0,L|422:167,1,100,2|8,3:2|3:2,0:0:0:0:
512,115,118172,5,2,3:2:0:0:
436,35,118525,1,0,0:2:0:0:
342,92,118878,2,0,P|296:79|246:89,1,100,2|8,3:2|3:2,0:0:0:0:
156,35,119584,1,2,3:2:0:0:
156,35,119760,2,0,P|108:28|56:44,1,100,0|0,3:2|3:2,0:0:0:0:
19,80,120290,2,0,L|-1:25,2,50,2|0|8,3:2|3:2|3:2,0:0:0:0:
48,186,120996,6,0,L|16:286,1,100,2|0,3:2|0:2,0:0:0:0:
99,355,121702,2,0,L|130:259,1,100,2|8,3:2|3:2,0:0:0:0:
209,336,122407,2,0,P|281:346|340:303,1,150,2|0,3:2|3:2,0:0:0:0:
373,258,123113,2,0,P|424:290|469:292,1,100,2|8,3:2|3:2,0:0:0:0:
455,184,123819,5,2,3:2:0:0:
491,80,124172,1,0,0:2:0:0:
383,101,124525,1,2,3:2:0:0:
276,122,124878,1,8,3:2:0:0:
352,201,125231,1,2,3:2:0:0:
417,289,125584,2,0,P|423:317|420:351,1,50,0|0,0:2|3:2,0:0:0:0:
372,361,125937,2,0,P|288:367|254:357,1,100,2|8,3:2|3:2,0:0:0:0:
201,280,126643,6,0,L|101:286,1,100,4|8,0:2|0:2,0:0:0:0:
53,259,127172,2,0,P|10:172|20:116,1,150,8|8,0:2|0:2,0:0:0:0:
84,35,128055,2,0,P|133:20|183:31,1,100,0|8,0:2|0:2,0:0:0:0:
230,53,128584,1,8,0:2:0:0:
176,150,128937,1,0,0:2:0:0:
176,150,129113,1,8,0:2:0:0:
96,226,129466,6,0,P|139:250|188:252,1,100,4|8,0:2|0:2,0:0:0:0:
239,277,129996,2,0,P|309:253|383:264,1,150,8|8,0:2|0:2,0:0:0:0:
482,311,130878,2,0,P|491:263|471:199,1,100,0|8,0:2|0:2,0:0:0:0:
443,172,131407,1,8,0:2:0:0:
512,87,131760,1,0,0:2:0:0:
512,87,131937,1,8,0:2:0:0:
422,23,132290,6,0,L|306:19,1,100,4|8,0:2|0:2,0:0:0:0:
274,47,132819,2,0,L|158:43,1,100,8|0,0:2|0:2,0:0:0:0:
119,39,133349,1,8,0:0:0:0:
32,105,133702,2,0,L|32:208,1,100,0|0,0:2|0:2,0:0:0:0:
124,266,134407,2,0,L|124:166,1,100,0|0,0:2|1:2,0:0:0:0:
213,100,135113,6,0,P|288:113|324:173,1,150,4|8,1:2|0:2,0:0:0:0:
316,227,135819,1,0,0:2:0:0:
240,306,136172,1,8,0:2:0:0:
137,266,136525,2,0,P|118:192|152:121,1,150,0|8,1:2|0:2,0:0:0:0:
178,82,137231,1,0,0:2:0:0:
282,116,137584,1,8,0:2:0:0:
371,52,137937,6,0,P|395:95|392:144,1,100,0|8,1:2|0:2,0:0:0:0:
368,194,138466,1,8,0:2:0:0:
445,272,138819,1,0,1:2:0:0:
369,352,139172,1,0,1:2:0:0:
369,352,139349,1,0,1:2:0:0:
274,308,139702,1,8,0:2:0:0:
274,308,139878,1,8,0:2:0:0:
176,257,140231,2,0,L|166:208,1,50,0|8,1:2|0:2,0:0:0:0:
188,100,140760,6,0,P|236:89|286:92,1,100,0|8,1:2|0:2,0:0:0:0:
317,145,141290,1,8,0:2:0:0:
317,145,141466,2,0,P|365:155|415:152,1,100,0|8,0:2|0:2,0:0:0:0:
509,91,142172,2,0,L|501:23,1,50,0|0,1:2|0:2,0:0:0:0:
464,11,142525,1,8,0:2:0:0:
464,11,142702,2,0,L|314:11,1,150,8|8,0:2|0:2,0:0:0:0:
215,59,143584,6,8,L|215:117,1,50,8|8,1:2|1:2,1:2:0:0:
314,156,144113,2,8,L|314:222,1,50,8|8,1:2|1:2,1:2:0:0:
318,320,144643,1,8,1:2:0:0:
318,320,144819,1,8,1:2:0:0:
224,274,145172,1,8,1:2:0:0:
224,274,145349,1,8,1:2:0:0:
126,325,145702,1,8,1:2:0:0:
71,230,146055,1,8,1:2:0:0:
71,120,146407,6,0,P|150:120|209:68,1,150,4|8,1:2|0:2,0:0:0:0:
237,34,147113,1,0,0:2:0:0:
332,89,147466,1,8,0:2:0:0:
427,34,147819,2,0,P|382:92|384:166,1,150,0|8,1:2|0:2,0:0:0:0:
409,215,148525,1,0,0:2:0:0:
476,302,148878,1,8,0:2:0:0:
381,358,149231,6,0,L|266:358,1,100,0|8,1:2|0:2,0:0:0:0:
237,325,149760,1,8,0:2:0:0:
304,238,150113,1,0,1:2:0:0:
213,186,150466,1,0,1:2:0:0:
213,186,150643,1,0,1:2:0:0:
285,104,150996,1,8,0:2:0:0:
285,104,151172,1,8,0:2:0:0:
184,59,151525,2,0,L|133:59,1,50,0|8,1:2|0:2,0:0:0:0:
48,128,152055,6,0,P|73:179|59:240,1,100,0|8,1:2|0:2,0:0:0:0:
46,273,152584,1,8,0:2:0:0:
46,273,152760,2,0,L|155:262,1,100,0|8,0:2|0:2,0:0:0:0:
233,330,153466,2,0,L|294:344,1,50,0|0,1:2|0:2,0:0:0:0:
339,360,153819,1,8,0:2:0:0:
339,360,153996,2,0,P|437:355|477:317,1,150,8|8,0:2|0:2,0:0:0:0:
507,218,154878,6,8,L|442:194,1,50,8|8,1:2|1:2,1:2:0:0:
382,123,155407,2,8,L|317:147,1,50,8|8,1:2|1:2,1:2:0:0:
236,184,155937,1,8,1:2:0:0:
236,184,156113,1,8,1:2:0:0:
171,102,156466,1,8,1:2:0:0:
171,102,156643,1,8,1:2:0:0:
73,152,156996,2,0,L|89:223,2,50,8|0|8,1:2|0:2|1:2,0:0:0:0:
61,98,157525,5,6,1:2:0:0:
229,355,168996,6,0,L|166:378,2,50,4|0|0,0:2|0:2|0:2,0:0:0:0:
284,355,169525,2,0,L|347:378,2,50,4|0|0,0:2|0:2|0:2,0:0:0:0:
256,307,170055,1,4,0:2:0:0:
362,278,170407,2,0,B|312:210|413:108|362:25,1,250,4|0,0:2|3:2,0:0:0:0:
324,2,171466,1,0,3:2:0:0:
219,36,171819,6,0,P|178:18|112:23,2,100,2|0|2,3:2|0:2|0:2,0:0:0:0:
154,125,172878,1,0,0:2:0:0:
254,170,173231,2,0,P|283:263|225:351,1,200,2|2,0:2|0:2,0:0:0:0:
140,287,174290,1,0,0:2:0:0:
38,329,174643,6,0,P|27:288|45:228,2,100,2|0|2,0:2|0:2|0:2,0:0:0:0:
140,287,175702,1,0,0:2:0:0:
233,345,176055,1,2,0:2:0:0:
420,230,176760,1,2,0:2:0:0:
262,76,177466,6,0,P|264:125|289:167,2,100,2|0|2,3:2|0:2|3:2,0:0:0:0:
350,9,178525,1,0,0:2:0:0:
457,34,178878,2,0,P|508:94|492:168,1,150,2|0,3:2|3:2,0:0:0:0:
466,205,179584,1,2,3:2:0:0:
511,305,179937,1,0,0:2:0:0:
406,339,180290,6,0,P|356:344|309:327,1,100,2|0,3:2|0:2,0:0:0:0:
233,248,180996,2,0,P|227:198|244:151,1,100,2|0,3:2|3:2,0:0:0:0:
309,62,181702,2,0,L|281:9,2,50,2|0|0,3:2|3:2|0:2,0:0:0:0:
362,158,182407,1,2,3:2:0:0:
462,113,182760,1,0,3:2:0:0:
502,215,183113,6,0,P|510:275|486:323,1,100,4|8,0:2|0:2,0:0:0:0:
457,350,183643,2,0,P|388:377|317:356,1,150,8|8,0:2|0:2,0:0:0:0:
243,275,184525,2,0,L|261:160,1,100,0|8,0:2|0:2,0:0:0:0:
269,122,185055,1,8,0:2:0:0:
202,42,185407,1,0,0:2:0:0:
202,42,185584,1,8,0:2:0:0:
93,24,185937,6,0,P|43:26|0:50,1,100,4|8,0:2|0:2,0:0:0:0:
23,101,186466,2,0,P|0:196|25:250,1,150,8|8,0:2|0:2,0:0:0:0:
75,336,187349,2,0,P|123:345|187:325,1,100,0|8,0:2|0:2,0:0:0:0:
220,306,187878,1,8,0:2:0:0:
185,207,188231,1,0,0:2:0:0:
185,207,188407,1,8,0:2:0:0:
229,106,188760,6,0,P|281:106|335:129,1,100,4|8,0:2|0:2,0:0:0:0:
368,21,189466,2,0,P|413:47|448:93,1,100,0|8,0:2|0:2,0:0:0:0:
500,178,190172,1,0,1:2:0:0:
73,69,191584,6,0,P|161:107|184:162,1,150,4|8,1:2|0:2,0:0:0:0:
161,203,192290,1,0,0:2:0:0:
256,258,192643,1,8,0:2:0:0:
351,314,192996,2,0,P|413:274|440:203,1,150,0|8,0:2|0:2,0:0:0:0:
446,150,193702,1,0,0:2:0:0:
227,143,194407,6,0,P|179:161|122:146,1,100,0|8,0:2|0:2,0:0:0:0:
82,129,194937,1,8,0:2:0:0:
16,217,195290,1,0,0:2:0:0:
117,261,195643,2,0,L|133:323,1,50,0|0,0:2|0:2,0:0:0:0:
238,325,196172,2,0,L|225:276,1,50,8|8,0:2|0:2,0:0:0:0:
334,294,196702,2,0,L|346:342,1,50,0|8,0:2|0:2,0:0:0:0:
452,312,197231,6,0,P|445:241|388:183,1,150,0|8,0:2|0:2,0:0:0:0:
343,162,197937,2,0,P|272:169|214:226,1,150,0|0,0:2|0:2,0:0:0:0:
181,263,198643,2,0,P|109:244|63:186,2,150,0|8|8,0:2|0:2|0:2,0:0:0:0:
279,213,200055,6,0,L|328:219,1,50,8|8,1:2|1:2,0:0:0:0:
319,110,200584,2,0,L|325:60,1,50,8|8,1:2|1:2,0:0:0:0:
216,70,201113,2,0,L|166:63,1,50,8|8,1:2|1:2,0:0:0:0:
172,173,201643,2,0,L|165:222,1,50,8|8,1:2|1:2,0:0:0:0:
145,331,202172,1,8,1:2:0:0:
254,348,202525,1,8,1:2:0:0:
256,192,202702,12,0,204290,0:2:0:0:
256,192,205349,5,4,1:2:0:0:
169,124,205702,6,0,P|94:137|58:197,1,150,4|8,1:2|0:2,0:0:0:0:
36,247,206407,1,0,0:2:0:0:
103,334,206760,1,8,0:2:0:0:
208,301,207113,2,0,P|282:320|353:286,1,150,0|8,1:2|0:2,0:0:0:0:
387,254,207819,1,0,0:2:0:0:
328,161,208172,1,8,0:2:0:0:
376,62,208525,6,0,P|419:37|468:40,1,100,0|8,1:2|0:2,0:0:0:0:
511,76,209055,1,8,0:2:0:0:
456,171,209407,1,0,1:2:0:0:
492,280,209760,1,0,1:2:0:0:
492,280,209937,1,0,1:2:0:0:
398,334,210290,1,8,0:2:0:0:
398,334,210466,1,8,0:2:0:0:
303,290,210819,1,0,1:2:0:0:
303,290,210996,1,8,0:2:0:0:
212,352,211349,6,0,P|164:356|117:336,1,100,0|8,1:2|0:2,0:0:0:0:
86,298,211878,1,8,0:2:0:0:
86,298,212055,2,0,P|68:252|75:202,1,100,0|8,0:2|0:2,0:0:0:0:
104,97,212760,2,0,L|159:85,1,50,0|0,1:2|0:2,0:0:0:0:
210,76,213113,1,8,0:2:0:0:
210,76,213290,2,0,P|249:164|234:211,1,150,8|8,0:2|0:2,0:0:0:0:
184,311,214172,5,8,1:2:0:0:
184,311,214349,1,8,1:2:0:0:
292,350,214702,1,8,1:2:0:0:
292,350,214878,1,8,1:2:0:0:
389,296,215231,1,8,1:2:0:0:
389,296,215407,1,8,1:2:0:0:
497,335,215760,1,8,1:2:0:0:
497,335,215937,1,8,1:2:0:0:
468,229,216290,1,8,1:2:0:0:
489,121,216643,1,8,1:2:0:0:
431,27,216996,6,0,P|358:12|293:46,1,150,4|8,1:2|0:2,0:0:0:0:
256,87,217702,1,0,0:2:0:0:
323,174,218055,1,8,0:2:0:0:
289,278,218407,2,0,P|231:323|157:321,1,150,0|8,1:2|0:2,0:0:0:0:
108,296,219113,1,0,0:2:0:0:
44,206,219466,1,8,0:2:0:0:
81,102,219819,6,0,P|122:66|180:63,1,100,0|8,1:2|0:2,0:0:0:0:
220,72,220349,1,8,0:2:0:0:
309,136,220702,1,0,1:2:0:0:
253,232,221055,1,0,1:2:0:0:
253,232,221231,1,0,1:2:0:0:
320,326,221584,1,8,0:2:0:0:
320,326,221760,1,8,0:2:0:0:
219,370,222113,2,0,L|164:363,1,50,0|8,1:2|0:2,0:0:0:0:
60,346,222643,6,0,P|35:295|49:234,1,100,0|8,1:2|0:2,0:0:0:0:
68,208,223172,1,8,0:2:0:0:
68,208,223349,2,0,L|177:197,1,100,0|8,0:2|0:2,0:0:0:0:
256,132,224055,2,0,L|317:146,1,50,0|0,1:2|0:2,0:0:0:0:
362,160,224407,1,8,0:2:0:0:
362,160,224584,2,0,P|460:165|500:203,1,150,8|8,0:2|0:2,0:0:0:0:
410,265,225466,5,8,1:2:0:0:
410,265,225643,1,8,1:2:0:0:
366,368,225996,1,8,1:2:0:0:
366,368,226172,1,8,1:2:0:0:
308,281,226525,1,8,1:2:0:0:
308,281,226702,1,8,1:2:0:0:
352,178,227055,1,8,1:2:0:0:
352,178,227231,1,8,1:2:0:0:
246,148,227584,2,0,L|237:100,1,50,8|0,1:2|0:2,0:0:0:0:
225,50,227937,1,0,0:2:0:0:
225,50,228113,6,0,P|132:22|75:38,1,150,6|10,0:2|0:2,0:0:0:0:
6,113,228996,2,0,P|-14:147|-14:211,1,100,2|8,0:2|0:2,0:0:0:0:
37,303,229702,2,0,L|153:295,1,100,2|8,0:2|0:2,0:0:0:0:
180,261,230231,1,2,0:2:0:0:
180,261,230407,2,0,L|203:319,2,50,2|2|8,0:2|0:2|0:2,0:0:0:0:
195,208,230937,6,0,P|206:136|266:87,1,150,6|10,0:2|0:2,0:0:0:0:
302,191,231819,1,2,0:2:0:0:
403,149,232172,1,8,0:2:0:0:
434,254,232525,2,0,P|445:303|423:366,1,100,2|8,0:2|0:2,0:0:0:0:
384,370,233055,1,10,0:2:0:0:
384,370,233231,2,0,L|321:370,1,50,2|2,0:2|0:2,0:0:0:0:
256,292,233760,6,0,P|195:335|122:327,1,150,6|10,0:2|0:2,0:0:0:0:
47,248,234643,1,2,0:2:0:0:
115,161,234996,1,8,0:2:0:0:
79,57,235349,2,0,P|134:48|179:57,1,100,2|8,1:2|1:2,0:0:0:0:
232,81,235878,1,2,0:2:0:0:
232,81,236055,2,0,L|260:33,2,50,2|2|8,1:2|1:2|0:2,0:0:0:0:
182,179,236760,5,8,1:2:0:0:
72,179,237113,1,8,1:2:0:0:
126,275,237466,1,8,1:2:0:0:
191,364,237819,2,0,L|245:364,1,50,8|0,1:2|0:2,0:0:0:0:
296,364,238172,2,0,P|347:363|386:336,1,100,8|8,1:2|1:2,0:0:0:0:
357,235,238878,1,8,1:2:0:0:
357,235,239055,1,8,1:2:0:0:
256,192,239407,5,4,0:2:0:0:
