osu file format v14

[General]
AudioFilename: audio.mp3
AudioLeadIn: 0
PreviewTime: 3819
Countdown: 0
SampleSet: Soft
StackLeniency: 0.7
Mode: 0
LetterboxInBreaks: 0
WidescreenStoryboard: 0

[Editor]
DistanceSpacing: 1.2
BeatDivisor: 4
GridSize: 8
TimelineZoom: 1

[Metadata]
Title:Oshiete A to Z
TitleUnicode:おしえて A to Z
Artist:Tamura Yukari
ArtistUnicode:田村ゆかり
Creator:RVMathew
Version:1st Base
Source:B型H系
Tags:Azunyan- Mayu Sakuma Xexyz teach me Full Version OP opening Ver. Yamada's First Time B Gata H Kei anime Japanese j-pop jpop
BeatmapID:2979853
BeatmapSetID:1449220

[Difficulty]
HPDrainRate:2
CircleSize:3
OverallDifficulty:3
ApproachRate:3
SliderMultiplier:0.8
SliderTickRate:2

[Events]
//Background and Video events
0,0,"stretched-1920-1080-748422.jpg",0,0
//Break Periods
2,157725,167556
//Storyboard Layer 0 (Background)
//Storyboard Layer 1 (Fail)
//Storyboard Layer 2 (Pass)
//Storyboard Layer 3 (Foreground)
//Storyboard Layer 4 (Overlay)
//Storyboard Sound Samples

[TimingPoints]
2408,352.941176470588,4,2,1,70,1,0
5231,-100,4,2,1,75,0,1
5584,-100,4,2,2,75,0,1
5937,-100,4,2,1,75,0,1
6996,-100,4,2,2,75,0,1
7349,-100,4,2,1,75,0,1
8407,-100,4,2,2,75,0,1
8584,-100,4,2,1,75,0,1
9819,-100,4,2,2,75,0,1
9907,-100,4,2,1,75,0,1
11231,-100,4,2,2,75,0,1
11584,-100,4,2,1,75,0,1
12643,-100,4,2,2,75,0,1
12819,-100,4,2,1,75,0,1
16172,-100,4,2,1,75,0,0
16525,-100,4,2,1,75,0,1
16878,-100,4,2,2,75,0,1
17231,-100,4,2,1,75,0,1
18290,-100,4,2,2,75,0,1
18643,-100,4,2,1,75,0,1
19702,-100,4,2,2,75,0,1
19878,-100,4,2,1,75,0,1
21113,-100,4,2,2,75,0,1
21202,-100,4,2,1,75,0,1
22525,-100,4,2,2,75,0,1
22878,-100,4,2,1,75,0,1
23937,-100,4,2,2,75,0,1
24113,-100,4,2,1,75,0,1
27643,-100,4,2,1,70,0,0
29584,-100,4,2,2,70,0,0
29937,-100,4,2,1,70,0,0
32407,-100,4,2,2,70,0,0
32760,-100,4,2,1,70,0,0
35231,-100,4,2,2,70,0,0
35584,-100,4,2,1,70,0,0
39466,-100,4,2,2,70,0,0
39643,-100,4,2,1,70,0,0
39996,-100,4,2,2,70,0,0
40349,-100,4,2,1,70,0,0
42290,-100,4,2,2,70,0,0
42466,-100,4,2,1,70,0,0
43702,-100,4,2,2,70,0,0
43878,-100,4,2,1,70,0,0
44231,-100,4,2,2,70,0,0
44407,-100,4,2,1,70,0,0
45113,-100,4,2,2,70,0,0
45290,-100,4,2,1,70,0,0
45819,-100,4,2,2,70,0,0
45996,-100,4,2,1,70,0,0
48643,-100,4,2,2,70,0,0
48819,-100,4,2,1,70,0,0
49172,-100,4,2,1,70,0,0
49349,-100,4,2,2,70,0,0
49525,-100,4,2,1,70,0,0
49878,-100,4,2,2,70,0,0
50055,-100,4,2,1,70,0,0
50407,-100,4,2,3,55,0,0
61702,-100,4,2,1,65,0,0
62055,-100,4,2,2,65,0,0
62231,-100,4,2,1,65,0,0
63466,-100,4,2,2,65,0,0
63643,-100,4,2,1,65,0,0
64878,-100,4,2,2,65,0,0
65055,-100,4,2,1,65,0,0
66290,-100,4,2,2,65,0,0
66643,-100,4,2,1,65,0,0
67702,-100,4,2,2,65,0,0
67878,-100,4,2,1,65,0,0
68055,-100,4,2,2,65,0,0
68231,-100,4,2,1,65,0,0
70172,-100,4,2,1,75,0,1
70525,-100,4,2,2,75,0,1
70878,-100,4,2,1,75,0,1
71937,-100,4,2,2,75,0,1
72290,-100,4,2,1,75,0,1
73349,-100,4,2,2,75,0,1
73525,-100,4,2,1,75,0,1
74760,-100,4,2,2,75,0,1
74849,-100,4,2,1,75,0,1
76172,-100,4,2,2,75,0,1
76525,-100,4,2,1,75,0,1
77584,-100,4,2,2,75,0,1
77760,-100,4,2,1,75,0,1
81113,-100,4,2,1,75,0,0
81466,-100,4,2,1,75,0,1
81819,-100,4,2,2,75,0,1
82172,-100,4,2,1,75,0,1
83231,-100,4,2,2,75,0,1
83584,-100,4,2,1,75,0,1
84643,-100,4,2,2,75,0,1
84819,-100,4,2,1,75,0,1
86055,-100,4,2,2,75,0,1
86143,-100,4,2,1,75,0,1
87466,-100,4,2,2,75,0,1
87819,-100,4,2,1,75,0,1
88878,-100,4,2,2,75,0,1
89055,-100,4,2,1,75,0,1
92584,-100,4,2,1,70,0,0
94525,-100,4,2,2,70,0,0
94878,-100,4,2,1,70,0,0
97349,-100,4,2,2,70,0,0
97702,-100,4,2,1,70,0,0
100172,-100,4,2,2,70,0,0
100525,-100,4,2,1,70,0,0
104407,-100,4,2,2,70,0,0
104584,-100,4,2,1,70,0,0
105113,-100,4,2,2,70,0,0
105290,-100,4,2,1,70,0,0
107231,-100,4,2,2,70,0,0
107407,-100,4,2,1,70,0,0
108643,-100,4,2,2,70,0,0
108819,-100,4,2,1,70,0,0
109172,-100,4,2,2,70,0,0
109349,-100,4,2,1,70,0,0
110760,-100,4,2,2,70,0,0
110937,-100,4,2,1,70,0,0
113584,-100,4,2,2,70,0,0
113760,-100,4,2,1,70,0,0
114113,-100,4,2,1,70,0,0
114290,-100,4,2,2,70,0,0
114466,-100,4,2,1,70,0,0
114819,-100,4,2,2,70,0,0
114996,-100,4,2,1,70,0,0
115349,-100,4,2,3,55,0,0
125584,-100,4,2,3,60,0,0
126643,-100,4,2,1,65,0,0
126996,-100,4,2,2,65,0,0
127172,-100,4,2,1,65,0,0
128407,-100,4,2,2,65,0,0
128584,-100,4,2,1,65,0,0
129819,-100,4,2,2,65,0,0
129996,-100,4,2,1,65,0,0
131231,-100,4,2,2,65,0,0
131584,-100,4,2,1,65,0,0
132643,-100,4,2,2,65,0,0
132996,-100,4,2,1,65,0,0
135113,-100,4,2,1,75,0,1
135466,-100,4,2,2,75,0,1
135819,-100,4,2,1,75,0,1
136878,-100,4,2,2,75,0,1
137231,-100,4,2,1,75,0,1
138290,-100,4,2,2,75,0,1
138466,-100,4,2,1,75,0,1
139702,-100,4,2,2,75,0,1
139790,-100,4,2,1,75,0,1
141113,-100,4,2,2,75,0,1
141466,-100,4,2,1,75,0,1
142525,-100,4,2,2,75,0,1
142702,-100,4,2,1,75,0,1
146055,-100,4,2,1,75,0,0
146407,-100,4,2,1,75,0,1
146760,-100,4,2,2,75,0,1
147113,-100,4,2,1,75,0,1
148172,-100,4,2,2,75,0,1
148525,-100,4,2,1,75,0,1
149584,-100,4,2,2,75,0,1
149760,-100,4,2,1,75,0,1
150996,-100,4,2,2,75,0,1
151084,-100,4,2,1,75,0,1
152407,-100,4,2,2,75,0,1
152760,-100,4,2,1,75,0,1
153819,-100,4,2,2,75,0,1
153996,-100,4,2,1,75,0,1
157525,-100,4,2,1,70,0,0
171290,-100,4,2,1,50,0,0
171819,-100,4,2,3,55,0,0
181702,-100,4,2,3,50,0,0
183113,-100,4,2,1,65,0,0
183466,-100,4,2,2,65,0,0
183643,-100,4,2,1,65,0,0
184878,-100,4,2,2,65,0,0
185055,-100,4,2,1,65,0,0
186290,-100,4,2,2,65,0,0
186466,-100,4,2,1,65,0,0
187702,-100,4,2,2,65,0,0
187878,-100,4,2,1,65,0,0
190172,-100,4,2,1,70,0,0
191584,-100,4,2,1,65,0,0
191937,-100,4,2,2,65,0,0
192290,-100,4,2,1,65,0,0
193349,-100,4,2,2,65,0,0
193702,-100,4,2,1,65,0,0
194760,-100,4,2,2,65,0,0
194937,-100,4,2,1,65,0,0
196172,-100,4,2,2,65,0,0
196349,-100,4,2,1,65,0,0
196525,-100,4,2,1,65,0,0
196702,-100,4,2,2,65,0,0
196878,-100,4,2,1,65,0,0
197584,-100,4,2,2,65,0,0
197937,-100,4,2,1,65,0,0
198996,-100,4,2,2,65,0,0
199172,-100,4,2,1,65,0,0
200055,-100,4,2,1,70,0,0
205702,-100,4,2,1,75,0,1
206055,-100,4,2,2,75,0,1
206407,-100,4,2,1,75,0,1
207466,-100,4,2,2,75,0,1
207819,-100,4,2,1,75,0,1
208878,-100,4,2,2,75,0,1
209055,-100,4,2,1,75,0,1
210290,-100,4,2,2,75,0,1
210378,-100,4,2,1,75,0,1
211702,-100,4,2,2,75,0,1
212055,-100,4,2,1,75,0,1
213113,-100,4,2,2,75,0,1
213290,-100,4,2,1,75,0,1
216643,-100,4,2,1,75,0,0
216996,-100,4,2,1,75,0,1
217349,-100,4,2,2,75,0,1
217702,-100,4,2,1,75,0,1
218760,-100,4,2,2,75,0,1
219113,-100,4,2,1,75,0,1
220172,-100,4,2,2,75,0,1
220349,-100,4,2,1,75,0,1
221584,-100,4,2,2,75,0,1
221672,-100,4,2,1,75,0,1
222996,-100,4,2,2,75,0,1
223349,-100,4,2,1,75,0,1
224407,-100,4,2,2,75,0,1
224584,-100,4,2,1,75,0,1
228113,-100,4,2,1,70,0,0
230055,-100,4,2,2,70,0,0
230407,-100,4,2,1,70,0,0
232878,-100,4,2,2,70,0,0
233231,-100,4,2,1,70,0,0
235702,-100,4,2,2,70,0,0
236055,-100,4,2,1,70,0,0

[Colours]
Combo1 : 255,196,136
Combo2 : 151,255,255
Combo3 : 255,168,211
Combo4 : 240,221,164

[HitObjects]
256,24,3819,5,4,0:2:0:0:
256,120,4172,1,0,0:2:0:0:
256,216,4525,2,0,L|256:311,1,80,0|4,0:2|0:2,0:0:0:0:
346,328,5231,6,0,P|421:315|454:245,1,160,4|0,1:2|0:2,0:0:0:0:
374,192,6290,1,8,0:2:0:0:
455,140,6643,2,0,P|422:70|346:57,1,160,0|0,1:2|0:2,0:0:0:0:
256,91,7702,1,8,0:2:0:0:
166,57,8055,6,0,L|46:57,1,120,0|8,1:2|0:2,0:0:0:0:
97,138,8937,1,0,1:2:0:0:
5,248,9466,2,0,L|163:248,1,120,0|8,1:2|0:2,0:0:0:0:
269,248,10525,1,8,0:2:0:0:
302,338,10878,6,0,P|383:337|436:274,1,160,0|0,1:2|0:2,0:0:0:0:
400,192,11937,1,8,0:2:0:0:
339,118,12290,2,0,P|306:171|320:241,2,120,0|8|8,1:2|0:2|0:2,0:0:0:0:
424,73,13702,6,0,L|439:120,1,40,8|8,1:2|1:2,0:0:0:0:
489,191,14231,2,0,L|474:238,1,40,8|8,1:2|1:2,0:0:0:0:
386,260,14760,2,0,L|339:275,1,40,8|8,1:2|1:2,0:0:0:0:
268,325,15290,2,0,L|221:310,1,40,8|8,1:2|1:2,0:0:0:0:
138,283,15819,1,8,1:2:0:0:
207,216,16172,1,8,1:2:0:0:
140,147,16525,6,0,P|129:75|201:53,1,160,4|0,1:2|0:2,0:0:0:0:
256,131,17584,1,8,0:2:0:0:
312,53,17937,2,0,P|382:74|371:147,1,160,0|0,1:2|0:2,0:0:0:0:
310,221,18996,1,8,0:2:0:0:
329,315,19349,6,0,P|403:341|457:325,1,120,0|8,1:2|0:2,0:0:0:0:
510,265,20231,1,0,1:2:0:0:
511,121,20760,2,0,P|464:153|396:141,1,120,0|8,1:2|0:2,0:0:0:0:
274,84,21819,1,8,0:2:0:0:
184,50,22172,6,0,P|101:57|58:128,1,160,0|0,1:2|0:2,0:0:0:0:
118,192,23231,1,8,0:2:0:0:
169,273,23584,2,0,P|92:283|42:251,2,120,0|8|8,1:2|0:2|0:2,0:0:0:0:
256,232,24996,6,0,L|256:192,1,40,8|8,1:2|1:2,0:0:0:0:
323,123,25525,2,0,L|375:123,1,40,8|8,1:2|1:2,0:0:0:0:
430,192,26055,2,0,L|430:232,1,40,8|8,1:2|1:2,0:0:0:0:
363,301,26584,2,0,L|323:301,1,40,8|8,1:2|1:2,0:0:0:0:
255,231,27113,2,0,P|197:225|148:258,1,120,8|6,1:2|0:2,0:0:0:0:
42,355,28172,5,10,0:2:0:0:
42,259,28525,2,0,L|42:178,1,80,2|8,0:2|0:2,0:0:0:0:
42,83,29231,2,0,P|103:34|226:58,1,200,2|2,0:2|0:2,0:0:0:0:
271,130,30466,6,0,L|404:146,1,120,6|10,0:2|0:2,0:0:0:0:
454,216,31349,1,2,0:2:0:0:
411,302,31702,1,8,0:2:0:0:
317,281,32055,2,0,P|238:274|179:165,1,200,2|2,0:2|0:2,0:0:0:0:
250,114,33290,6,0,P|232:39|189:13,1,120,6|10,0:2|0:2,0:0:0:0:
126,78,34172,1,2,0:2:0:0:
31,63,34525,1,8,0:2:0:0:
59,155,34878,2,0,L|9:356,1,200,2|2,0:2|0:2,0:0:0:0:
153,329,36290,5,12,1:2:0:0:
220,261,36643,1,8,1:2:0:0:
153,192,36996,1,8,1:2:0:0:
220,123,37349,1,8,1:2:0:0:
153,54,37702,2,0,L|65:54,1,80,8|8,1:2|1:2,0:0:0:0:
6,123,38407,2,0,L|22:176,1,40,8|8,1:2|1:2,0:0:0:0:
49,252,38937,6,0,P|111:297|185:276,1,160,4|8,0:2|0:2,0:0:0:0:
256,211,39996,2,0,P|332:232|384:215,1,120,0|0,0:2|0:2,0:0:0:0:
457,182,40878,1,8,0:2:0:0:
378,127,41231,1,0,0:2:0:0:
299,73,41584,1,8,0:2:0:0:
211,111,41937,6,0,P|159:84|96:96,2,120,0|8|8,0:2|0:2|0:2,0:0:0:0:
278,238,43525,2,0,P|309:314|416:323,1,200,8|8,1:2|1:2,0:0:0:0:
489,261,44760,6,0,L|467:132,1,120,4|8,0:2|0:2,0:0:0:0:
449,47,45643,2,0,P|393:33|342:62,1,120,0|0,0:2|0:2,0:0:0:0:
281,137,46525,1,8,0:2:0:0:
342,211,46878,1,0,0:2:0:0:
281,285,47231,1,8,0:2:0:0:
215,355,47584,6,0,P|176:353|132:320,1,80,0|8,0:2|0:2,0:0:0:0:
82,257,48290,2,0,P|66:180|90:137,1,120,0|0,0:2|1:2,0:0:0:0:
160,203,49172,2,0,P|200:276|325:267,1,200,8|8,1:2|1:2,0:0:0:0:
256,199,50407,6,0,L|256:110,2,80,2|0|2,3:2|0:2|3:2,0:0:0:0:
307,280,51466,1,8,3:2:0:0:
362,202,51819,2,0,P|440:202|496:134,1,160,2|2,3:2|3:2,0:0:0:0:
402,112,52878,1,8,3:2:0:0:
313,75,53231,6,0,P|322:36|307:-6,2,80,2|0|2,3:2|0:2|3:2,0:0:0:0:
256,153,54290,1,8,3:2:0:0:
200,75,54643,1,2,3:2:0:0:
27,159,55349,1,2,3:2:0:0:
83,342,56055,6,0,P|43:343|0:316,2,80,2|0|2,3:2|0:2|3:2,0:0:0:0:
167,296,57113,1,8,3:2:0:0:
108,220,57466,2,0,L|78:56,1,160,2|2,3:2|3:2,0:0:0:0:
168,25,58525,1,8,3:2:0:0:
256,63,58878,6,0,L|239:155,2,80,2|0|2,3:2|0:2|3:2,0:0:0:0:
349,38,59937,1,8,3:2:0:0:
428,92,60290,1,2,3:2:0:0:
339,262,60996,1,2,3:2:0:0:
196,133,61702,6,0,L|75:115,2,120,4|8|8,0:2|0:2|0:2,0:0:0:0:
280,87,63113,2,0,L|398:104,1,120,0|8,0:2|0:2,0:0:0:0:
462,234,64172,1,8,0:2:0:0:
396,304,64525,6,0,L|275:322,2,120,4|8|8,0:2|0:2|0:2,0:0:0:0:
462,234,65937,2,0,P|465:157|415:91,1,160,0|0,0:2|0:2,0:0:0:0:
345,29,66996,1,8,0:2:0:0:
256,66,67349,6,0,B|304:146|208:226|256:306,1,240,12|8,0:2|0:2,0:0:0:0:
328,358,68760,2,0,P|367:361|403:346,1,80,0|0,0:2|0:2,0:0:0:0:
471,276,69466,2,0,P|482:238|476:199,1,80,0|0,0:2|1:2,0:0:0:0:
392,152,70172,6,0,P|379:77|309:44,1,160,4|0,1:2|0:2,0:0:0:0:
256,125,71231,1,8,0:2:0:0:
204,44,71584,2,0,P|134:77|121:153,1,160,0|0,1:2|0:2,0:0:0:0:
185,224,72643,1,8,0:2:0:0:
159,316,72996,6,0,P|83:334|39:316,1,120,0|8,1:2|0:2,0:0:0:0:
3,233,73878,1,0,1:2:0:0:
50,97,74407,2,0,P|111:85|173:107,1,120,0|8,1:2|0:2,0:0:0:0:
100,231,75466,1,8,0:2:0:0:
139,319,75819,6,0,P|212:343|281:306,1,160,0|0,1:2|0:2,0:0:0:0:
331,223,76878,1,8,0:2:0:0:
256,163,77231,2,0,P|227:108|239:38,2,120,0|8|8,1:2|0:2|0:2,0:0:0:0:
322,93,78643,6,0,L|377:93,1,40,8|8,1:2|1:2,0:0:0:0:
458,93,79172,2,0,L|458:137,1,40,8|8,1:2|1:2,0:0:0:0:
458,229,79702,2,0,L|458:269,1,40,8|8,1:2|1:2,0:0:0:0:
362,269,80231,2,0,L|322:269,1,40,8|8,1:2|1:2,0:0:0:0:
256,199,80760,1,8,1:2:0:0:
190,269,81113,1,8,1:2:0:0:
122,337,81466,6,0,P|50:348|28:276,1,160,4|0,1:2|0:2,0:0:0:0:
106,221,82525,1,8,0:2:0:0:
27,164,82878,2,0,P|49:94|121:105,1,160,0|0,1:2|0:2,0:0:0:0:
195,169,83937,1,8,0:2:0:0:
267,106,84290,6,0,P|341:80|395:96,1,120,0|8,1:2|0:2,0:0:0:0:
463,136,85172,1,0,1:2:0:0:
429,276,85702,2,0,P|380:287|305:262,1,120,0|8,1:2|0:2,0:0:0:0:
174,235,86760,1,8,0:2:0:0:
135,323,87113,6,0,P|52:316|9:245,1,160,0|0,1:2|0:2,0:0:0:0:
69,181,88172,1,8,0:2:0:0:
120,100,88525,2,0,P|43:90|-7:122,2,120,0|8|8,1:2|0:2|0:2,0:0:0:0:
201,152,89937,6,0,L|241:152,1,40,8|8,1:2|1:2,0:0:0:0:
310,219,90466,2,0,L|310:271,1,40,8|8,1:2|1:2,0:0:0:0:
241,326,90996,2,0,L|201:326,1,40,8|8,1:2|1:2,0:0:0:0:
132,259,91525,2,0,L|132:219,1,40,8|8,1:2|1:2,0:0:0:0:
201,152,92055,2,0,P|295:152|331:131,1,120,8|6,1:2|0:2,0:0:0:0:
248,14,93113,5,10,0:2:0:0:
166,64,93466,2,0,L|85:64,1,80,2|8,0:2|0:2,0:0:0:0:
6,118,94172,2,0,P|-8:197|44:311,1,200,2|2,0:2|0:2,0:0:0:0:
125,345,95407,6,0,L|244:330,1,120,6|10,0:2|0:2,0:0:0:0:
310,260,96290,1,2,0:2:0:0:
244,190,96643,1,8,0:2:0:0:
310,121,96996,2,0,P|395:152|444:250,1,200,2|2,0:2|0:2,0:0:0:0:
415,337,98231,6,0,P|362:361|303:353,1,120,6|10,0:2|0:2,0:0:0:0:
256,270,99113,1,2,0:2:0:0:
160,270,99466,1,8,0:2:0:0:
112,353,99819,2,0,P|39:325|19:207,1,200,2|2,0:2|0:2,0:0:0:0:
90,154,101055,1,6,0:2:0:0:
208,72,101584,5,8,0:2:0:0:
299,104,101937,1,0,0:2:0:0:
237,177,102290,1,8,0:2:0:0:
182,256,102643,2,0,L|182:336,1,80,0|8,0:2|0:2,0:0:0:0:
278,336,103349,2,0,L|326:336,1,40,8|8,0:2|0:2,0:0:0:0:
389,271,103878,6,0,P|434:209|413:135,1,160,4|8,0:2|0:2,0:0:0:0:
346,64,104937,2,0,P|270:43|218:60,1,120,0|0,0:2|0:2,0:0:0:0:
144,92,105819,1,8,0:2:0:0:
73,27,106172,1,0,0:2:0:0:
2,92,106525,1,8,0:2:0:0:
73,157,106878,6,0,P|46:209|58:272,2,120,0|8|8,0:2|0:2|0:2,0:0:0:0:
181,62,108466,2,0,P|253:47|346:135,1,200,8|8,1:2|1:2,0:0:0:0:
355,219,109702,5,6,0:2:0:0:
150,342,110584,2,0,P|96:366|38:355,1,120,8|0,0:2|0:2,0:0:0:0:
84,271,111466,1,8,0:2:0:0:
18,201,111819,1,0,0:2:0:0:
66,118,112172,1,8,0:2:0:0:
2,46,112525,6,0,P|35:25|75:23,1,80,0|8,0:2|0:2,0:0:0:0:
158,71,113231,2,0,P|174:148|150:191,1,120,0|0,0:2|1:2,0:0:0:0:
80,124,114113,2,0,P|24:203|37:300,1,200,8|8,1:2|1:2,0:0:0:0:
106,368,115349,6,0,L|191:368,1,80,2|0,3:2|0:2,0:0:0:0:
255,301,116055,2,0,L|340:301,1,80,2|8,3:2|3:2,0:0:0:0:
426,270,116760,2,0,P|482:224|436:169,1,160,2|2,3:2|3:2,0:0:0:0:
349,214,117819,1,8,3:2:0:0:
264,170,118172,6,0,P|257:133|272:87,1,80,2|0,3:2|0:2,0:0:0:0:
340,29,118878,2,0,P|378:17|417:24,1,80,2|8,3:2|3:2,0:0:0:0:
499,75,119584,1,2,3:2:0:0:
394,235,120290,1,2,3:2:0:0:
256,368,120996,6,0,L|256:283,1,80,2|0,3:2|0:2,0:0:0:0:
175,236,121702,2,0,L|175:151,1,80,2|8,3:2|3:2,0:0:0:0:
256,104,122407,2,0,P|319:140|353:76,1,160,2|2,3:2|3:2,0:0:0:0:
287,8,123466,1,8,3:2:0:0:
194,32,123819,6,0,P|155:20|116:27,1,80,2|0,3:2|0:2,0:0:0:0:
40,86,124525,2,0,P|28:124|35:163,1,80,2|8,3:2|3:2,0:0:0:0:
97,237,125231,2,0,P|85:275|92:314,2,80,2|0|2,3:2|0:2|3:2,0:0:0:0:
183,280,126290,1,8,3:2:0:0:
222,192,126643,6,0,P|289:192|325:134,2,120,4|8|8,0:2|0:2|0:2,0:0:0:0:
136,150,128055,2,0,L|119:32,1,120,0|8,0:2|0:2,0:0:0:0:
3,117,129113,1,8,0:2:0:0:
53,199,129466,6,0,L|70:317,2,120,4|8|8,0:2|0:2|0:2,0:0:0:0:
136,150,130878,2,0,P|214:147|277:194,1,160,0|0,0:2|0:2,0:0:0:0:
331,274,131937,1,8,0:2:0:0:
384,194,132290,6,0,P|476:207|422:106,1,240,4|8,0:2|0:2,0:0:0:0:
347,111,133702,1,0,0:2:0:0:
300,27,134055,1,0,0:2:0:0:
218,77,134407,2,0,P|178:74|141:89,1,80,0|0,0:2|1:2,0:0:0:0:
119,183,135113,6,0,P|132:258|202:291,1,160,4|0,1:2|0:2,0:0:0:0:
256,211,136172,1,8,0:2:0:0:
307,292,136525,2,0,P|377:259|390:183,1,160,0|0,1:2|0:2,0:0:0:0:
359,92,137584,1,8,0:2:0:0:
263,92,137937,6,0,L|143:92,1,120,0|8,1:2|0:2,0:0:0:0:
47,92,138819,1,0,1:2:0:0:
47,236,139349,2,0,P|41:297|58:358,1,120,0|8,1:2|0:2,0:0:0:0:
185,291,140407,1,8,0:2:0:0:
279,312,140760,6,0,P|362:312|413:248,1,160,0|0,1:2|0:2,0:0:0:0:
364,173,141819,1,8,0:2:0:0:
447,124,142172,2,0,P|452:47|424:6,2,120,0|8|8,1:2|0:2|0:2,0:0:0:0:
364,173,143584,6,0,L|312:173,1,40,8|8,1:2|1:2,0:0:0:0:
256,105,144113,2,0,L|256:65,1,40,8|8,1:2|1:2,0:0:0:0:
160,65,144643,2,0,L|108:65,1,40,8|8,1:2|1:2,0:0:0:0:
52,133,145172,2,0,L|52:177,1,40,8|8,1:2|1:2,0:0:0:0:
121,240,145702,1,8,1:2:0:0:
52,307,146055,1,8,1:2:0:0:
121,374,146407,6,0,P|199:353|241:283,1,160,4|0,1:2|0:2,0:0:0:0:
256,194,147466,1,8,0:2:0:0:
272,99,147819,2,0,P|315:33|390:14,1,160,0|0,1:2|0:2,0:0:0:0:
481,47,148878,1,8,0:2:0:0:
512,138,149231,6,0,P|524:195|501:250,1,120,0|8,1:2|0:2,0:0:0:0:
440,324,150113,1,0,1:2:0:0:
336,224,150643,2,0,P|350:175|330:84,1,120,0|8,1:2|0:2,0:0:0:0:
206,158,151702,1,8,0:2:0:0:
169,247,152055,6,0,P|106:291|30:274,1,160,0|0,1:2|0:2,0:0:0:0:
88,197,153113,1,8,0:2:0:0:
30,120,153466,2,0,P|20:43|52:-7,2,120,0|8|8,1:2|0:2|0:2,0:0:0:0:
112,70,154878,6,0,L|152:70,1,40,8|8,1:2|1:2,0:0:0:0:
248,70,155407,2,0,L|288:70,1,40,8|8,1:2|1:2,0:0:0:0:
288,166,155937,2,0,L|288:206,1,40,8|8,1:2|1:2,0:0:0:0:
288,302,156466,2,0,L|288:342,1,40,8|8,1:2|1:2,0:0:0:0:
192,342,156996,2,0,P|116:342|79:306,1,120,8|6,1:2|1:2,0:0:0:0:
204,332,168996,6,0,P|129:355|69:332,2,120,4|4|4,0:2|0:2|0:2,0:0:0:0:
256,251,170407,2,0,B|304:187|208:91|256:11,1,240,4|0,0:2|3:2,0:0:0:0:
336,65,171819,6,0,P|371:46|421:49,2,80,2|0|2,3:2|0:2|0:2,0:0:0:0:
395,141,172878,1,0,0:2:0:0:
488,117,173231,2,0,P|512:193|482:266,1,160,2|2,0:2|0:2,0:0:0:0:
316,360,174643,6,0,P|357:371|397:360,2,80,2|0|2,0:2|0:2|0:2,0:0:0:0:
256,285,175702,1,0,0:2:0:0:
196,360,176055,1,2,0:2:0:0:
62,222,176760,1,2,0:2:0:0:
122,40,177466,6,0,P|163:40|210:7,2,80,2|0|2,3:2|0:2|3:2,0:0:0:0:
27,23,178525,1,0,0:2:0:0:
52,116,178878,2,0,P|1:176|13:266,1,160,2|2,3:2|3:2,0:0:0:0:
160,369,180290,6,0,P|199:384|264:369,1,80,2|0,3:2|0:2,0:0:0:0:
320,333,180996,2,0,P|359:348|424:333,1,80,2|0,3:2|3:2,0:0:0:0:
438,259,181702,1,2,3:2:0:0:
293,133,182407,1,2,3:2:0:0:
451,24,183113,6,0,P|377:1|333:12,2,120,4|8|8,0:2|0:2|0:2,0:0:0:0:
509,101,184525,2,0,L|495:226,1,120,0|8,0:2|0:2,0:0:0:0:
477,363,185584,1,8,0:2:0:0:
385,335,185937,6,0,P|307:346|272:328,2,120,4|8|8,0:2|0:2|0:2,0:0:0:0:
334,252,187349,2,0,P|336:174|289:111,1,160,0|0,0:2|0:2,0:0:0:0:
208,61,188407,1,8,0:2:0:0:
158,143,188760,6,0,L|57:143,1,80,8|8,0:2|0:2,0:2:0:0:
112,232,189466,2,0,L|192:232,1,80,0|8,0:2|0:2,0:2:0:0:
224,323,190172,1,0,1:2:0:0:
32,61,191584,6,0,P|112:52|189:112,1,160,4|0,1:2|0:2,0:0:0:0:
256,39,192643,1,8,0:2:0:0:
335,92,192996,2,0,P|402:51|480:61,1,160,0|0,0:2|0:2,0:0:0:0:
444,249,194407,6,0,P|482:294|491:352,1,120,0|8,0:2|0:2,0:0:0:0:
396,335,195290,1,0,0:2:0:0:
252,335,195819,2,0,P|174:335|136:307,1,120,0|8,0:1|0:2,0:0:0:0:
80,182,196878,1,8,0:2:0:0:
151,117,197231,6,0,L|310:104,1,160,0|0,0:2|0:2,0:0:0:0:
388,47,198290,1,8,0:2:0:0:
473,92,198643,2,0,P|508:158|492:222,2,120,0|8|8,0:2|0:2|0:2,0:0:0:0:
413,167,200055,6,0,L|363:161,1,40,8|8,1:2|1:2,0:0:0:0:
278,149,200584,2,0,L|272:199,1,40,8|8,1:2|1:2,0:0:0:0:
259,284,201113,2,0,L|219:279,1,40,8|8,1:2|1:2,0:0:0:0:
124,265,201643,2,0,L|130:215,1,40,8|8,1:2|1:2,0:0:0:0:
144,130,202172,2,0,L|48:118,1,80,8|8,1:2|1:2,0:0:0:0:
256,192,202702,12,0,204290,0:2:0:0:
166,328,205702,6,0,P|91:315|58:245,1,160,4|0,1:2|0:2,0:0:0:0:
138,192,206760,1,8,0:2:0:0:
57,140,207113,2,0,P|90:70|166:57,1,160,0|0,1:2|0:2,0:0:0:0:
256,90,208172,1,8,0:2:0:0:
346,57,208525,6,0,L|466:57,1,120,0|8,1:2|0:2,0:0:0:0:
428,145,209407,1,0,1:2:0:0:
487,276,209937,2,0,P|413:245|361:268,1,120,0|8,1:2|0:2,0:0:0:0:
298,376,210996,1,8,0:2:0:0:
209,338,211349,6,0,P|128:337|75:274,1,160,0|0,1:2|0:2,0:0:0:0:
112,192,212407,1,8,0:2:0:0:
173,118,212760,2,0,P|206:171|192:241,2,120,0|8|8,1:2|0:2|0:2,0:0:0:0:
88,73,214172,6,0,L|73:120,1,40,8|8,1:2|1:2,0:0:0:0:
23,191,214702,2,0,L|38:238,1,40,8|8,1:2|1:2,0:0:0:0:
126,260,215231,2,0,L|173:275,1,40,8|8,1:2|1:2,0:0:0:0:
244,325,215760,2,0,L|291:310,1,40,8|8,1:2|1:2,0:0:0:0:
374,283,216290,1,8,1:2:0:0:
305,216,216643,1,8,1:2:0:0:
372,147,216996,6,0,P|383:75|311:53,1,160,4|0,1:2|0:2,0:0:0:0:
256,131,218055,1,8,0:2:0:0:
200,53,218407,2,0,P|130:74|141:147,1,160,0|0,1:2|0:2,0:0:0:0:
202,221,219466,1,8,0:2:0:0:
183,315,219819,6,0,P|109:341|55:325,1,120,0|8,1:2|0:2,0:0:0:0:
2,265,220702,1,0,1:2:0:0:
2,121,221231,2,0,P|53:143|126:145,1,120,0|8,1:2|0:2,0:0:0:0:
257,115,222290,1,8,0:2:0:0:
328,50,222643,6,0,P|411:57|454:128,1,160,0|0,1:2|0:2,0:0:0:0:
394,192,223702,1,8,0:2:0:0:
343,273,224055,2,0,P|420:283|470:251,2,120,0|8|8,1:2|0:2|0:2,0:0:0:0:
256,232,225466,6,0,L|256:192,1,40,8|8,1:2|1:2,0:0:0:0:
189,123,225996,2,0,L|137:123,1,40,8|8,1:2|1:2,0:0:0:0:
82,192,226525,2,0,L|82:232,1,40,8|8,1:2|1:2,0:0:0:0:
149,301,227055,2,0,L|189:301,1,40,8|8,1:2|1:2,0:0:0:0:
256,232,227584,2,0,P|332:232|369:268,1,120,8|6,1:2|0:2,0:0:0:0:
470,355,228643,5,10,0:2:0:0:
470,259,228996,2,0,L|470:178,1,80,2|8,0:2|0:2,0:0:0:0:
470,83,229702,2,0,P|393:98|278:16,1,200,2|2,0:2|0:2,0:0:0:0:
203,76,230937,6,0,P|128:56|80:70,1,120,6|10,0:2|0:2,0:0:0:0:
11,122,231819,1,2,0:2:0:0:
77,192,232172,1,8,0:2:0:0:
11,262,232525,2,0,P|44:325|169:325,1,200,2|2,0:2|0:2,0:0:0:0:
256,312,233760,6,0,P|319:355|368:346,1,120,6|10,0:2|0:2,0:0:0:0:
455,343,234643,1,2,0:2:0:0:
510,264,234996,1,8,0:2:0:0:
458,182,235349,2,0,P|471:86|412:9,1,200,2|2,1:2|1:2,0:0:0:0:
281,9,236760,5,8,1:2:0:0:
208,71,237113,1,8,1:2:0:0:
135,9,237466,1,8,1:2:0:0:
62,71,237819,1,8,1:2:0:0:
4,148,238172,2,0,P|8:187|28:221,1,80,8|8,1:2|1:2,0:0:0:0:
125,222,238878,2,0,L|179:222,1,40,8|8,1:2|1:2,0:0:0:0:
256,192,239407,5,4,0:2:0:0:
