osu file format v14

[General]
AudioFilename: Meteor Impact (TV Size).ogg
AudioLeadIn: 0
PreviewTime: 55689
Countdown: 0
SampleSet: None
StackLeniency: 0.7
Mode: 2
LetterboxInBreaks: 0
WidescreenStoryboard: 0

[Editor]
Bookmarks: 5338,10952,22180,33408,47443,55864,67092,75513,82531,88145,92356
DistanceSpacing: 1.6
BeatDivisor: 4
GridSize: 8
TimelineZoom: 2.1

[Metadata]
Title:Meteor Impact (TV Size)
TitleUnicode:Meteor Impact (TV Size)
Artist:Tamura Yukari
ArtistUnicode:Tamura Yukari
Creator:Tyrell
Version:Magic Shenanigans
Source:
Tags:
BeatmapID:2067056
BeatmapSetID:988111

[Difficulty]
HPDrainRate:5
CircleSize:4
OverallDifficulty:9
ApproachRate:9
SliderMultiplier:1.7
SliderTickRate:1

[Events]
//Background and Video events
0,0,"BG.jpg",0,0
//Break Periods
//Storyboard Layer 0 (Background)
//Storyboard Layer 1 (Fail)
//Storyboard Layer 2 (Pass)
//Storyboard Layer 3 (Foreground)
//Storyboard Sound Samples

[TimingPoints]
1128,350.877192982456,4,2,1,70,1,0
10513,-100,4,2,2,60,0,0
10952,-100,4,2,1,70,0,0
32706,-100,4,1,1,50,0,0
33320,-100,4,2,1,70,0,0
37356,-100,4,2,1,20,0,0
37443,-100,4,1,1,40,0,0
38233,-100,4,2,1,70,0,0
47443,-100,4,2,1,70,0,0
47970,-100,4,1,1,40,0,0
48233,-100,4,2,1,70,0,0
49373,-100,4,1,1,40,0,0
49636,-100,4,2,1,70,0,0
50777,-100,4,1,1,40,0,0
51040,-100,4,2,1,70,0,0
52180,-100,4,1,1,40,0,0
52443,-100,4,2,1,70,0,0
53057,-100,4,2,1,70,0,0
55513,-100,4,2,2,50,0,0
55864,-100,4,2,1,75,0,1
63584,-100,4,2,1,75,0,1
63759,-100,4,2,1,5,0,1
64285,-100,4,2,1,75,0,1
66391,-100,4,2,1,70,0,1
66917,-100,4,2,1,75,0,1
72005,-100,4,1,1,55,0,1
72706,-100,4,2,1,75,0,0
73233,-100,4,1,1,40,0,0
73496,-100,4,2,1,75,0,0
75513,-100,4,2,1,75,0,1
79724,-100,4,2,1,75,0,0
81829,-100,4,1,1,35,0,0
82180,-100,4,2,1,75,0,0
87794,-100,4,2,2,50,0,1
87882,-100,4,2,1,75,0,0
92268,-100,4,2,1,5,0,0

[Colours]
Combo1 : 255,23,29
Combo2 : 255,77,188
Combo3 : 47,151,255
Combo4 : 255,232,66

[HitObjects]
384,193,5338,5,0,0:0:0:0:
231,112,5513,2,0,B|146:112|146:112|245:111,1,170
385,334,6040,2,0,L|385:241,1,85
232,202,6391,2,0,L|232:103,1,85
386,56,6742,6,0,L|268:56,1,85
148,154,7092,2,0,L|244:154,1,85
386,303,7443,2,0,L|486:303,1,85
164,227,7794,2,0,L|74:227,2,85
334,337,8320,6,0,B|334:252|334:252|238:252,1,170
95,152,8847,2,0,L|197:152,1,85
334,93,9198,2,0,L|440:93,1,85
257,232,9549,6,0,L|358:232,1,85
181,327,9899,2,0,L|282:327,1,85
95,227,10250,2,0,L|95:125,1,85
368,293,10601,1,0,0:0:0:0:
419,242,10689,1,0,0:0:0:0:
461,180,10777,1,0,0:0:0:0:
461,109,10864,1,0,0:0:0:0:
205,169,10952,6,0,B|119:169|119:169|119:77,1,170
272,317,11478,2,0,L|319:240,1,85
162,156,11829,2,0,L|162:65,1,85
324,237,12180,2,0,L|422:237,2,85
409,134,12706,1,0,0:0:0:0:
111,225,12882,6,0,B|110:140|110:140|197:140,1,170
365,317,13408,2,0,L|468:317,1,85
160,227,13759,6,0,B|160:142|160:142|251:142,1,170
91,317,14285,2,0,L|180:317,1,85
329,239,14636,2,0,L|231:239,1,85
82,135,14987,6,0,L|256:135,1,170
406,138,15513,1,0,0:0:0:0:
133,294,15689,2,0,B|133:234|133:234|253:234,1,170
413,158,16215,2,0,L|413:60,1,85
243,322,16566,6,0,L|281:243,1,85
126,182,16917,2,0,L|170:91,1,85
325,208,17268,2,0,L|233:208,1,85
78,102,17619,2,0,L|186:102,1,85
333,323,17970,6,0,L|239:323,2,85
171,232,18496,2,0,L|122:158,1,85
277,82,18847,1,0,0:0:0:0:
116,322,19022,2,0,L|116:231,1,85
389,178,19373,6,0,L|481:178,2,85
125,95,19899,2,0,L|26:95,2,85
399,299,20426,1,0,0:0:0:0:
315,216,20601,1,0,0:0:0:0:
230,139,20777,1,0,0:0:0:0:
391,71,20952,1,0,0:0:0:0:
229,270,21127,1,0,0:0:0:0:
67,78,21303,1,0,0:0:0:0:
364,337,21478,5,0,0:0:0:0:
415,290,21566,1,0,0:0:0:0:
415,290,21654,1,0,0:0:0:0:
364,337,21742,1,0,0:0:0:0:
111,167,21829,1,0,0:0:0:0:
349,196,22180,6,0,L|349:103,1,85
195,251,22531,2,0,L|101:251,1,85
263,159,22882,1,0,0:0:0:0:
110,78,23057,2,0,L|207:78,1,85
348,289,23408,1,0,0:0:0:0:
179,219,23584,6,0,L|76:219,2,85
341,223,24110,1,0,0:0:0:0:
426,158,24285,1,0,0:0:0:0:
426,77,24461,1,0,0:0:0:0:
273,316,24636,2,0,L|369:316,1,85
205,235,24987,6,0,L|205:144,1,85
367,106,25338,2,0,L|461:106,1,85
299,186,25689,1,0,0:0:0:0:
460,331,25864,2,0,L|351:331,1,85
102,269,26215,5,0,0:0:0:0:
102,186,26391,1,0,0:0:0:0:
186,108,26566,1,0,0:0:0:0:
339,320,26742,2,0,L|249:320,1,85
93,235,27092,2,0,L|189:235,2,85
367,155,27619,1,0,0:0:0:0:
96,316,27794,5,0,0:0:0:0:
96,226,27970,1,0,0:0:0:0:
181,146,28145,1,0,0:0:0:0:
266,76,28320,1,0,0:0:0:0:
112,308,28496,2,0,L|113:214,1,85
276,192,28847,2,0,L|371:192,1,85
191,108,29198,6,0,L|101:108,2,85
353,314,29724,1,0,0:0:0:0:
268,244,29899,1,0,0:0:0:0:
183,166,30075,1,0,0:0:0:0:
336,102,30250,2,0,L|453:102,1,85
148,316,30601,5,0,0:0:0:0:
233,250,30777,1,0,0:0:0:0:
318,195,30952,1,0,0:0:0:0:
318,98,31127,1,0,0:0:0:0:
156,103,31303,2,0,L|241:103,2,85
326,341,31829,6,0,L|236:341,2,85
171,244,32356,2,0,L|68:244,1,85
357,187,32706,1,0,0:0:0:0:
408,130,32794,1,0,0:0:0:0:
459,73,32882,1,0,0:0:0:0:
408,130,32970,1,0,0:0:0:0:
155,100,33057,1,0,0:0:0:0:
377,344,33408,6,0,L|321:263,1,85
167,166,33759,2,0,L|266:166,2,85
329,323,34285,2,0,L|436:323,1,85
261,225,34636,2,0,L|209:154,1,85
373,107,34987,6,0,L|423:34,1,85
251,317,35338,1,0,0:0:0:0:
166,250,35513,1,0,0:0:0:0:
251,175,35689,1,0,0:0:0:0:
336,111,35864,1,0,0:0:0:0:
251,43,36040,1,0,0:0:0:0:
82,333,36215,6,0,L|82:241,1,85
244,159,36566,2,0,L|311:80,1,85
129,248,36917,1,0,0:0:0:0:
290,250,37092,1,0,0:0:0:0:
452,247,37268,1,0,0:0:0:0:
181,155,37443,6,0,L|45:155,1,127.5
267,348,37794,2,0,L|407:348,1,127.5
139,254,38145,2,0,L|41:254,2,85
293,171,38671,2,0,L|415:171,1,85
105,305,39022,5,0,0:0:0:0:
105,215,39198,1,0,0:0:0:0:
190,141,39373,1,0,0:0:0:0:
275,76,39549,1,0,0:0:0:0:
122,338,39724,2,0,L|224:338,1,85
369,265,40075,2,0,L|433:181,1,85
148,170,40426,5,0,0:0:0:0:
250,99,40601,1,0,0:0:0:0:
352,172,40777,1,0,0:0:0:0:
81,321,40952,2,0,B|81:237|81:237|176:237,1,170
321,162,41478,2,0,L|371:89,1,85
215,265,41829,5,0,0:0:0:0:
370,103,42005,2,0,L|270:103,1,85
123,190,42356,2,0,L|211:190,1,85
369,334,42706,2,0,L|464:334,2,85
198,250,43233,5,0,0:0:0:0:
359,172,43408,2,0,L|254:172,2,85
188,90,43935,1,0,0:0:0:0:
357,328,44110,2,0,L|357:237,1,85
100,128,44461,1,0,0:0:0:0:
371,261,44636,6,0,B|455:261|455:261|455:172,1,170
292,177,45163,1,0,0:0:0:0:
207,251,45338,1,0,0:0:0:0:
207,332,45513,1,0,0:0:0:0:
361,261,45689,2,0,L|424:187,1,85
263,118,46040,6,0,L|190:48,1,85
355,342,46391,2,0,L|249:343,2,85
99,220,46917,1,0,0:0:0:0:
353,151,47092,2,0,L|425:83,1,85
155,288,47443,5,0,0:0:0:0:
70,222,47619,1,0,0:0:0:0:
70,134,47794,1,0,0:0:0:0:
154,62,47970,1,0,0:0:0:0:
323,287,48145,1,0,0:0:0:0:
239,208,48320,1,0,0:0:0:0:
154,288,48496,1,0,0:0:0:0:
307,135,48671,1,0,0:0:0:0:
145,74,48847,5,0,0:0:0:0:
145,190,49022,1,0,0:0:0:0:
230,281,49198,1,0,0:0:0:0:
315,285,49373,1,0,0:0:0:0:
162,191,49549,2,0,L|262:191,1,85
400,106,49899,2,0,L|299:106,1,85
145,314,50250,5,0,0:0:0:0:
61,248,50426,1,0,0:0:0:0:
145,180,50601,1,0,0:0:0:0:
230,111,50777,1,0,0:0:0:0:
399,326,50952,1,0,0:0:0:0:
315,253,51127,1,0,0:0:0:0:
230,178,51303,1,0,0:0:0:0:
399,94,51478,1,0,0:0:0:0:
229,318,51654,5,0,0:0:0:0:
331,236,51829,1,0,0:0:0:0:
229,154,52005,1,0,0:0:0:0:
398,73,52180,1,0,0:0:0:0:
228,241,52356,2,0,L|229:135,1,85
76,161,52706,2,0,L|76:53,1,85
349,334,53057,6,0,L|441:334,2,85
87,268,53584,2,0,L|176:268,2,85
386,201,54110,5,0,0:0:0:0:
233,118,54285,1,0,0:0:0:0:
79,227,54461,1,0,0:0:0:0:
350,348,54636,5,0,0:0:0:0:
401,295,54724,1,0,0:0:0:0:
452,234,54812,1,0,0:0:0:0:
452,162,54899,1,0,0:0:0:0:
401,108,54987,1,0,0:0:0:0:
350,57,55075,1,0,0:0:0:0:
137,315,55163,5,0,0:0:0:0:
78,256,55250,1,0,0:0:0:0:
78,175,55338,1,0,0:0:0:0:
138,116,55426,1,0,0:0:0:0:
370,113,55513,1,0,0:0:0:0:
149,248,55864,6,0,L|149:161,1,85
303,102,56215,2,0,L|403:102,1,85
234,316,56566,2,0,L|344:316,1,85
166,228,56917,2,0,L|51:228,1,85
380,160,57268,6,0,L|291:160,2,85
107,284,57794,1,0,0:0:0:0:
107,190,57970,1,0,0:0:0:0:
192,103,58145,1,0,0:0:0:0:
361,303,58320,2,0,L|451:303,1,85
186,229,58671,6,0,L|91:229,1,85
263,152,59022,2,0,L|374:152,1,85
186,72,59373,1,0,0:0:0:0:
348,332,59549,2,0,L|433:332,1,85
170,258,59899,5,0,0:0:0:0:
255,178,60075,1,0,0:0:0:0:
339,254,60250,1,0,0:0:0:0:
169,348,60426,5,0,0:0:0:0:
85,267,60601,1,0,0:0:0:0:
170,200,60777,1,0,0:0:0:0:
85,123,60952,1,0,0:0:0:0:
237,120,61127,2,0,L|126:120,1,85
412,308,61478,5,0,0:0:0:0:
148,238,61654,1,0,0:0:0:0:
148,149,61829,1,0,0:0:0:0:
233,73,62005,1,0,0:0:0:0:
80,338,62180,6,0,L|175:338,1,85
327,247,62531,2,0,L|424:247,1,85
139,178,62882,1,0,0:0:0:0:
139,87,63057,1,0,0:0:0:0:
224,84,63233,1,0,0:0:0:0:
309,83,63408,1,0,0:0:0:0:
53,327,63584,5,0,0:0:0:0:
138,259,63759,1,0,0:0:0:0:
223,197,63935,1,0,0:0:0:0:
138,129,64110,1,0,0:0:0:0:
401,130,64285,6,0,L|401:238,1,85
249,308,64636,2,0,L|249:216,1,85
95,139,64987,1,0,0:0:0:0:
257,136,65163,1,0,0:0:0:0:
418,132,65338,1,0,0:0:0:0:
257,316,65513,5,0,0:0:0:0:
171,247,65689,1,0,0:0:0:0:
256,172,65864,1,0,0:0:0:0:
410,279,66040,2,0,L|461:207,1,85
161,343,66391,5,0,0:0:0:0:
102,273,66478,1,0,0:0:0:0:
102,273,66566,1,0,0:0:0:0:
161,343,66654,1,0,0:0:0:0:
374,182,66742,1,0,0:0:0:0:
137,167,67092,6,0,L|228:167,1,85
384,336,67443,2,0,L|296:336,2,85
213,250,67970,1,0,0:0:0:0:
366,162,68145,2,0,L|465:162,1,85
178,74,68496,6,0,L|90:74,1,85
349,314,68847,1,0,0:0:0:0:
90,245,69022,1,0,0:0:0:0:
90,149,69198,1,0,0:0:0:0:
174,75,69373,1,0,0:0:0:0:
344,75,69549,2,0,L|451:75,1,85
158,309,69899,6,0,L|158:218,1,85
320,141,70250,2,0,L|223:141,1,85
65,232,70601,1,0,0:0:0:0:
338,338,70777,2,0,L|435:338,1,85
152,243,71127,5,0,0:0:0:0:
253,171,71303,1,0,0:0:0:0:
143,99,71478,1,0,0:0:0:0:
305,332,71654,2,0,L|402:332,1,85
117,272,72005,6,0,B|116:216|116:216|216:216,1,127.5
379,217,72356,2,0,B|427:217|427:217|427:130,1,127.5
174,201,72706,6,0,B|88:201|88:201|180:201,1,170
266,121,73233,1,0,0:0:0:0:
105,321,73408,2,0,L|213:320,3,85
352,218,74110,6,0,L|259:218,1,85
429,135,74461,1,0,0:0:0:0:
166,147,74636,2,0,B|81:147|81:147|176:147,1,170
329,285,75163,2,0,L|430:285,1,85
143,195,75513,6,0,L|245:195,1,85
390,133,75864,1,0,0:0:0:0:
228,67,76040,2,0,L|319:67,2,85
57,307,76566,2,0,L|158:307,1,85
406,234,76917,5,0,0:0:0:0:
152,143,77092,2,0,L|56:143,1,85
340,342,77443,2,0,L|410:282,1,85
235,222,77794,2,0,L|234:129,1,85
405,65,78145,1,0,0:0:0:0:
142,298,78320,6,0,L|45:298,1,85
227,222,78671,2,0,L|127:222,1,85
312,148,79022,2,0,L|416:148,1,85
227,281,79373,2,0,L|122:281,1,85
406,283,79724,5,0,0:0:0:0:
406,191,79899,1,0,0:0:0:0:
321,116,80075,1,0,0:0:0:0:
160,279,80250,1,0,0:0:0:0:
160,182,80426,1,0,0:0:0:0:
245,96,80601,1,0,0:0:0:0:
415,330,80777,2,0,L|472:256,1,85
171,272,81127,5,0,0:0:0:0:
426,195,81303,1,0,0:0:0:0:
129,116,81478,1,0,0:0:0:0:
402,65,81654,1,0,0:0:0:0:
131,338,81829,1,0,0:0:0:0:
71,281,81917,1,0,0:0:0:0:
71,281,82005,1,0,0:0:0:0:
131,338,82092,1,0,0:0:0:0:
387,263,82180,1,0,0:0:0:0:
149,198,82531,5,0,0:0:0:0:
302,117,82706,2,0,B|387:117|387:117|288:116,1,170
148,339,83233,2,0,L|148:246,1,85
301,207,83584,2,0,L|301:108,1,85
147,61,83935,6,0,L|265:61,1,85
385,159,84285,2,0,L|289:159,1,85
147,308,84636,2,0,L|47:308,1,85
369,232,84987,2,0,L|459:232,2,85
199,342,85513,6,0,B|199:257|199:257|295:257,1,170
438,157,86040,2,0,L|336:157,1,85
199,98,86391,2,0,L|93:98,1,85
276,237,86742,6,0,L|175:237,1,85
352,332,87092,2,0,L|251:332,1,85
438,232,87443,2,0,L|438:130,1,85
165,298,87794,1,0,0:0:0:0:
114,247,87882,1,0,0:0:0:0:
72,185,87970,1,0,0:0:0:0:
72,114,88057,1,0,0:0:0:0:
329,202,88145,6,0,B|413:202|413:202|324:202,1,170
157,121,88671,2,0,L|254:121,1,85
413,330,89022,2,0,L|338:251,1,85
94,205,89373,2,0,L|180:205,2,85
350,129,89899,5,0,0:0:0:0:
90,304,90075,1,0,0:0:0:0:
251,230,90250,1,0,0:0:0:0:
413,311,90426,1,0,0:0:0:0:
261,132,90601,2,0,L|386:132,1,85
86,273,90952,6,0,B|86:188|86:188|174:188,1,170
435,335,91478,2,0,L|435:244,1,85
145,162,91829,2,0,L|51:162,1,85
384,84,92180,1,0,0:0:0:0:
256,192,92356,12,0,93759,0:0:0:0:
