osu file format v14

[General]
AudioFilename: audio.mp3
AudioLeadIn: 0
PreviewTime: 43097
Countdown: 0
SampleSet: Soft
StackLeniency: 0.7
Mode: 3
LetterboxInBreaks: 0
SpecialStyle: 0
WidescreenStoryboard: 0

[Editor]
Bookmarks: 12430
DistanceSpacing: 0.8
BeatDivisor: 4
GridSize: 4
TimelineZoom: 2.7

[Metadata]
Title:MERRY MERRY MERRY MENU...Ne!
TitleUnicode:MERRY MERRY MERRY MENU...ね!
Artist:Tamura Yukari
ArtistUnicode:田村ゆかり
Creator:[ Juvia ]
Version:Lv.6
Source:
Tags:Japanese jpop J-pop Christmas song carol X-Mas xmas Muu-chan Juvu Critical_Star C_Star C.Star Juvuulee Oyuka Ouka
BeatmapID:1138715
BeatmapSetID:537116

[Difficulty]
HPDrainRate:7
CircleSize:4
OverallDifficulty:7
ApproachRate:5
SliderMultiplier:1.4
SliderTickRate:1

[Events]
//Background and Video events
0,0,"BG.jpg",0,0
//Break Periods
//Storyboard Layer 0 (Background)
//Storyboard Layer 1 (Fail)
//Storyboard Layer 2 (Pass)
//Storyboard Layer 3 (Foreground)
//Storyboard Sound Samples
Sample,31930,0,"LR_Tom Hit.wav",70
Sample,32097,0,"LR_Tom Hit.wav",70

[TimingPoints]
431,333.333333333333,4,2,1,30,1,0
44430,-100,4,2,1,30,0,1
60430,-100,4,2,1,30,0,0

[HitObjects]
64,192,431,5,0,0:0:0:0:
192,192,431,1,2,0:0:0:0:
448,192,597,1,8,0:0:0:0:
320,192,930,1,2,0:0:0:0:
192,192,930,1,0,0:0:0:0:
64,192,1097,1,8,0:0:0:0:
320,192,1430,1,2,0:0:0:0:
448,192,1430,1,0,0:0:0:0:
64,192,1597,1,8,0:0:0:0:
192,192,1930,1,2,0:0:0:0:
320,192,1930,1,0,0:0:0:0:
448,192,2097,1,8,0:0:0:0:
192,192,2430,1,4,0:0:0:0:
64,192,2430,1,2,0:0:0:0:
320,192,3097,1,2,0:0:0:0:
448,192,3097,1,0,0:0:0:0:
64,192,3264,1,8,0:0:0:0:
192,192,3597,1,2,0:0:0:0:
320,192,3597,1,0,0:0:0:0:
448,192,3764,1,8,0:0:0:0:
64,192,4097,1,2,0:0:0:0:
192,192,4097,1,0,0:0:0:0:
448,192,4264,1,8,0:0:0:0:
320,192,4597,1,2,0:0:0:0:
192,192,4597,1,0,0:0:0:0:
64,192,4764,1,8,0:0:0:0:
320,192,5097,1,4,0:0:0:0:
448,192,5097,1,2,0:0:0:0:
192,192,5430,128,0,5764:0:0:0:70:PRAK!.wav
64,192,5764,1,4,0:0:0:0:
448,192,5764,1,2,0:0:0:0:
320,192,5930,1,0,0:0:0:0:
64,192,6097,1,8,0:0:0:0:
448,192,6264,1,0,0:0:0:0:
64,192,6430,1,2,0:0:0:0:
192,192,6597,1,2,0:0:0:0:
448,192,6764,1,8,0:0:0:0:
64,192,6930,1,0,0:0:0:0:
448,192,7097,128,2,7264:0:0:0:0:
320,192,7264,128,0,7430:0:0:0:0:
192,192,7430,128,8,7597:0:0:0:0:
64,192,7764,128,0,8264:0:0:0:0:
448,192,8430,1,2,0:0:0:0:
320,192,8514,1,0,0:0:0:0:
192,192,8597,1,2,0:0:0:0:
64,192,8680,1,0,0:0:0:0:
448,192,8764,128,8,9097:0:0:0:0:
64,192,9097,1,2,0:0:0:0:
192,192,9180,1,0,0:0:0:0:
320,192,9264,1,2,0:0:0:0:
448,192,9347,1,0,0:0:0:0:
64,192,9430,128,8,9764:0:0:0:0:
448,192,9764,128,2,9930:0:0:0:0:
320,192,9930,128,2,10097:0:0:0:0:
192,192,10097,128,10,10264:0:0:0:0:
64,192,10264,128,2,10597:0:0:0:0:
448,192,10430,128,2,10597:0:0:0:0:
192,192,10764,1,8,0:0:0:0:
320,192,10764,1,0,0:0:0:0:
64,192,11097,1,4,0:0:0:0:
448,192,11097,1,2,0:0:0:0:
192,192,11264,1,0,0:0:0:0:
448,192,11430,1,8,0:0:0:0:
320,192,11597,1,0,0:0:0:0:
64,192,11764,1,2,0:0:0:0:
448,192,11930,1,2,0:0:0:0:
192,192,12097,1,8,0:0:0:0:
320,192,12264,1,0,0:0:0:0:
64,192,12430,128,2,12597:0:0:0:0:
192,192,12597,128,0,12764:0:0:0:0:
320,192,12764,128,8,12930:0:0:0:0:
448,192,13097,128,0,13597:0:0:0:0:
64,192,13764,1,2,0:0:0:0:
192,192,13847,1,0,0:0:0:0:
320,192,13930,1,0,0:0:0:0:
448,192,14014,1,0,0:0:0:0:
64,192,14097,128,8,14430:0:0:0:0:
448,192,14430,1,2,0:0:0:0:
320,192,14514,1,0,0:0:0:0:
192,192,14597,1,2,0:0:0:0:
64,192,14680,1,0,0:0:0:0:
448,192,14764,128,8,15097:0:0:0:0:
192,192,15097,128,2,15264:0:0:0:0:
320,192,15264,128,2,15430:0:0:0:0:
64,192,15430,128,8,15597:0:0:0:0:
448,192,15597,128,0,15764:0:0:0:0:
64,192,15764,128,2,16430:0:0:0:0:
192,192,16430,1,4,0:0:0:0:
448,192,16430,1,2,0:0:0:0:
320,192,16764,1,8,0:0:0:0:
64,192,16764,1,0,0:0:0:0:
192,192,17097,1,2,0:0:0:0:
320,192,17430,1,8,0:0:0:0:
448,192,17430,1,0,0:0:0:0:
64,192,17764,1,2,0:0:0:0:
192,192,18097,1,8,0:0:0:0:
448,192,18097,1,0,0:0:0:0:
320,192,18430,1,0,0:0:0:0:
64,192,18764,1,8,0:0:0:0:
448,192,18764,1,0,0:0:0:0:
320,192,19097,1,2,0:0:0:0:
192,192,19430,1,8,0:0:0:0:
64,192,19430,1,0,0:0:0:0:
448,192,19764,1,2,0:0:0:0:
64,192,20097,1,8,0:0:0:0:
320,192,20097,1,0,0:0:0:0:
64,192,20430,1,2,0:0:0:0:
192,192,20430,1,0,0:0:0:0:
192,192,20764,1,8,0:0:0:0:
64,192,20764,1,0,0:0:0:0:
320,192,21097,1,2,0:0:0:0:
448,192,21097,1,0,0:0:0:0:
320,192,21430,1,2,0:0:0:0:
448,192,21430,1,0,0:0:0:0:
192,192,21764,1,2,0:0:0:0:
64,192,21764,1,4,0:0:0:0:
448,192,22097,1,8,0:0:0:0:
320,192,22097,1,0,0:0:0:0:
64,192,22430,1,2,0:0:0:0:
192,192,22764,1,8,0:0:0:0:
448,192,22764,1,0,0:0:0:0:
320,192,23097,1,2,0:0:0:0:
64,192,23430,1,8,0:0:0:0:
448,192,23430,1,0,0:0:0:0:
320,192,23764,1,0,0:0:0:0:
192,192,24097,1,8,0:0:0:0:
64,192,24097,1,0,0:0:0:0:
448,192,24430,1,2,0:0:0:0:
320,192,24764,1,8,0:0:0:0:
64,192,24764,1,0,0:0:0:0:
192,192,25097,1,0,0:0:0:0:
64,192,25430,1,8,0:0:0:0:
448,192,25430,1,0,0:0:0:0:
320,192,25597,128,2,25930:0:0:0:0:
64,192,25930,1,2,0:0:0:0:
448,192,26097,1,8,0:0:0:0:
192,192,26264,1,8,0:0:0:0:
448,192,26430,128,0,27097:0:0:0:0:
320,192,26764,128,0,27097:0:0:0:0:
192,192,27097,1,2,0:0:0:0:
64,192,27097,1,4,0:0:0:0:
448,192,27597,1,2,0:0:0:0:
320,192,27597,1,0,0:0:0:0:
64,192,27930,1,2,0:0:0:0:
192,192,27930,1,0,0:0:0:0:
320,192,28264,1,4,0:0:0:0:
448,192,28264,1,2,0:0:0:0:
64,192,28597,1,2,0:0:0:0:
448,192,28764,1,2,0:0:0:0:
192,192,29097,128,2,29764:0:0:0:0:
320,192,29764,1,4,0:0:0:0:
448,192,29764,1,2,0:0:0:0:
192,192,30264,1,2,0:0:0:0:
64,192,30264,1,0,0:0:0:0:
320,192,30597,1,2,0:0:0:0:
448,192,30597,1,0,0:0:0:0:
64,192,30930,1,4,0:0:0:0:
448,192,30930,1,2,0:0:0:0:
192,192,31264,1,2,0:0:0:0:
448,192,31430,1,2,0:0:0:0:
320,192,31764,128,2,32430:0:0:0:0:
448,192,31930,1,0,0:0:0:0:
64,192,32097,1,0,0:0:0:0:
448,192,32430,1,4,0:0:0:0:
64,192,32430,128,2,32930:0:0:0:0:
320,192,32930,1,2,0:0:0:0:
192,192,33097,128,2,33597:0:0:0:0:
448,192,33430,1,0,0:0:0:0:
320,192,33764,128,2,34264:0:0:0:0:
64,192,34264,1,2,0:0:0:0:
448,192,34430,128,2,34930:0:0:0:0:
192,192,34764,1,0,0:0:0:0:
64,192,35097,128,2,35430:0:0:0:0:
320,192,35597,1,0,0:0:0:0:
192,192,35764,128,2,36097:0:0:0:0:
448,192,36097,128,8,36430:0:0:0:0:
64,192,36097,1,0,0:0:0:0:
64,192,36430,1,4,0:0:0:0:
192,192,36430,1,2,0:0:0:0:
448,192,36597,1,2,0:0:0:0:
64,192,36764,1,8,0:0:0:0:
320,192,36930,1,2,0:0:0:0:
64,192,37264,128,2,37764:0:0:0:0:
448,192,37430,1,0,0:0:0:0:
320,192,37764,1,8,0:0:0:0:
192,192,37764,1,0,0:0:0:0:
64,192,37930,1,8,0:0:0:0:
448,192,37930,1,0,0:0:0:0:
448,192,38264,1,8,0:0:0:0:
64,192,38264,1,0,0:0:0:0:
192,192,38430,1,8,0:0:0:0:
320,192,38430,1,0,0:0:0:0:
448,192,38764,1,8,0:0:0:0:
320,192,38764,1,0,0:0:0:0:
192,192,38930,1,8,0:0:0:0:
64,192,38930,1,0,0:0:0:0:
192,192,39264,1,8,0:0:0:0:
64,192,39264,1,0,0:0:0:0:
320,192,39430,1,8,0:0:0:0:
448,192,39430,1,0,0:0:0:0:
64,192,39764,1,8,0:0:0:0:
448,192,39764,1,0,0:0:0:0:
192,192,40097,1,8,0:0:0:0:
320,192,40097,1,0,0:0:0:0:
448,192,40430,1,4,0:0:0:0:
64,192,40430,1,2,0:0:0:0:
192,192,40764,1,8,0:0:0:0:
448,192,40764,1,0,0:0:0:0:
64,192,40930,1,0,0:0:0:0:
320,192,40930,1,2,0:0:0:0:
192,192,41264,1,6,0:0:0:0:
448,192,41430,1,8,0:0:0:0:
64,192,41430,1,0,0:0:0:0:
320,192,41597,1,2,0:0:0:0:
64,192,41930,1,2,0:0:0:0:
320,192,42097,1,8,0:0:0:0:
448,192,42264,1,8,0:0:0:0:
320,192,42347,1,8,0:0:0:0:
192,192,42430,1,2,0:0:0:0:
64,192,42597,1,8,0:0:0:0:
320,192,42764,1,2,0:0:0:0:
448,192,42930,1,8,0:0:0:0:
64,192,42930,1,0,0:0:0:0:
192,192,43264,1,0,0:0:0:0:
448,192,43597,1,0,0:0:0:0:
64,192,43764,1,0,0:0:0:0:
320,192,43930,1,0,0:0:0:0:
64,192,44097,1,0,0:0:0:70:PRAK!.wav
192,192,44264,1,0,0:0:0:0:
448,192,44430,128,2,44764:0:0:0:0:
320,192,44430,1,4,0:0:0:0:
64,192,44764,1,8,0:0:0:0:
192,192,44764,1,0,0:0:0:0:
320,192,45097,1,2,0:0:0:0:
192,192,45264,1,2,0:0:0:0:
448,192,45430,1,8,0:0:0:0:
64,192,45597,1,0,0:0:0:0:
320,192,45764,1,2,0:0:0:0:
192,192,45764,1,0,0:0:0:0:
64,192,46097,1,8,0:0:0:0:
448,192,46097,1,0,0:0:0:0:
320,192,46430,1,2,0:0:0:0:
64,192,46597,1,2,0:0:0:0:
192,192,46764,1,8,0:0:0:0:
448,192,46930,1,0,0:0:0:0:
320,192,47097,1,2,0:0:0:0:
64,192,47097,1,0,0:0:0:0:
192,192,47430,1,8,0:0:0:0:
448,192,47430,1,0,0:0:0:0:
320,192,47764,1,2,0:0:0:0:
192,192,47930,1,2,0:0:0:0:
448,192,48097,1,8,0:0:0:0:
64,192,48097,1,0,0:0:0:0:
320,192,48264,1,2,0:0:0:0:
192,192,48597,1,2,0:0:0:0:
320,192,48764,1,8,0:0:0:0:
448,192,48764,1,0,0:0:0:0:
64,192,48930,1,2,0:0:0:0:
192,192,49264,1,2,0:0:0:0:
320,192,49430,1,8,0:0:0:0:
448,192,49430,1,0,0:0:0:0:
64,192,49764,1,2,0:0:0:0:
192,192,49764,1,4,0:0:0:0:
320,192,50097,1,8,0:0:0:0:
448,192,50097,1,0,0:0:0:0:
192,192,50264,1,4,0:0:0:0:
64,192,50264,128,2,51097:0:0:0:0:
320,192,51097,1,4,0:0:0:0:
448,192,51097,1,2,0:0:0:0:
192,192,51430,1,8,0:0:0:0:
64,192,51430,1,0,0:0:0:0:
320,192,51597,1,4,0:0:0:0:
448,192,51597,128,2,52430:0:0:0:0:
64,192,52430,128,6,52597:0:0:0:0:
320,192,52597,128,0,52764:0:0:0:0:
192,192,52764,128,8,52930:0:0:0:0:
448,192,52930,128,0,53097:0:0:0:0:
320,192,53097,128,2,53264:0:0:0:0:
64,192,53264,128,2,53430:0:0:0:0:
192,192,53430,128,8,53597:0:0:0:0:
448,192,53597,128,0,53764:0:0:0:0:
320,192,53764,1,2,0:0:0:0:
192,192,53930,1,2,0:0:0:0:
64,192,54097,1,8,0:0:0:0:
448,192,54097,1,0,0:0:0:0:
320,192,54430,1,2,0:0:0:0:
448,192,54764,1,2,0:0:0:0:
320,192,54847,1,0,0:0:0:0:
64,192,54930,1,0,0:0:0:0:
192,192,55014,1,0,0:0:0:0:
320,192,55097,1,4,0:0:0:0:
448,192,55097,1,2,0:0:0:0:
64,192,55430,1,8,0:0:0:0:
448,192,55430,1,0,0:0:0:0:
192,192,55764,1,2,0:0:0:0:
448,192,55930,1,2,0:0:0:0:
320,192,56097,1,8,0:0:0:0:
64,192,56264,1,0,0:0:0:0:
448,192,56430,1,2,0:0:0:0:
192,192,56430,1,0,0:0:0:0:
448,192,56764,1,8,0:0:0:0:
64,192,56764,1,0,0:0:0:0:
320,192,57097,1,2,0:0:0:0:
64,192,57264,1,2,0:0:0:0:
192,192,57430,1,8,0:0:0:0:
448,192,57597,1,0,0:0:0:0:
64,192,57764,1,2,0:0:0:0:
320,192,57764,1,0,0:0:0:0:
448,192,58097,1,8,0:0:0:0:
64,192,58097,1,0,0:0:0:0:
320,192,58430,1,2,0:0:0:0:
64,192,58597,1,2,0:0:0:0:
448,192,58764,1,8,0:0:0:0:
192,192,58764,1,0,0:0:0:0:
320,192,58930,1,2,0:0:0:0:
192,192,59264,1,2,0:0:0:0:
64,192,59430,1,8,0:0:0:0:
448,192,59430,1,0,0:0:0:0:
320,192,59597,1,2,0:0:0:0:
192,192,59930,1,2,0:0:0:0:
320,192,60097,1,8,0:0:0:0:
448,192,60097,1,0,0:0:0:0:
448,192,60430,1,4,0:0:0:0:
64,192,60430,1,10,0:0:0:0:
192,192,60764,1,8,0:0:0:0:
320,192,60764,1,2,0:0:0:0:
64,192,61097,1,2,0:0:0:0:
448,192,61097,1,8,0:0:0:0:
192,192,61430,1,2,0:0:0:0:
320,192,61430,1,8,0:0:0:0:
448,192,61764,1,8,0:0:0:0:
64,192,61764,1,2,0:0:0:0:
320,192,62097,1,8,0:0:0:0:
192,192,62097,1,2,0:0:0:0:
64,192,62430,1,8,0:0:0:0:
448,192,62430,1,2,0:0:0:0:
320,192,62764,1,8,0:0:0:0:
192,192,62764,1,2,0:0:0:0:
320,192,63097,1,10,0:0:0:0:
448,192,63097,1,4,0:0:0:0:
192,192,63430,1,8,0:0:0:0:
64,192,63430,1,2,0:0:0:0:
320,192,63764,1,2,0:0:0:0:
448,192,63764,1,8,0:0:0:0:
64,192,64097,1,2,0:0:0:0:
192,192,64097,1,8,0:0:0:0:
320,192,64430,1,2,0:0:0:0:
448,192,64430,1,8,0:0:0:0:
192,192,64764,1,8,0:0:0:0:
64,192,64764,1,2,0:0:0:0:
448,192,64930,1,8,0:0:0:0:
192,192,65097,1,10,0:0:0:0:
320,192,65264,1,8,0:0:0:0:
64,192,65430,1,10,0:0:0:0:
192,192,65597,1,8,0:0:0:0:
320,192,65764,1,2,0:0:0:0:
448,192,65764,1,8,0:0:0:0:
64,192,65930,1,0,0:0:0:0:
192,192,66014,1,0,0:0:0:0:
320,192,66097,1,0,0:0:0:0:
192,192,66264,1,8,0:0:0:0:
64,192,66264,1,2,0:0:0:0:
448,192,66430,1,0,0:0:0:0:
320,192,66514,1,0,0:0:0:0:
192,192,66597,1,0,0:0:0:0:
320,192,66930,1,8,0:0:0:0:
448,192,66930,1,2,0:0:0:0:
192,192,67264,1,8,0:0:0:0:
64,192,67264,1,2,0:0:0:0:
320,192,67430,1,2,0:0:0:0:
448,192,67430,1,8,0:0:0:0:
64,192,67597,128,0,68430:0:0:0:0:
192,192,68430,1,2,0:0:0:0:
448,192,68430,1,4,0:0:0:0:
320,192,68597,1,8,0:0:0:0:
64,192,68930,1,8,0:0:0:0:
448,192,68930,1,0,0:0:0:0:
192,192,69097,1,2,0:0:0:0:
448,192,69430,1,2,0:0:0:0:
320,192,69430,1,0,0:0:0:0:
64,192,69597,1,8,0:0:0:0:
192,192,69930,1,8,0:0:0:0:
320,192,69930,1,0,0:0:0:0:
448,192,70097,1,2,0:0:0:0:
192,192,70430,1,2,0:0:0:0:
64,192,70430,1,0,0:0:0:0:
320,192,71097,1,4,0:0:0:0:
448,192,71097,1,2,0:0:0:0:
64,192,71264,1,8,0:0:0:0:
192,192,71597,1,8,0:0:0:0:
320,192,71597,1,0,0:0:0:0:
448,192,71764,1,2,0:0:0:0:
64,192,72097,1,2,0:0:0:0:
192,192,72097,1,0,0:0:0:0:
448,192,72264,1,8,0:0:0:0:
320,192,72597,1,8,0:0:0:0:
192,192,72597,1,0,0:0:0:0:
64,192,72764,1,2,0:0:0:0:
448,192,73097,1,0,0:0:0:0:
320,192,73097,1,2,0:0:0:0:
64,192,73764,1,2,0:0:0:0:
192,192,73764,1,4,0:0:0:0:
448,192,73930,1,8,0:0:0:0:
320,192,74264,1,8,0:0:0:0:
192,192,74264,1,0,0:0:0:0:
64,192,74430,1,2,0:0:0:0:
448,192,74764,1,2,0:0:0:0:
320,192,74764,1,0,0:0:0:0:
64,192,74930,1,8,0:0:0:0:
192,192,75264,1,8,0:0:0:0:
320,192,75264,1,0,0:0:0:0:
448,192,75430,1,2,0:0:0:0:
192,192,75764,1,2,0:0:0:0:
64,192,75764,1,0,0:0:0:0:
320,192,76430,1,2,0:0:0:0:
448,192,76430,1,0,0:0:0:0:
64,192,76597,1,8,0:0:0:0:
320,192,76930,1,8,0:0:0:0:
192,192,76930,1,0,0:0:0:0:
64,192,77097,1,2,0:0:0:0:
448,192,77430,1,2,0:0:0:0:
320,192,77430,1,0,0:0:0:0:
64,192,77597,1,8,0:0:0:0:
192,192,77930,1,8,0:0:0:0:
320,192,77930,1,0,0:0:0:0:
448,192,78097,1,2,0:0:0:0:
192,192,78430,1,4,0:0:0:0:
64,192,78430,1,2,0:0:0:0:
