osu file format v14

[General]
AudioFilename: audio.mp3
AudioLeadIn: 0
PreviewTime: 43180
Countdown: 0
SampleSet: Soft
StackLeniency: 0.7
Mode: 2
LetterboxInBreaks: 0
WidescreenStoryboard: 1

[Editor]
DistanceSpacing: 0.9
BeatDivisor: 4
GridSize: 32
TimelineZoom: 2.1

[Metadata]
Title:MERRY MERRY MERRY MENU... ne! (Cut Ver.)
TitleUnicode:MERRY MERRY MERRY MENU…ね! (Cut Ver.)
Artist:Tamura Yukari
ArtistUnicode:田村ゆかり
Creator:-Joakh
Version:Salad
Source:
Tags:KICS-1732 KICS-91732 春待ちソレイユ KIBM-358~360 KIXM-90~91 田村ゆかり LOVE ♡ LIVE *Fall in Love* 畑亜貴 小松一也 田村由香里 carol cute japanese pop jpop j-pop christmas song female vocalist Benita Benny- BennyBananas
BeatmapID:2742749
BeatmapSetID:1324064

[Difficulty]
HPDrainRate:4
CircleSize:3
OverallDifficulty:7
ApproachRate:7
SliderMultiplier:1.5
SliderTickRate:1

[Events]
//Background and Video events
0,0,"BG.jpg",0,0
//Break Periods
//Storyboard Layer 0 (Background)
//Storyboard Layer 1 (Fail)
//Storyboard Layer 2 (Pass)
//Storyboard Layer 3 (Foreground)
//Storyboard Layer 4 (Overlay)
//Storyboard Sound Samples

[TimingPoints]
431,333.333333333333,4,2,1,70,1,0
16430,-100,4,2,1,60,0,0
27097,-100,4,2,1,65,0,0
32430,-100,4,2,1,55,0,0
44430,-100,4,2,1,70,0,1
68430,-100,4,2,1,70,0,0

[Colours]
Combo1 : 146,154,235
Combo2 : 249,243,134
Combo3 : 250,99,78
Combo4 : 182,101,86

[HitObjects]
182,242,431,6,0,P|175:205|178:167,1,75,14|10,0:0|0:0,0:0:0:0:
342,165,930,2,0,P|350:128|339:91,1,75,10|10,0:0|0:0,0:0:0:0:
175,86,1430,6,0,P|165:51|174:15,1,75,10|10,0:0|0:0,0:0:0:0:
340,42,1930,2,0,L|422:38,1,75,10|10,0:0|0:0,0:0:0:0:
130,168,2430,1,6,0:0:0:0:
354,176,3097,6,0,P|365:212|359:249,1,75,10|10,0:0|0:0,0:0:0:0:
194,261,3597,2,0,L|110:269,1,75,10|10,0:0|0:0,0:0:0:0:
285,151,4097,6,0,L|375:152,1,75,10|10,0:0|0:0,0:0:0:0:
195,115,4597,2,0,P|188:79|187:41,1,75,10|10,0:0|0:0,0:0:0:0:
474,46,5097,1,6,0:0:0:0:
474,148,5430,1,8,0:0:0:0:
186,143,5764,6,0,P|113:150|71:209,1,150,4|8,3:0|0:0,0:0:0:0:
169,260,6264,1,0,0:0:0:0:
267,261,6430,2,0,P|244:191|176:167,1,150,0|8,3:0|0:0,0:0:0:0:
79,167,6930,1,0,0:0:0:0:
248,106,7097,6,0,L|322:105,2,75,0|0|8,3:0|3:0|0:0,0:0:0:0:
87,107,7763,2,0,P|92:210|195:214,1,225,0|0,3:0|0:0,0:0:0:0:
291,194,8430,6,0,L|291:119,1,75,0|0,3:0|3:0,0:0:0:0:
198,113,8764,2,0,P|147:71|194:24,1,150,8|0,0:0|3:0,0:0:0:0:
293,29,9264,1,0,3:0:0:0:
200,26,9430,1,8,0:0:0:0:
471,142,9764,6,0,L|471:216,1,75,0|0,3:0|3:0,0:0:0:0:
374,216,10097,2,0,L|287:213,1,75,8|0,0:0|0:0,0:0:0:0:
125,144,10430,2,0,P|101:209|163:239,1,150,8|8,0:0|0:0,0:0:0:0:
341,238,11097,6,0,P|271:212|196:214,1,150,4|8,3:0|0:0,0:0:0:0:
204,160,11597,1,0,0:0:0:0:
311,146,11764,2,0,L|385:137,2,75,0|0|8,3:0|3:0|0:0,0:0:0:0:
136,134,12430,6,0,L|135:208,1,75,0|0,3:0|3:0,0:0:0:0:
229,201,12764,2,0,L|229:276,1,75,8|0,0:0|0:0,0:0:0:0:
131,262,13097,2,0,L|280:259,1,150,0|8,3:0|0:0,0:0:0:0:
140,160,13764,6,0,L|65:159,1,75,0|0,3:0|3:0,0:0:0:0:
162,96,14097,2,0,P|230:113|237:183,1,150,8|0,0:0|3:0,0:0:0:0:
142,172,14597,1,0,3:0:0:0:
58,168,14764,1,8,0:0:0:0:
348,199,15097,6,0,L|348:274,1,75,8|0,0:0|3:0,0:0:0:0:
251,264,15430,2,0,L|251:338,1,75,8|0,0:0|3:0,0:0:0:0:
351,329,15765,2,0,P|416:251|341:183,1,225,8|0,0:0|0:0,0:0:0:0:
173,168,16430,6,0,L|173:243,1,75,6|0,3:0|3:0,0:0:0:0:
272,246,16764,2,0,L|272:320,1,75,10|2,0:0|0:0,0:0:0:0:
170,321,17097,2,0,L|95:320,2,75,2|0|8,3:0|3:0|0:0,0:0:0:0:
336,265,17764,6,0,L|335:190,1,75,2|2,3:0|3:0,0:0:0:0:
235,193,18097,2,0,L|160:194,1,75,10|2,0:0|0:0,0:0:0:0:
256,136,18430,2,0,L|330:135,2,75,2|0|8,3:0|3:0|0:0,0:0:0:0:
98,182,19097,6,0,L|172:175,1,75,2|0,3:0|3:0,0:0:0:0:
266,173,19430,2,0,L|266:98,1,75,10|2,0:0|0:0,0:0:0:0:
173,98,19764,2,0,L|98:101,2,75,2|2|10,3:0|3:0|0:0,0:0:0:0:
457,86,20430,6,0,L|357:87,1,75,14|0,0:0|0:0,0:0:0:0:
300,100,20764,2,0,L|308:177,1,75,14|8,0:0|0:0,0:0:0:0:
401,180,21097,1,6,0:0:0:0:
464,187,21263,1,0,0:0:0:0:
464,187,21430,1,4,0:0:0:0:
401,180,21597,1,0,0:0:0:0:
225,174,21764,6,0,L|146:174,1,75,6|2,3:0|3:0,0:0:0:0:
250,166,22097,2,0,L|250:91,1,75,10|2,0:0|0:0,0:0:0:0:
160,101,22430,1,2,0:0:0:0:
192,39,22597,1,0,0:0:0:0:
255,34,22764,1,8,0:0:0:0:
411,119,23097,6,0,P|423:153|409:188,1,75,2|2,3:0|3:0,0:0:0:0:
306,190,23430,2,0,L|231:190,1,75,10|2,0:0|0:0,0:0:0:0:
327,101,23764,2,0,L|402:101,2,75,2|0|8,3:0|3:0|0:0,0:0:0:0:
170,112,24430,5,2,3:0:0:0:
88,114,24597,2,0,L|80:188,1,75,2|8,3:0|0:0,0:0:0:0:
178,195,24930,2,0,P|249:175|324:174,1,150,2|2,3:0|3:0,0:0:0:0:
293,77,25430,1,8,0:0:0:0:
130,70,25597,6,0,P|83:121|127:173,1,150,2|0,0:0|0:0,0:0:0:0:
207,172,26097,1,8,0:0:0:0:
293,168,26264,1,0,0:0:0:0:
386,172,26430,2,0,P|430:223|379:269,1,150,0|10,0:0|0:3,0:0:0:0:
281,265,26930,1,10,0:3:0:0:
93,232,27097,5,6,0:0:0:0:
245,212,27430,2,0,L|245:137,1,75,2|2,0:0|0:0,0:0:0:0:
95,106,27930,1,2,0:0:0:0:
396,79,28264,5,6,0:0:0:0:
223,136,28597,2,0,L|148:136,1,75,2|10,0:0|0:0,0:0:0:0:
303,217,29097,2,0,P|354:172|308:121,1,150,2|8,0:0|0:0,0:0:0:0:
38,108,29764,5,6,0:0:0:0:
209,112,30097,2,0,L|283:109,1,75,2|2,0:0|0:0,0:0:0:0:
473,99,30597,1,2,0:0:0:0:
188,72,30930,5,6,0:0:0:0:
372,75,31264,2,0,L|372:149,1,75,2|10,0:0|0:0,0:0:0:0:
276,157,31597,1,2,0:0:0:0:
185,159,31764,2,0,L|259:158,1,75,2|8,0:0|0:0,0:0:0:0:
366,157,32097,1,8,0:0:0:0:
82,247,32430,6,0,P|35:201|90:163,1,150,6|2,0:0|0:0,0:0:0:0:
274,143,33097,2,0,P|322:94|277:43,1,150,2|8,3:0|0:0,0:0:0:0:
102,51,33764,6,0,L|251:44,1,150,2|2,3:0|0:0,0:0:0:0:
431,236,34430,2,0,P|360:214|286:214,1,150,2|8,3:0|0:0,0:0:0:0:
100,217,35097,6,0,P|62:158|107:104,1,150,0|2,3:0|0:0,0:0:0:0:
271,95,35764,1,2,3:0:0:0:
120,88,36097,1,10,0:0:0:0:
388,261,36430,6,0,L|390:186,1,75,6|2,3:0|3:0,0:0:0:0:
210,164,36930,2,0,P|219:95|288:78,1,150,2|8,3:0|0:0,0:0:0:0:
361,92,37430,1,0,3:0:0:0:
93,118,37764,6,0,L|76:192,1,75,14|10,0:0|0:0,0:0:0:0:
281,222,38264,2,0,L|355:231,1,75,14|10,0:0|0:0,0:0:0:0:
179,99,38764,6,0,L|111:130,1,75,14|10,0:0|0:0,0:0:0:0:
301,145,39264,2,0,L|325:215,1,75,14|10,0:0|0:0,0:0:0:0:
172,258,39764,2,0,L|322:258,1,150,10|10,0:0|0:0,0:0:0:0:
53,193,40430,6,0,P|13:138|63:91,1,150,6|10,0:0|0:0,0:0:0:0:
166,90,40930,1,2,3:0:0:0:
332,93,41264,1,2,3:0:0:0:
51,164,41597,5,6,3:0:0:0:
256,192,41930,12,12,42930,0:0:0:0:
363,230,44430,6,0,P|413:186|368:137,1,150,6|8,3:0|0:0,0:0:0:0:
106,162,45097,6,0,L|107:87,1,75,2|2,3:0|3:0,0:0:0:0:
209,85,45430,2,0,L|291:83,1,75,10|2,0:0|0:0,0:0:0:0:
110,20,45764,2,0,P|46:52|32:123,1,150,2|8,3:0|0:0,0:0:0:0:
298,170,46430,6,0,L|372:171,1,75,2|2,3:0|3:0,0:0:0:0:
284,114,46764,2,0,L|209:113,1,75,10|2,0:0|0:0,0:0:0:0:
381,38,47097,2,0,P|439:73|403:130,1,150,2|10,3:0|0:0,0:0:0:0:
310,149,47597,1,2,0:0:0:0:
205,150,47764,6,0,L|200:224,1,75,2|2,3:0|3:0,0:0:0:0:
306,231,48097,1,10,0:0:0:0:
199,224,48264,2,0,P|125:217|75:164,2,150,2|2|2,3:0|3:0|3:0,0:0:0:0:
391,187,49264,2,0,L|465:185,1,75,0|8,3:0|0:0,0:0:0:0:
180,94,49764,6,0,L|105:87,2,75,6|2|10,3:0|0:0|0:0,0:0:0:0:
287,107,50264,2,0,P|281:177|214:201,1,150,6|0,3:0|0:0,0:0:0:0:
110,180,50764,1,8,0:0:0:0:
394,278,51097,6,0,L|468:278,2,75,6|2|10,3:0|0:0|0:0,0:0:0:0:
294,273,51597,2,0,P|248:224|301:182,1,150,6|0,3:0|0:0,0:0:0:0:
386,183,52097,1,8,0:0:0:0:
89,100,52430,6,0,L|23:63,2,75,6|2|10,3:0|3:0|0:0,0:0:0:0:
274,96,53097,2,0,L|339:58,2,75,2|2|10,3:0|3:0|0:0,0:0:0:0:
147,89,53765,2,0,P|58:155|37:263,2,225,2|2|10,3:0|0:0|0:0,0:0:0:0:
417,177,55097,6,0,P|353:141|279:129,1,150,6|8,3:0|0:0,0:0:0:0:
398,234,55764,2,0,L|395:308,1,75,2|2,3:0|3:0,0:0:0:0:
290,308,56097,2,0,L|215:300,1,75,10|2,0:0|0:0,0:0:0:0:
393,253,56430,6,0,P|377:183|309:160,1,150,2|8,3:0|0:0,0:0:0:0:
39,166,57097,2,0,L|40:91,1,75,2|2,3:0|3:0,0:0:0:0:
141,165,57430,2,0,L|229:160,1,75,10|2,0:0|0:0,0:0:0:0:
34,241,57764,6,0,P|46:312|112:340,1,150,2|10,3:0|0:0,0:0:0:0:
363,274,58430,2,0,L|454:274,2,75,2|2|0,3:0|3:0|0:0,0:0:0:0:
188,185,58930,6,0,P|259:137|329:117,2,150,2|2|2,3:0|3:0|0:0,0:0:0:0:
458,237,60097,1,10,0:0:0:0:
173,298,60430,6,0,P|180:228|248:206,1,150,14|8,0:0|0:0,0:0:0:0:
403,215,61097,2,0,P|338:180|264:179,1,150,8|8,0:0|0:0,0:0:0:0:
104,173,61764,6,0,P|95:98|102:24,1,150,10|10,0:0|0:0,0:0:0:0:
272,52,62430,2,0,L|421:51,1,150,8|10,0:0|0:0,0:0:0:0:
143,171,63097,6,0,P|69:167|19:114,2,150,6|8|8,0:0|0:0|0:0,0:0:0:0:
308,189,64097,1,10,0:0:0:0:
128,190,64430,2,0,L|53:189,2,75,10|0|10,0:0|0:0|0:0,0:0:0:0:
221,183,64930,2,0,P|204:114|135:92,1,150,2|0,0:0|0:0,0:0:0:0:
39,110,65430,1,8,0:0:0:0:
290,184,65764,6,0,L|364:186,2,75,6|10|4,0:0|3:0|3:0,0:0:0:0:
185,179,66264,1,6,0:0:0:0:
355,148,66597,2,0,P|367:114|358:78,1,75,10|0,3:0|0:0,0:0:0:0:
175,65,66930,6,0,P|247:46|321:45,1,150,6|2,0:0|0:0,0:0:0:0:
298,162,67430,2,0,P|188:224|292:295,1,300,6|2,0:0|3:0,0:0:0:0:
33,309,68430,6,0,L|33:234,1,75,6|10,0:0|0:0,0:0:0:0:
218,230,68930,2,0,L|292:227,1,75,2|10,0:0|0:0,0:0:0:0:
132,111,69430,6,0,L|132:36,1,75,2|10,0:0|0:0,0:0:0:0:
299,64,69930,1,2,0:0:0:0:
377,59,70097,2,0,P|448:72|473:139,2,150,10|2|0,0:0|0:0|0:3,0:0:0:0:
106,169,71097,6,0,L|31:161,1,75,6|10,0:0|0:0,0:0:0:0:
223,200,71597,2,0,L|219:274,1,75,2|10,0:0|0:0,0:0:0:0:
52,272,72097,6,0,L|126:262,1,75,2|10,0:0|0:0,0:0:0:0:
312,202,72597,1,2,0:0:0:0:
230,196,72764,2,0,P|157:186|109:130,2,150,14|6|0,0:0|0:0|3:0,0:0:0:0:
472,190,73764,6,0,L|472:265,1,75,6|10,0:0|0:0,0:0:0:0:
284,291,74264,2,0,L|209:286,1,75,2|10,0:0|0:0,0:0:0:0:
386,201,74764,6,0,L|460:199,1,75,2|10,0:0|0:0,0:0:0:0:
248,175,75264,1,2,0:0:0:0:
175,165,75430,2,0,P|118:211|122:283,2,150,10|2|0,0:0|0:0|3:0,0:0:0:0:
457,179,76430,6,0,L|440:259,1,75,6|10,0:0|0:0,0:0:0:0:
255,103,76930,2,0,L|180:102,1,75,2|10,0:0|0:0,0:0:0:0:
350,234,77430,6,0,L|354:308,1,75,2|10,0:0|0:0,0:0:0:0:
163,254,77930,2,0,L|154:328,1,75,2|10,0:0|0:0,0:0:0:0:
475,340,78430,1,14,0:0:0:0:
