osu file format v14

[General]
AudioFilename: audio.mp3
AudioLeadIn: 0
PreviewTime: 43180
Countdown: 0
SampleSet: Soft
StackLeniency: 0.7
Mode: 2
LetterboxInBreaks: 0
WidescreenStoryboard: 1

[Editor]
DistanceSpacing: 0.8
BeatDivisor: 4
GridSize: 32
TimelineZoom: 2.799999

[Metadata]
Title:MERRY MERRY MERRY MENU... ne! (Cut Ver.)
TitleUnicode:MERRY MERRY MERRY MENU…ね! (Cut Ver.)
Artist:Tamura Yukari
ArtistUnicode:田村ゆかり
Creator:-Joakh
Version:Rain
Source:
Tags:KICS-1732 KICS-91732 春待ちソレイユ KIBM-358~360 KIXM-90~91 田村ゆかり LOVE ♡ LIVE *Fall in Love* 畑亜貴 小松一也 田村由香里 carol cute japanese pop jpop j-pop christmas song female vocalist Benita Benny- BennyBananas
BeatmapID:2748196
BeatmapSetID:1324064

[Difficulty]
HPDrainRate:6
CircleSize:4
OverallDifficulty:9
ApproachRate:9
SliderMultiplier:1.9
SliderTickRate:2

[Events]
//Background and Video events
0,0,"BG.jpg",0,0
//Break Periods
//Storyboard Layer 0 (Background)
//Storyboard Layer 1 (Fail)
//Storyboard Layer 2 (Pass)
//Storyboard Layer 3 (Foreground)
//Storyboard Layer 4 (Overlay)
//Storyboard Sound Samples

[TimingPoints]
431,333.333333333333,4,2,1,70,1,0
16430,-90.9090909090909,4,2,1,60,0,0
27097,-90.9090909090909,4,2,1,65,0,0
32430,-100,4,2,1,55,0,0
44430,-90.9090909090909,4,2,1,70,0,1
68430,-100,4,2,1,70,0,0

[Colours]
Combo1 : 146,154,235
Combo2 : 249,243,134
Combo3 : 250,99,78
Combo4 : 182,101,86

[HitObjects]
134,280,431,6,0,P|118:236|131:191,1,95,14|10,0:0|0:0,0:0:0:0:
390,164,930,1,10,0:0:0:0:
121,141,1097,1,10,0:0:0:0:
395,199,1430,6,0,P|406:245|396:291,1,95,10|10,0:0|0:0,0:0:0:0:
139,291,1930,1,10,0:0:0:0:
389,288,2097,2,0,P|434:243|384:203,1,142.5,10|0,0:0|0:0,0:0:0:0:
211,173,2430,1,6,0:0:0:0:
390,145,3097,5,10,0:0:0:0:
139,126,3264,1,10,0:0:0:0:
397,193,3597,2,0,P|408:240|398:286,1,95,10|10,0:0|0:0,0:0:0:0:
130,296,4097,6,0,P|113:251|130:204,1,95,10|10,0:0|0:0,0:0:0:0:
375,185,4597,1,10,0:0:0:0:
132,178,4764,2,0,P|88:129|137:89,1,142.5,10|0,0:0|0:0,0:0:0:0:
309,93,5097,1,6,0:0:0:0:
80,77,5430,1,8,0:0:0:0:
471,194,5764,6,0,P|484:240|472:285,1,95,4|0,3:0|3:0,0:0:0:0:
330,288,6097,2,0,L|219:275,1,95,8|0,0:0|0:0,0:0:0:0:
462,236,6430,1,0,3:0:0:0:
462,144,6596,1,0,3:0:0:0:
391,86,6763,1,8,0:0:0:0:
301,106,6929,1,0,0:0:0:0:
174,124,7097,5,0,3:0:0:0:
307,118,7264,1,0,3:0:0:0:
84,72,7430,2,0,P|27:131|101:173,1,190,8|0,0:0|3:0,0:0:0:0:
231,163,7930,1,0,3:0:0:0:
96,157,8097,2,0,P|80:202|94:246,1,95,8|0,0:0|0:0,0:0:0:0:
360,262,8430,5,0,3:0:0:0:
405,251,8513,1,0,0:0:0:0:
429,212,8596,1,0,3:0:0:0:
418,167,8680,1,0,0:0:0:0:
245,173,8764,2,0,L|138:167,1,95,8|0,0:0|0:0,0:0:0:0:
418,167,9097,5,0,3:0:0:0:
429,212,9181,1,0,0:0:0:0:
405,251,9264,1,0,3:0:0:0:
360,262,9347,1,0,0:0:0:0:
192,246,9430,2,0,P|177:201|182:154,1,95,8|0,0:0|0:0,0:0:0:0:
316,159,9764,5,0,3:0:0:0:
183,151,9930,1,0,3:0:0:0:
422,192,10097,2,0,P|433:239|426:285,1,95,8|0,0:0|0:0,0:0:0:0:
195,289,10430,2,0,P|126:279|114:194,1,142.5,8|0,0:0|0:0,0:0:0:0:
301,162,10764,2,0,L|409:153,1,95,8|0,0:0|0:0,0:0:0:0:
121,152,11097,6,0,P|105:196|122:243,1,95,4|0,3:0|3:0,0:0:0:0:
254,238,11430,2,0,L|147:234,1,95,8|0,0:0|0:0,0:0:0:0:
404,141,11764,1,0,3:0:0:0:
477,195,11930,1,0,3:0:0:0:
462,284,12097,1,8,0:0:0:0:
376,310,12263,1,0,0:0:0:0:
233,317,12430,5,0,3:0:0:0:
366,315,12597,1,0,3:0:0:0:
102,276,12764,2,0,P|130:190|219:175,1,190,8|0,0:0|3:0,0:0:0:0:
353,224,13264,1,0,3:0:0:0:
220,221,13430,2,0,L|117:205,1,95,8|0,0:0|0:0,0:0:0:0:
388,181,13764,5,0,3:0:0:0:
440,154,13847,1,0,0:0:0:0:
416,95,13930,1,0,3:0:0:0:
354,90,14014,1,0,0:0:0:0:
165,126,14097,2,0,P|141:168|141:215,1,95,8|0,0:0|0:0,0:0:0:0:
376,273,14430,5,0,3:0:0:0:
435,267,14513,1,0,0:0:0:0:
491,249,14596,1,0,3:0:0:0:
430,233,14680,1,0,0:0:0:0:
205,166,14764,2,0,L|110:166,1,95,8|0,0:0|0:0,0:0:0:0:
399,191,15097,6,0,P|420:233|399:278,1,95,8|0,0:0|3:0,0:0:0:0:
175,251,15430,2,0,P|156:293|177:334,1,95,8|0,0:0|3:0,0:0:0:0:
321,331,15764,1,8,0:0:0:0:
179,330,15930,1,0,0:0:0:0:
333,263,16097,1,8,0:0:0:0:
95,169,16430,6,0,P|31:235|106:287,1,209.000006378174,6|10,3:0|0:0,0:0:0:0:
252,271,16930,1,2,0:0:0:0:
133,261,17097,2,0,P|113:215|128:166,1,104.500003189087,2|0,3:0|3:0,0:0:0:0:
264,161,17430,1,8,0:0:0:0:
128,144,17597,1,2,0:0:0:0:
374,143,17764,6,0,P|385:193|373:244,1,104.500003189087,2|2,3:0|3:0,0:0:0:0:
225,248,18097,2,0,P|211:297|230:345,1,104.500003189087,10|2,0:0|0:0,0:0:0:0:
366,346,18430,1,2,3:0:0:0:
230,337,18597,1,0,3:0:0:0:
377,302,18764,2,0,P|394:253|381:203,1,104.500003189087,8|2,0:0|0:0,0:0:0:0:
123,178,19097,6,0,P|223:152|326:168,1,209.000006378174,2|10,3:0|0:0,0:0:0:0:
200,156,19597,1,2,0:0:0:0:
325,158,19764,2,0,P|332:209|323:260,1,104.500003189087,2|2,3:0|3:0,0:0:0:0:
187,272,20097,1,10,0:0:0:0:
323,273,20264,1,2,3:0:0:0:
62,257,20430,6,0,P|36:214|72:167,1,104.500003189087,14|0,0:0|0:0,0:0:0:0:
304,139,20764,2,0,L|436:124,1,104.500003189087,14|8,0:0|0:0,0:0:0:0:
155,91,21097,2,0,L|33:84,1,104.500003189087,6|8,0:0|0:0,0:0:0:0:
312,250,21430,1,4,0:0:0:0:
165,251,21597,1,8,0:0:0:0:
443,185,21764,5,6,3:0:0:0:
308,175,21930,1,2,3:0:0:0:
172,163,22097,1,10,0:0:0:0:
308,167,22264,1,2,0:0:0:0:
160,214,22430,2,0,P|88:269|160:323,1,209.000006378174,2|8,3:0|0:0,0:0:0:0:
295,306,22930,1,2,0:0:0:0:
37,199,23097,6,0,L|165:193,1,104.500003189087,2|2,3:0|3:0,0:0:0:0:
286,186,23430,2,0,P|301:138|286:88,1,104.500003189087,10|2,0:0|0:0,0:0:0:0:
137,101,23764,2,0,P|47:142|49:241,1,209.000006378174,2|8,3:0|0:0,0:0:0:0:
184,240,24264,1,2,3:0:0:0:
425,233,24430,6,0,L|304:227,1,104.500003189087,2|2,3:0|3:0,0:0:0:0:
183,220,24764,1,8,0:0:0:0:
317,206,24930,2,0,P|326:156|315:105,1,104.500003189087,2|0,3:0|0:0,0:0:0:0:
177,113,25264,2,0,P|159:65|175:17,1,104.500003189087,2|8,3:0|0:0,0:0:0:0:
413,141,25597,6,0,P|313:112|209:121,1,209.000006378174,2|0,0:0|0:0,0:0:0:0:
345,133,26097,2,0,P|354:184|342:234,1,104.500003189087,8|0,0:0|0:0,0:0:0:0:
196,236,26430,1,0,0:0:0:0:
138,231,26514,1,0,0:0:0:0:
196,236,26597,1,8,0:0:0:0:
255,230,26680,1,0,0:0:0:0:
255,230,26763,1,10,0:3:0:0:
189,205,26846,1,8,0:3:0:0:
189,205,26930,1,10,0:3:0:0:
255,230,27014,1,8,0:3:0:0:
413,99,27097,5,6,0:0:0:0:
184,163,27430,2,0,P|173:213|190:262,1,104.500003189087,2|2,0:0|0:0,0:0:0:0:
390,287,27930,2,0,P|436:237|375:206,1,156.750004783631,2|0,0:0|0:0,0:0:0:0:
172,227,28264,6,0,P|263:180|365:190,1,209.000006378174,6|2,0:0|0:0,0:0:0:0:
230,174,28764,2,0,P|205:129|224:82,1,104.500003189087,10|0,0:0|0:0,0:0:0:0:
371,81,29097,1,2,0:0:0:0:
380,131,29180,1,0,0:0:0:0:
358,177,29263,1,0,0:0:0:0:
312,201,29346,1,0,0:0:0:0:
233,198,29430,2,0,L|232:283,1,52.2500015945435,8|0,0:0|0:0,0:0:0:0:
317,250,29597,2,0,L|318:336,1,52.2500015945435
77,331,29764,5,6,0:0:0:0:
309,329,30097,1,2,0:0:0:0:
173,329,30264,2,0,P|264:281|368:277,1,209.000006378174,2|2,0:0|0:0,0:0:0:0:
96,163,30930,5,6,0:0:0:0:
307,174,31264,1,2,0:0:0:0:
171,173,31430,1,10,0:0:0:0:
423,141,31597,1,2,0:0:0:0:
286,136,31764,6,0,L|287:197,1,52.2500015945435,2|0,0:0|0:0,0:0:0:0:
370,187,31930,2,0,L|374:263,1,52.2500015945435,8|0,0:0|0:0,0:0:0:0:
306,244,32097,1,8,0:0:0:0:
251,234,32180,1,0,0:0:0:0:
247,175,32263,1,0,0:0:0:0:
305,155,32346,1,0,0:0:0:0:
447,142,32430,6,0,P|359:107|267:121,1,190,6|2,0:0|0:0,0:0:0:0:
143,193,32930,1,0,3:0:0:0:
276,200,33097,2,0,P|336:260|277:322,1,190,2|8,3:0|0:0,0:0:0:0:
62,231,33764,6,0,P|83:143|171:120,1,190,2|2,3:0|0:0,0:0:0:0:
294,186,34264,1,0,3:0:0:0:
161,188,34430,2,0,P|76:219|65:309,1,190,2|8,3:0|0:0,0:0:0:0:
472,182,35097,5,0,3:0:0:0:
186,183,35597,1,0,3:0:0:0:
315,181,35764,2,0,P|329:226|312:270,1,95,2|0,3:0|0:0,0:0:0:0:
192,279,36097,2,0,P|170:320|185:364,1,95,10|0,0:0|0:0,0:0:0:0:
434,314,36430,5,6,3:0:0:0:
301,302,36597,1,2,3:0:0:0:
168,287,36764,1,8,0:0:0:0:
317,271,36930,2,0,P|376:209|313:152,1,190,2|8,3:0|0:0,0:0:0:0:
167,156,37430,1,0,3:0:0:0:
117,144,37514,1,0,0:0:0:0:
135,87,37597,1,0,0:0:0:0:
190,84,37680,1,0,0:0:0:0:
426,97,37764,6,0,P|441:143|437:190,1,95,14|10,0:0|0:0,0:0:0:0:
180,199,38264,1,14,0:0:0:0:
425,196,38430,1,10,0:0:0:0:
158,138,38764,6,0,P|143:93|151:47,1,95,14|10,0:0|0:0,0:0:0:0:
387,41,39264,1,14,0:0:0:0:
162,32,39430,1,10,0:0:0:0:
433,136,39764,5,10,0:0:0:0:
37,126,40097,1,10,0:0:0:0:
450,200,40430,6,0,P|362:164|268:166,1,190,6|10,0:0|0:0,0:0:0:0:
391,212,40930,2,0,P|408:256|391:299,1,95,2|0,3:0|0:0,0:0:0:0:
257,306,41264,1,2,3:0:0:0:
389,303,41430,1,8,0:0:0:0:
146,228,41597,6,0,P|229:184|323:193,1,190,6|0,3:0|3:0,0:0:0:0:
190,127,42097,2,0,L|78:125,1,95,8|8,0:0|0:0,0:0:0:0:
157,125,42347,1,8,0:0:0:0:
335,106,42430,2,0,L|429:98,1,95,8|8,0:0|0:0,0:0:0:0:
192,265,42764,1,8,0:0:0:0:
438,253,42930,1,12,0:0:0:0:
177,143,43264,6,0,P|115:199|183:248,1,190,2|2,0:0|0:0,0:0:0:0:
325,239,43764,2,0,L|327:136,1,95,2|2,0:0|0:0,0:0:0:0:
194,158,44097,1,10,0:0:0:0:
327,155,44264,1,2,0:0:0:0:
65,197,44430,6,0,P|44:247|67:294,1,104.500003189087,6|0,3:0|3:0,0:0:0:0:
210,292,44764,1,8,0:0:0:0:
64,286,44930,1,0,0:0:0:0:
314,197,45097,1,2,3:0:0:0:
440,191,45264,1,2,3:0:0:0:
303,194,45430,1,10,0:0:0:0:
429,188,45597,1,2,0:0:0:0:
141,151,45764,6,0,P|120:196|147:238,1,104.500003189087,2|0,3:0|3:0,0:0:0:0:
294,230,46097,2,0,L|409:226,1,104.500003189087,8|0,0:0|0:0,0:0:0:0:
169,197,46430,1,2,3:0:0:0:
43,191,46597,1,2,3:0:0:0:
180,194,46763,1,10,0:0:0:0:
54,188,46930,1,2,0:0:0:0:
362,192,47097,6,0,P|259:174|155:181,1,209.000006378174,2|10,3:0|0:0,0:0:0:0:
154,55,47597,1,2,0:0:0:0:
289,65,47764,1,2,3:0:0:0:
154,55,47930,1,2,3:0:0:0:
18,38,48097,1,10,0:0:0:0:
334,152,48264,6,0,P|344:202|331:252,1,104.500003189087,2|0,3:0|0:0,0:0:0:0:
205,257,48597,2,0,P|185:303|206:350,1,104.500003189087,2|8,3:0|0:0,0:0:0:0:
445,337,48930,2,0,P|343:313|242:334,1,209.000006378174,2|0,3:0|3:0,0:0:0:0:
384,200,49430,2,0,L|488:196,1,104.500003189087,8|0,0:0|0:0,0:0:0:0:
438,192,49680,1,2,0:0:0:0:
173,185,49764,6,0,L|56:181,2,104.500003189087,6|2|10,3:0|0:0|0:0,0:0:0:0:
416,189,50264,2,0,P|400:286|304:307,1,209.000006378174,6|0,3:0|0:0,0:0:0:0:
157,293,50764,2,0,P|111:238|163:191,1,156.750004783631,8|0,0:0|0:0,0:0:0:0:
378,187,51097,5,6,3:0:0:0:
242,178,51264,1,2,0:0:0:0:
106,176,51430,1,10,0:0:0:0:
367,225,51597,2,0,P|438:279|364:328,1,209.000006378174,6|0,3:0|0:0,0:0:0:0:
227,320,52097,2,0,P|161:288|171:215,1,156.750004783631,8|0,0:0|0:0,0:0:0:0:
370,205,52430,5,6,3:0:0:0:
457,163,52596,1,2,3:0:0:0:
433,69,52763,1,10,0:0:0:0:
337,74,52929,1,2,0:0:0:0:
109,162,53097,1,2,3:0:0:0:
211,161,53263,1,2,3:0:0:0:
287,229,53430,1,10,0:0:0:0:
298,330,53596,1,2,0:0:0:0:
66,326,53764,5,2,3:0:0:0:
200,308,53930,1,0,3:0:0:0:
335,293,54097,1,8,0:0:0:0:
189,275,54264,2,0,P|119:212|186:146,1,209.000006378174,2|2,0:0|0:0,0:0:0:0:
332,156,54764,1,10,0:0:0:0:
186,154,54930,1,10,0:0:0:0:
455,193,55097,6,0,P|475:239|454:285,1,104.500003189087,6|0,3:0|0:0,0:0:0:0:
308,290,55430,1,8,0:0:0:0:
454,287,55597,1,0,0:0:0:0:
168,255,55764,2,0,P|151:207|168:159,1,104.500003189087,2|2,3:0|3:0,0:0:0:0:
304,162,56097,2,0,P|322:114|310:64,1,104.500003189087,10|2,0:0|0:0,0:0:0:0:
62,215,56430,6,0,L|178:216,1,104.500003189087,2|0,3:0|0:0,0:0:0:0:
314,255,56764,1,8,0:0:0:0:
167,257,56930,1,0,0:0:0:0:
428,212,57097,2,0,P|442:162|431:111,1,104.500003189087,2|2,3:0|3:0,0:0:0:0:
285,114,57430,1,10,0:0:0:0:
430,99,57597,1,2,0:0:0:0:
129,217,57764,5,2,3:0:0:0:
358,210,58097,2,0,P|373:259|357:311,1,104.500003189087,10|2,0:0|0:0,0:0:0:0:
219,215,58430,2,0,P|203:167|217:118,1,104.500003189087,2|2,3:0|3:0,0:0:0:0:
354,112,58764,1,10,0:0:0:0:
107,158,58930,6,0,P|95:208|104:259,1,104.500003189087,2|0,3:0|0:0,0:0:0:0:
341,252,59264,2,0,P|353:302|340:352,1,104.500003189087,2|8,3:0|0:0,0:0:0:0:
113,348,59597,2,0,P|211:316|315:319,1,209.000006378174,2|0,0:0|3:0,0:0:0:0:
169,222,60097,2,0,L|44:221,1,104.500003189087,10|0,0:0|0:0,0:0:0:0:
126,219,60347,1,0,0:0:0:0:
305,216,60430,6,0,L|415:214,1,104.500003189087,14|2,0:0|0:0,0:0:0:0:
169,222,60764,2,0,P|159:273|172:323,1,104.500003189087,8|2,0:0|0:0,0:0:0:0:
318,329,61097,2,0,L|196:327,1,104.500003189087,8|2,0:0|0:0,0:0:0:0:
77,332,61430,2,0,P|56:285|75:237,1,104.500003189087,8|2,0:0|0:0,0:0:0:0:
396,208,61764,6,0,P|297:179|194:192,1,209.000006378174,10|10,0:0|0:0,0:0:0:0:
342,109,62264,1,2,0:0:0:0:
118,104,62430,2,0,P|103:153|117:202,1,104.500003189087,8|2,0:0|0:0,0:0:0:0:
264,203,62764,1,10,0:0:0:0:
118,198,62930,1,2,0:0:0:0:
410,215,63097,6,0,P|422:265|407:314,1,104.500003189087,6|2,0:0|0:0,0:0:0:0:
159,225,63430,2,0,L|54:225,1,104.500003189087,8|2,0:0|0:0,0:0:0:0:
311,146,63764,2,0,L|194:146,1,104.500003189087,8|2,0:0|0:0,0:0:0:0:
453,187,64097,2,0,P|470:234|443:277,1,104.500003189087,10|2,0:0|0:0,0:0:0:0:
185,251,64430,6,0,L|61:252,2,104.500003189087,10|0|10,0:0|0:0|0:0,0:0:0:0:
331,243,64930,2,0,P|397:178|325:119,1,209.000006378174,2|0,0:0|0:0,0:0:0:0:
189,126,65430,2,0,L|50:125,1,104.500003189087,8|0,0:0|0:0,0:0:0:0:
138,125,65680,1,0,0:0:0:0:
371,171,65764,6,0,P|416:195|433:243,1,104.500003189087,6|10,0:0|3:0,0:0:0:0:
377,253,66014,1,8,3:0:0:0:
308,252,66097,1,4,3:0:0:0:
73,178,66264,2,0,P|48:221|77:261,1,104.500003189087,6|8,0:0|3:0,0:0:0:0:
133,258,66514,1,8,3:0:0:0:
293,231,66597,2,0,L|408:219,1,104.500003189087,10|0,3:0|0:0,0:0:0:0:
121,153,66930,6,0,P|182:106|259:108,1,156.750004783631,6|0,0:0|0:0,0:0:0:0:
405,127,67264,1,2,0:0:0:0:
411,264,67430,1,6,0:0:0:0:
253,152,67597,1,8,3:0:0:0:
314,124,67680,1,8,3:0:0:0:
382,120,67764,1,8,3:0:0:0:
156,96,67930,6,0,L|28:91,1,104.500003189087,8|2,3:0|3:0,0:0:0:0:
107,93,68180,1,0,3:0:0:0:
310,67,68264,2,0,L|371:57,1,52.2500015945435,2|0,3:0|3:0,0:0:0:0:
130,160,68430,6,0,P|119:206|136:250,1,95,6|10,0:0|0:0,0:0:0:0:
270,250,68764,1,0,0:0:0:0:
40,93,68930,2,0,L|161:93,1,95,2|10,0:0|0:0,0:0:0:0:
278,90,69264,1,0,0:0:0:0:
51,209,69430,6,0,P|39:254|55:298,1,95,2|10,0:0|0:0,0:0:0:0:
189,299,69764,1,0,0:0:0:0:
413,254,69930,1,2,0:0:0:0:
280,244,70097,1,10,0:0:0:0:
147,229,70264,1,0,0:0:0:0:
410,189,70430,6,0,P|436:151|400:113,1,95,2|0,0:0|0:0,0:0:0:0:
345,116,70680,1,0,0:0:0:0:
156,112,70764,2,0,L|37:110,1,95,0|0,0:3|0:3,0:0:0:0:
285,231,71097,6,0,L|392:231,1,95,6|10,0:0|0:0,0:0:0:0:
243,182,71430,1,0,0:0:0:0:
468,113,71597,2,0,L|342:112,1,95,2|10,0:0|0:0,0:0:0:0:
239,117,71930,1,0,0:0:0:0:
467,204,72097,6,0,P|479:250|462:294,1,95,2|10,0:0|0:0,0:0:0:0:
338,299,72430,1,0,0:0:0:0:
83,232,72597,2,0,L|191:222,1,95,2|14,0:0|0:0,0:0:0:0:
310,208,72930,1,0,0:0:0:0:
52,90,73097,6,0,P|35:133|52:176,1,95,6|0,0:0|0:0,0:0:0:0:
116,168,73347,1,0,0:0:0:0:
279,145,73430,2,0,L|334:138,1,47.5,0|0,3:0|0:0,0:0:0:0:
165,112,73597,2,0,L|114:103,1,47.5,0|0,3:0|0:0,0:0:0:0:
363,222,73764,5,6,0:0:0:0:
230,232,73930,2,0,P|219:277|230:323,1,95,10|0,0:0|0:0,0:0:0:0:
458,138,74264,1,2,0:0:0:0:
316,132,74430,2,0,L|185:126,1,95,10|0,0:0|0:0,0:0:0:0:
454,303,74764,5,2,0:0:0:0:
318,284,74930,2,0,L|416:274,1,95,10|0,0:0|0:0,0:0:0:0:
155,210,75264,1,2,0:0:0:0:
286,202,75430,2,0,P|295:155|285:109,1,95,10|0,0:0|0:0,0:0:0:0:
58,89,75764,6,0,P|37:130|55:173,1,95,2|0,0:0|0:0,0:0:0:0:
124,168,76014,1,0,0:0:0:0:
295,137,76097,2,0,L|401:133,1,95,0|0,3:0|3:0,0:0:0:0:
339,134,76347,1,0,0:0:0:0:
134,38,76430,6,0,P|119:82|134:126,1,95,6|10,0:0|0:0,0:0:0:0:
367,218,76930,1,2,0:0:0:0:
135,204,77097,1,10,0:0:0:0:
376,255,77430,2,0,P|389:301|374:345,1,95,2|10,0:0|0:0,0:0:0:0:
137,218,77930,1,2,0:0:0:0:
369,204,78097,2,0,P|408:160|342:120,1,142.5,10|0,0:0|0:0,0:0:0:0:
160,110,78430,1,14,0:0:0:0:
