osu file format v14

[General]
AudioFilename: audio.mp3
AudioLeadIn: 0
PreviewTime: 43180
Countdown: 0
SampleSet: Soft
StackLeniency: 0.7
Mode: 2
LetterboxInBreaks: 0
WidescreenStoryboard: 1

[Editor]
DistanceSpacing: 1
BeatDivisor: 4
GridSize: 32
TimelineZoom: 2.1

[Metadata]
Title:MERRY MERRY MERRY MENU... ne! (Cut Ver.)
TitleUnicode:MERRY MERRY MERRY MENU…ね! (Cut Ver.)
Artist:Tamura Yukari
ArtistUnicode:田村ゆかり
Creator:-Joakh
Version:Benita's Platter
Source:
Tags:KICS-1732 KICS-91732 春待ちソレイユ KIBM-358~360 KIXM-90~91 田村ゆかり LOVE ♡ LIVE *Fall in Love* 畑亜貴 小松一也 田村由香里 carol cute japanese pop jpop j-pop christmas song female vocalist Benita Benny- BennyBananas
BeatmapID:2764631
BeatmapSetID:1324064

[Difficulty]
HPDrainRate:5
CircleSize:3.5
OverallDifficulty:8
ApproachRate:8
SliderMultiplier:1.5
SliderTickRate:1

[Events]
//Background and Video events
0,0,"BG.jpg",0,0
//Break Periods
//Storyboard Layer 0 (Background)
//Storyboard Layer 1 (Fail)
//Storyboard Layer 2 (Pass)
//Storyboard Layer 3 (Foreground)
//Storyboard Layer 4 (Overlay)
//Storyboard Sound Samples

[TimingPoints]
431,333.333333333333,4,2,1,70,1,0
16430,-100,4,2,1,60,0,0
27097,-100,4,2,1,65,0,0
32430,-100,4,2,1,55,0,0
44430,-100,4,2,1,70,0,1
68430,-100,4,2,1,70,0,0

[Colours]
Combo1 : 197,157,99
Combo2 : 254,129,132
Combo3 : 249,221,183
Combo4 : 117,152,210

[HitObjects]
253,337,431,6,0,L|255:254,1,75,14|10,0:0|0:0,0:0:0:0:
404,245,930,2,0,L|403:157,1,75,10|10,0:0|0:0,0:0:0:0:
148,161,1430,2,0,L|150:67,1,75,10|10,0:0|0:0,0:0:0:0:
301,65,1930,2,0,L|303:151,1,75,10|10,0:0|0:0,0:0:0:0:
47,218,2430,1,6,0:0:0:0:
460,130,3097,6,0,L|462:214,1,75,10|10,0:0|0:0,0:0:0:0:
312,260,3597,2,0,L|310:340,1,75,10|10,0:0|0:0,0:0:0:0:
54,247,4097,2,0,L|55:154,1,75,10|10,0:0|0:0,0:0:0:0:
202,166,4597,2,0,L|200:78,1,75,10|10,0:0|0:0,0:0:0:0:
456,47,5097,2,0,P|501:114|484:178,1,150,6|8,0:0|0:0,0:0:0:0:
68,199,5764,6,0,L|67:280,1,75,4|0,3:0|3:0,0:0:0:0:
143,274,6097,1,8,0:0:0:0:
67,273,6264,1,0,0:0:0:0:
209,275,6430,2,0,L|216:187,1,75,0|0,3:0|3:0,0:0:0:0:
138,192,6764,1,8,0:0:0:0:
61,186,6930,1,0,0:0:0:0:
294,176,7097,6,0,L|294:261,1,75,0|0,3:0|3:0,0:0:0:0:
142,247,7430,2,0,P|97:288|143:355,1,150,8|0,0:0|3:0,0:0:0:0:
229,356,7930,1,0,3:0:0:0:
332,354,8097,1,8,0:0:0:0:
72,288,8430,5,0,3:0:0:0:
60,251,8513,1,0,0:0:0:0:
50,216,8596,1,0,3:0:0:0:
198,207,8764,2,0,P|236:158|184:96,1,150,8|0,0:0|3:0,0:0:0:0:
111,88,9264,1,0,3:0:0:0:
32,96,9430,1,8,0:0:0:0:
111,88,9597,1,0,0:0:0:0:
344,221,9764,6,0,L|341:146,1,75,0|0,3:0|3:0,0:0:0:0:
264,148,10097,1,8,0:0:0:0:
341,146,10264,1,0,0:0:0:0:
108,226,10430,2,0,P|65:170|116:99,1,150,8|8,0:0|0:0,0:0:0:0:
386,297,11097,6,0,L|386:211,1,75,4|0,3:0|3:0,0:0:0:0:
307,207,11430,2,0,L|309:116,1,75,8|0,0:0|0:0,0:0:0:0:
465,142,11764,2,0,L|466:42,1,75,0|0,3:0|3:0,0:0:0:0:
388,60,12097,1,8,0:0:0:0:
463,59,12264,1,0,0:0:0:0:
229,139,12430,6,0,L|230:216,1,75,0|0,3:0|3:0,0:0:0:0:
382,222,12764,2,0,L|231:218,1,150,8|0,0:0|3:0,0:0:0:0:
159,246,13264,1,0,3:0:0:0:
196,319,13430,1,8,0:0:0:0:
460,351,13764,5,0,0:0:0:0:
462,313,13847,1,0,0:0:0:0:
465,276,13930,1,0,0:0:0:0:
310,273,14097,2,0,P|273:252|320:153,1,150,8|0,0:0|3:0,0:0:0:0:
380,151,14597,1,0,3:0:0:0:
481,156,14764,2,0,L|488:252,1,75,8|0,0:0|0:0,0:0:0:0:
222,212,15097,6,0,L|216:114,1,75,8|0,0:0|3:0,0:0:0:0:
370,142,15430,2,0,L|375:61,1,75,8|0,0:0|3:0,0:0:0:0:
85,294,15764,2,0,P|19:217|95:149,1,225,8|0,0:0|0:0,0:0:0:0:
329,288,16430,6,0,P|365:264|319:172,1,150,6|10,3:0|0:0,0:0:0:0:
246,171,16930,1,2,0:0:0:0:
91,192,17097,2,0,P|50:164|102:80,1,150,2|8,3:0|0:0,0:0:0:0:
183,69,17597,1,2,0:0:0:0:
335,106,17764,6,0,L|341:216,1,75,2|2,3:0|3:0,0:0:0:0:
248,190,18097,2,0,L|246:282,1,75,10|2,0:0|0:0,0:0:0:0:
398,336,18430,2,0,P|427:313|377:229,1,150,2|8,3:0|0:0,0:0:0:0:
291,227,18930,1,2,0:0:0:0:
141,233,19097,6,0,L|297:223,1,150,2|10,3:0|0:0,0:0:0:0:
391,217,19597,1,2,0:0:0:0:
238,221,19764,2,0,L|243:130,1,75,2|2,3:0|3:0,0:0:0:0:
346,151,20097,2,0,L|345:60,1,75,10|2,0:0|3:0,0:0:0:0:
111,79,20430,6,0,P|70:104|107:196,1,150,14|14,0:0|0:0,0:0:0:0:
192,197,20930,1,8,0:0:0:0:
345,198,21097,2,0,L|348:296,1,75,6|8,0:0|0:0,0:0:0:0:
256,273,21430,2,0,L|250:360,1,75,4|8,0:0|0:0,0:0:0:0:
485,348,21764,6,0,L|485:266,1,75,6|2,3:0|3:0,0:0:0:0:
405,264,22097,1,10,0:0:0:0:
485,273,22264,1,2,0:0:0:0:
330,295,22430,2,0,P|287:258|335:187,1,150,2|8,3:0|0:0,0:0:0:0:
416,181,22930,1,2,0:0:0:0:
264,189,23097,6,0,L|261:271,1,75,2|2,3:0|3:0,0:0:0:0:
346,272,23430,1,10,0:0:0:0:
435,278,23597,1,2,0:0:0:0:
280,326,23764,2,0,L|126:324,1,150,2|8,3:0|0:0,0:0:0:0:
41,325,24264,1,2,3:0:0:0:
191,312,24430,5,2,3:0:0:0:
102,274,24597,2,0,L|107:180,1,75,2|8,3:0|0:0,0:0:0:0:
256,199,24930,2,0,L|258:107,1,75,2|0,3:0|0:0,0:0:0:0:
105,126,25264,2,0,L|26:123,1,75,2|8,3:0|0:0,0:0:0:0:
265,263,25597,6,0,L|421:262,1,150,2|0,0:0|0:0,0:0:0:0:
331,212,26097,1,8,0:0:0:0:
251,207,26264,1,0,0:0:0:0:
401,253,26430,1,0,0:0:0:0:
446,236,26513,1,0,0:0:0:0:
478,206,26596,1,8,0:0:0:0:
485,170,26679,1,0,0:0:0:0:
476,134,26763,1,10,0:3:0:0:
442,104,26846,1,8,0:3:0:0:
396,86,26929,1,10,0:3:0:0:
161,92,27097,6,0,P|116:120|168:191,1,150,6|2,0:0|0:0,0:0:0:0:
305,196,27597,2,0,L|139:190,1,150,2|2,0:0|0:0,0:0:0:0:
444,317,28264,6,0,P|484:280|430:206,1,150,6|2,0:0|0:0,0:0:0:0:
290,201,28764,2,0,P|249:168|294:86,1,150,10|2,0:0|0:0,0:0:0:0:
476,65,29430,1,8,0:0:0:0:
63,98,29764,6,0,P|19:129|64:202,1,150,6|2,0:0|0:0,0:0:0:0:
207,237,30264,2,0,L|34:237,1,150,2|2,0:0|0:0,0:0:0:0:
341,337,30930,6,0,P|366:287|339:199,1,150,6|2,0:0|0:0,0:0:0:0:
188,198,31430,2,0,L|134:138,2,75,10|2|2,0:0|0:0|0:0,0:0:0:0:
31,193,31930,1,8,0:0:0:0:
26,149,32097,1,8,0:0:0:0:
491,234,32430,6,0,L|327:234,1,150,6|2,0:0|0:0,0:0:0:0:
407,211,32930,1,0,3:0:0:0:
481,187,33097,2,0,P|515:154|472:62,1,150,2|8,3:0|0:0,0:0:0:0:
178,208,33764,6,0,L|349:207,1,150,2|2,3:0|0:0,0:0:0:0:
256,157,34264,1,0,3:0:0:0:
175,128,34430,2,0,P|136:164|169:255,1,150,2|8,3:0|0:0,0:0:0:0:
422,256,35097,6,0,P|450:185|402:103,1,150,0|2,3:0|0:0,0:0:0:0:
335,109,35597,1,0,3:0:0:0:
240,111,35764,2,0,L|61:113,1,150,2|10,3:0|0:0,0:0:0:0:
328,307,36430,6,0,L|326:222,1,75,6|2,3:0|3:0,0:0:0:0:
169,223,36930,2,0,P|126:191|186:104,1,150,2|8,3:0|0:0,0:0:0:0:
250,123,37430,2,0,L|256:31,1,75,0|0,3:0|0:0,0:0:0:0:
18,44,37764,6,0,L|11:133,1,75,14|10,0:0|0:0,0:0:0:0:
124,194,38264,2,0,L|123:290,1,75,14|10,0:0|0:0,0:0:0:0:
398,245,38764,6,0,L|397:341,1,75,14|10,0:0|0:0,0:0:0:0:
260,207,39264,2,0,L|259:303,1,75,14|10,0:0|0:0,0:0:0:0:
21,68,39764,2,0,L|21:225,1,150,10|10,0:0|0:0,0:0:0:0:
423,274,40430,6,0,P|460:252|409:160,1,150,6|10,0:0|0:0,0:0:0:0:
283,152,40930,2,0,L|276:247,1,75,2|0,3:0|0:0,0:0:0:0:
429,245,41264,2,0,L|436:333,1,75,2|8,3:0|0:0,0:0:0:0:
201,334,41597,6,0,P|163:307|214:217,1,150,6|0,3:0|3:0,0:0:0:0:
346,221,42097,2,0,L|347:126,1,75,8|8,0:0|0:0,0:0:0:0:
306,145,42347,1,8,0:0:0:0:
266,145,42430,1,8,0:0:0:0:
173,143,42597,1,8,0:0:0:0:
324,227,42764,2,0,L|326:318,1,75,8|12,0:0|0:0,0:0:0:0:
99,293,43264,6,0,L|274:277,1,150,2|2,0:0|0:0,0:0:0:0:
159,263,43764,2,0,L|155:173,1,75,2|2,0:0|0:0,0:0:0:0:
263,190,44097,2,0,L|270:91,1,75,10|2,0:0|0:0,0:0:0:0:
34,102,44430,6,0,L|187:90,1,150,6|8,3:0|0:0,0:0:0:0:
348,106,45097,1,2,3:0:0:0:
452,151,45264,1,2,3:0:0:0:
456,248,45430,1,10,0:0:0:0:
369,315,45597,1,2,0:0:0:0:
131,325,45764,6,0,P|92:285|144:206,1,150,2|8,3:0|0:0,0:0:0:0:
220,201,46264,1,0,0:0:0:0:
370,233,46430,2,0,L|366:334,1,75,2|2,3:0|3:0,0:0:0:0:
258,226,46764,2,0,L|249:131,1,75,10|2,0:0|0:0,0:0:0:0:
486,157,47097,6,0,L|334:144,1,150,2|10,3:0|0:0,0:0:0:0:
414,78,47597,1,2,0:0:0:0:
260,98,47764,2,0,L|256:188,1,75,2|2,3:0|3:0,0:0:0:0:
341,198,48097,1,10,0:0:0:0:
108,288,48264,6,0,P|77:253|120:165,1,150,2|2,3:0|3:0,0:0:0:0:
209,162,48764,1,8,0:0:0:0:
441,256,48930,2,0,P|479:239|431:157,1,150,2|0,3:0|3:0,0:0:0:0:
368,155,49430,1,8,0:0:0:0:
282,156,49597,1,0,0:0:0:0:
48,168,49764,6,0,L|41:262,1,75,6|2,3:0|0:0,0:0:0:0:
120,274,50097,1,10,0:0:0:0:
356,298,50264,2,0,P|394:277|347:195,1,150,6|0,3:0|0:0,0:0:0:0:
272,191,50764,1,8,0:0:0:0:
184,192,50930,1,0,0:0:0:0:
419,171,51097,6,0,L|504:179,2,75,6|2|10,3:0|0:0|0:0,0:0:0:0:
185,281,51597,2,0,P|149:252|201:159,1,150,6|0,3:0|0:0,0:0:0:0:
262,160,52097,1,8,0:0:0:0:
346,161,52264,1,0,0:0:0:0:
114,331,52430,6,0,L|111:250,1,75,6|2,3:0|3:0,0:0:0:0:
195,253,52764,1,10,0:0:0:0:
283,248,52930,1,2,0:0:0:0:
127,195,53097,2,0,L|42:192,2,75,2|2|10,3:0|3:0|0:0,0:0:0:0:
215,197,53597,1,2,0:0:0:0:
372,232,53764,6,0,P|411:202|371:120,1,150,2|8,3:0|0:0,0:0:0:0:
141,143,54264,2,0,L|292:134,1,150,2|2,0:0|0:0,0:0:0:0:
380,128,54764,2,0,L|446:124,2,37.5,10|0|10,0:0|0:0|0:0,0:0:0:0:
146,301,55097,6,0,P|101:260|166:197,1,150,6|8,3:0|0:0,0:0:0:0:
358,259,55764,2,0,L|357:173,1,75,2|2,3:0|3:0,0:0:0:0:
270,181,56097,1,10,0:0:0:0:
180,179,56264,1,2,0:0:0:0:
417,270,56430,6,0,P|457:241|406:169,1,150,2|8,3:0|0:0,0:0:0:0:
176,124,57097,2,0,L|176:212,1,75,2|2,3:0|3:0,0:0:0:0:
280,201,57430,2,0,L|281:295,1,75,10|2,0:0|0:0,0:0:0:0:
44,286,57764,6,0,L|202:267,1,150,2|10,3:0|0:0,0:0:0:0:
131,191,58264,1,2,0:0:0:0:
281,193,58430,2,0,L|363:191,2,75,2|2|10,3:0|3:0|0:0,0:0:0:0:
46,140,58930,6,0,P|15:105|70:8,1,150,2|2,3:0|3:0,0:0:0:0:
130,10,59430,1,8,0:0:0:0:
366,168,59597,2,0,P|410:207|364:279,1,150,2|0,0:0|3:0,0:0:0:0:
223,276,60097,2,0,L|216:182,1,75,10|0,0:0|0:0,0:0:0:0:
452,218,60430,6,0,L|273:205,2,150,14|8|8,0:0|0:0|0:0,0:0:0:0:
300,313,61264,2,0,L|213:312,2,75,2|8|2,0:0|0:0|0:0,0:0:0:0:
65,341,61764,6,0,P|38:301|86:222,1,150,10|10,0:0|0:0,0:0:0:0:
237,225,62264,2,0,L|336:224,2,75,2|8|2,0:0|0:0|0:0,0:0:0:0:
390,212,62764,2,0,L|388:120,1,75,10|2,0:0|0:0,0:0:0:0:
154,130,63097,6,0,L|305:122,2,150,6|8|8,0:0|0:0|0:0,0:0:0:0:
306,214,63930,2,0,L|306:303,1,75,2|10,0:0|0:0,0:0:0:0:
211,303,64264,1,2,0:0:0:0:
446,314,64430,6,0,P|482:288|433:208,1,150,10|10,0:0|0:0,0:0:0:0:
286,205,64930,2,0,L|286:288,1,75,2|8,0:0|0:0,0:0:0:0:
378,300,65264,1,0,0:0:0:0:
475,240,65430,1,8,0:0:0:0:
476,213,65514,1,0,0:0:0:0:
468,191,65597,1,0,0:0:0:0:
235,280,65764,6,0,P|182:249|243:177,1,150,6|4,0:0|3:0,0:0:0:0:
445,251,66264,2,0,P|490:220|449:134,1,150,6|10,0:0|3:0,0:0:0:0:
375,120,66764,1,0,0:0:0:0:
143,106,66930,6,0,L|135:200,1,75,6|0,0:0|0:0,0:0:0:0:
371,275,67264,2,0,L|374:192,1,75,2|6,0:0|0:0,0:0:0:0:
256,202,67597,1,8,3:0:0:0:
229,181,67680,1,8,3:0:0:0:
220,144,67763,1,8,3:0:0:0:
230,108,67846,1,8,3:0:0:0:
264,83,67930,1,8,3:0:0:0:
418,74,68097,1,2,3:0:0:0:
428,39,68180,1,0,3:0:0:0:
407,10,68263,1,2,3:0:0:0:
157,212,68430,6,0,L|72:211,2,75,6|10|0,0:0|0:0|0:0,0:0:0:0:
323,220,68930,2,0,L|408:216,2,75,2|10|0,0:0|0:0|0:0,0:0:0:0:
173,222,69430,6,0,L|171:312,1,75,2|10,0:0|0:0,0:0:0:0:
269,319,69764,1,0,0:0:0:0:
424,321,69930,2,0,L|428:238,1,75,2|10,0:0|0:0,0:0:0:0:
322,231,70264,1,0,0:0:0:0:
90,234,70430,1,2,0:0:0:0:
21,272,70597,1,0,0:0:0:0:
13,295,70680,1,0,0:0:0:0:
24,326,70764,1,0,0:3:0:0:
103,339,70930,1,0,0:3:0:0:
336,343,71097,6,0,L|420:341,2,75,6|10|0,0:0|0:0|0:0,0:0:0:0:
184,342,71597,2,0,L|98:341,1,75,2|10,0:0|0:0,0:0:0:0:
19,338,71930,1,0,0:0:0:0:
176,280,72097,6,0,L|177:194,1,75,2|10,0:0|0:0,0:0:0:0:
85,179,72430,1,0,0:0:0:0:
237,178,72597,2,0,L|340:177,2,75,2|14|0,0:0|0:0|0:0,0:0:0:0:
472,174,73097,1,6,0:0:0:0:
384,171,73264,1,0,0:0:0:0:
350,158,73347,1,0,0:0:0:0:
333,125,73430,1,0,3:0:0:0:
342,90,73513,1,0,0:0:0:0:
372,69,73597,1,0,3:0:0:0:
137,134,73764,6,0,L|54:132,2,75,6|10|0,0:0|0:0|0:0,0:0:0:0:
291,197,74264,2,0,L|294:283,1,75,2|10,0:0|0:0,0:0:0:0:
195,307,74597,1,0,0:0:0:0:
353,328,74764,6,0,L|438:321,2,75,2|10|0,0:0|0:0|0:0,0:0:0:0:
199,331,75264,2,0,L|191:238,1,75,2|10,0:0|0:0,0:0:0:0:
284,240,75597,1,0,0:0:0:0:
49,228,75764,1,2,0:0:0:0:
140,195,75930,1,0,0:0:0:0:
141,173,76014,1,0,0:0:0:0:
139,156,76097,1,0,3:0:0:0:
55,90,76264,1,0,3:0:0:0:
293,142,76430,6,0,L|289:233,1,75,6|10,0:0|0:0,0:0:0:0:
46,216,76930,2,0,L|37:303,1,75,2|10,0:0|0:0,0:0:0:0:
296,173,77430,2,0,L|287:268,1,75,2|10,0:0|0:0,0:0:0:0:
48,181,77930,2,0,L|38:270,1,75,2|10,0:0|0:0,0:0:0:0:
471,331,78430,5,14,0:0:0:0:
