osu file format v14

[General]
AudioFilename: MARRY ME.mp3
AudioLeadIn: 2000
PreviewTime: 43180
Countdown: 0
SampleSet: Soft
StackLeniency: 0.5
Mode: 0
LetterboxInBreaks: 1
EpilepsyWarning: 1
WidescreenStoryboard: 1

[Editor]
Bookmarks: 9764,11097,15097,16430,52430,53764
DistanceSpacing: 1
BeatDivisor: 4
GridSize: 4
TimelineZoom: 2.9

[Metadata]
Title:MERRY MERRY MERRY MENU... Ne!
TitleUnicode:MERRY MERRY MERRY MENU... ね!
Artist:Tamura Yukari
ArtistUnicode:田村ゆかり
Creator:moonlightleaf
Version:Merry Merry Love
Source:
Tags:Minakami Yuki cute japanese jpop christmas song carol ufw star Koiyuki Karia kanor karen Crz Sword Rumia- kencho Lami yf_bmp intoon little kawaiwkyik rizia CloudSplash16
BeatmapID:1066054
BeatmapSetID:161089

[Difficulty]
HPDrainRate:6
CircleSize:4.3
OverallDifficulty:9
ApproachRate:9.3
SliderMultiplier:1.88
SliderTickRate:1

[Events]
//Background and Video events
0,0,"tt.jpg",0,0
//Break Periods
//Storyboard Layer 0 (Background)
//Storyboard Layer 1 (Fail)
//Storyboard Layer 2 (Pass)
//Storyboard Layer 3 (Foreground)
Sprite,Foreground,Centre,"SB\white.jpg",320,240 C,0,5764,,200,200,255 F,0,5764,6264,0,0.5457271 M,0,5764,16430,320,240,319,240 F,0,6264,6430,0.5 F,0,6430,,0.545648 C,0,16430,,254,233,216 M,0,16430,32430,319,240 F,0,16431,26763,0.37 C,0,26764,,200,200,255 F,0,26764,32430,0.34 C,0,32432,,254,233,216 F,0,41597,43264,0.37,1 C,0,41597,43264,254,233,216,0,0,0 F,0,43264,44430,1,0
Sprite,Foreground,Centre,"Mapper\Rumia-+.png",320,240 F,0,5764,6264,0,1 M,0,5764,16430,567,419,490,419 F,0,16097,16430,1,0
Sprite,Foreground,Centre,"Mapper\Rumia-.png",320,240 C,0,5764,,223,64,251 F,0,5764,6264,0,1 M,0,5764,16430,567,419,490,419 F,0,16097,16430,1,0
Sprite,Foreground,Centre,"sb\light1.png",115,102 S,0,431,597,0,1.67 F,0,597,763,1,0
Sprite,Foreground,Centre,"sb\light1.png",399,210 S,0,597,763,0,1.67 F,0,763,929,1,0
Sprite,Foreground,Centre,"sb\light1.png",99,190 S,0,930,1096,0,1.67 F,0,1096,1262,1,0
Sprite,Foreground,Centre,"sb\light1.png",423,198 S,0,1096,1262,0,1.67 F,0,1262,1428,1,0
Sprite,Foreground,Centre,"sb\light1.png",107,286 S,0,1430,1596,0,1.67 F,0,1596,1762,1,0
Sprite,Foreground,Centre,"sb\light1.png",447,186 S,0,1596,1762,0,1.67 F,0,1762,1928,1,0
Sprite,Foreground,Centre,"sb\light1.png",175,366 S,0,1930,2096,0,1.67 F,0,2096,2262,1,0
Sprite,Foreground,Centre,"sb\light1.png",479,170 S,0,2097,2263,0,1.67 F,0,2263,2429,1,0
Sprite,Foreground,Centre,"sb\light1.png",423,350 S,0,2430,2596,0,1.67 F,0,2596,2762,1,0
Sprite,Foreground,Centre,"sb\light1.png",143,370 S,0,3097,3263,0,1.67 F,0,3263,3429,1,0
Sprite,Foreground,Centre,"sb\light1.png",502,371 S,0,3264,3430,0,1.67 F,0,3430,3596,1,0
Sprite,Foreground,Centre,"sb\light1.png",171,270 S,0,3597,3763,0,1.67 F,0,3763,3929,1,0
Sprite,Foreground,Centre,"sb\light1.png",479,270 S,0,3764,3930,0,1.67 F,0,3930,4096,1,0
Sprite,Foreground,Centre,"sb\light1.png",143,174 S,0,4097,4263,0,1.67 F,0,4263,4429,1,0
Sprite,Foreground,Centre,"sb\light1.png",507,174 S,0,4264,4430,0,1.67 F,0,4430,4596,1,0
Sprite,Foreground,Centre,"sb\light1.png",407,406 S,0,4597,4763,0,1.67 F,0,4763,4929,1,0
Sprite,Foreground,Centre,"sb\light1.png",255,86 S,0,4764,4930,0,1.67 F,0,4930,5096,1,0
Sprite,Foreground,Centre,"sb\light1.png",271,238 S,0,5097,5263,0,1.67 F,0,5263,5429,1,0
Sprite,Foreground,Centre,"sb\light1.png",285,413 S,0,5430,5596,0,3 F,0,5596,5762,1,0
//Storyboard Sound Samples

[TimingPoints]
431,333.333333333333,4,2,51,70,1,0
2347,-100,4,2,51,5,0,0
2430,-100,4,2,51,70,0,0
5014,-100,4,2,51,5,0,0
5097,-100,4,2,51,70,0,0
5347,-100,4,2,51,5,0,0
5430,-76.9230769230769,4,2,1,70,0,0
5597,-76.9230769230769,4,2,1,15,0,0
5764,-100,4,2,51,70,0,0
10764,-83.3333333333333,4,2,51,70,0,0
11097,-100,4,2,51,70,0,0
16430,-117.647058823529,4,2,51,65,0,0
20430,-100,4,2,51,65,0,0
21764,-117.647058823529,4,2,51,65,0,0
25597,-76.9230769230769,4,2,51,65,0,0
25930,-117.647058823529,4,2,51,65,0,0
27097,-100,4,2,51,65,0,0
31930,-100,4,2,1,65,0,0
32430,-133.333333333333,4,2,51,60,0,0
32597,-133.333333333333,4,2,51,50,0,0
36430,-100,4,2,51,60,0,0
37180,-100,4,2,51,5,0,0
37264,-100,4,2,51,60,0,0
37764,-100,4,2,51,65,0,0
40680,-100,4,2,51,5,0,0
40764,-100,4,2,51,65,0,0
43014,-117.647058823529,4,2,51,5,0,0
43264,-117.647058823529,4,2,51,65,0,0
43597,-86.9565217391302,4,2,51,65,0,0
43680,-86.9565217391302,4,2,51,5,0,0
43764,-86.9565217391302,4,2,51,65,0,0
43847,-86.9565217391302,4,2,51,5,0,0
43930,-86.9565217391302,4,2,51,65,0,0
44014,-86.9565217391302,4,2,51,5,0,0
44097,-66.6666666666667,4,2,1,65,0,0
44430,-86.9565217391304,4,2,51,75,0,1
44680,-86.9565217391304,4,2,51,5,0,1
44764,-86.9565217391304,4,2,51,75,0,1
44847,-86.9565217391304,4,2,51,5,0,1
44930,-86.9565217391304,4,2,51,75,0,1
46014,-86.9565217391304,4,2,51,5,0,1
46097,-86.9565217391304,4,2,51,75,0,1
46180,-86.9565217391304,4,2,51,5,0,1
46264,-86.9565217391304,4,2,51,75,0,1
47347,-86.9565217391304,4,2,51,5,0,1
47430,-86.9565217391304,4,2,51,75,0,1
50514,-86.9565217391304,4,2,51,5,0,1
50597,-86.9565217391304,4,2,51,75,0,1
51847,-86.9565217391304,4,2,51,5,0,1
51930,-86.9565217391304,4,2,51,75,0,1
54597,-86.9565217391304,4,2,51,75,0,1
54680,-86.9565217391304,4,2,51,5,0,1
54764,-86.9565217391304,4,2,51,75,0,1
54847,-86.9565217391304,4,2,51,5,0,1
54930,-86.9565217391304,4,2,51,75,0,1
55014,-86.9565217391304,4,2,51,5,0,1
55097,-86.9565217391304,4,2,51,75,0,1
55347,-86.9565217391304,4,2,51,5,0,1
55430,-86.9565217391304,4,2,51,75,0,1
55514,-86.9565217391304,4,2,51,5,0,1
55597,-86.9565217391304,4,2,51,75,0,1
56680,-86.9565217391304,4,2,51,5,0,1
56764,-86.9565217391304,4,2,51,75,0,1
56847,-86.9565217391304,4,2,51,5,0,1
56930,-86.9565217391304,4,2,51,75,0,1
60430,-86.9565217391304,4,2,51,75,0,1
63014,-86.9565217391304,4,2,51,75,0,0
63097,-86.9565217391304,4,2,51,75,0,1
64430,-86.9565217391304,4,2,51,75,0,1
64514,-86.9565217391304,4,2,51,5,0,1
64597,-86.9565217391304,4,2,51,75,0,1
64680,-86.9565217391304,4,2,51,5,0,1
64764,-86.9565217391304,4,2,51,75,0,1
64847,-86.9565217391304,4,2,51,5,0,1
64930,-86.9565217391304,4,2,51,75,0,1
67264,-86.9565217391304,4,2,51,75,0,1
67347,-86.9565217391304,4,2,51,75,0,1
67430,-86.9565217391304,4,2,51,75,0,1
67514,-86.9565217391304,4,2,51,75,0,1
67597,-86.9565217391304,4,2,51,75,0,1
68430,-100,4,2,51,70,0,0
75680,-100,4,2,51,5,0,0
75764,-100,4,2,51,70,0,0
76514,-100,4,2,51,5,0,0
76597,-100,4,2,51,70,0,0
77014,-100,4,2,51,5,0,0
77097,-100,4,2,51,70,0,0
77847,-100,4,2,51,5,0,0
77930,-100,4,2,51,70,0,0
78014,-100,4,2,51,5,0,0
78097,-100,4,2,51,70,0,0
78347,-100,4,2,51,5,0,0
78430,-100,4,2,51,70,0,0

[Colours]
Combo1 : 255,255,255
Combo2 : 0,236,249
Combo3 : 255,128,70
Combo4 : 255,128,192

[HitObjects]
88,48,431,5,12,0:0:0:0:
336,156,597,1,8,0:0:0:0:
72,136,930,5,8,0:0:0:0:
360,144,1096,1,8,0:0:0:0:
80,232,1430,5,8,0:0:0:0:
384,132,1596,1,8,0:0:0:0:
148,312,1930,5,8,0:0:0:0:
416,116,2097,2,0,P|446:177|424:242,1,141,8|0,0:0|0:0,0:0:0:0:
360,296,2430,1,4,0:0:0:0:
80,316,3097,5,8,0:0:0:0:
439,317,3264,1,12,0:0:0:0:
108,216,3597,5,8,0:0:0:0:
416,216,3764,1,8,0:0:0:0:
80,120,4097,5,8,0:0:0:0:
444,120,4264,1,8,0:0:0:0:
268,276,4597,5,8,0:0:0:0:
192,32,4764,2,0,P|176:104|200:176,1,141,8|0,0:0|0:0,0:0:0:0:
208,184,5097,2,0,L|280:172,1,47,4|0,0:0|0:0,0:0:0:0:
96,288,5264,2,0,L|28:272,1,47
223,369,5430,2,0,B|358:350,1,122.199994406128,8|0,0:0|0:0,0:0:0:0:
480,152,5764,5,4,0:0:0:0:
436,332,5930,1,0,0:0:0:0:
232,264,6097,1,8,0:0:0:0:
416,232,6264,1,0,0:0:0:0:
240,92,6430,1,0,0:0:0:0:
304,324,6597,1,0,0:0:0:0:
364,32,6764,2,0,L|360:140,1,94,8|0,0:0|0:0,0:0:0:0:
160,336,7097,5,0,0:0:0:0:
44,184,7264,1,0,0:0:0:0:
232,264,7430,2,0,L|384:240,1,141,8|0,0:0|0:0,0:0:0:0:
416,232,7764,2,0,P|396:288|412:348,1,94,0|0,0:0|0:0,0:0:0:0:
480,288,8097,1,8,0:0:0:0:
376,72,8264,1,0,0:0:0:0:
232,264,8430,5,0,0:0:0:0:
260,228,8514,1,0,0:0:0:0:
268,180,8597,1,0,0:0:0:0:
256,136,8680,1,0,0:0:0:0:
224,104,8764,2,0,L|100:112,1,94,8|0,0:0|0:0,0:0:0:0:
288,336,9097,5,0,0:0:0:0:
332,324,9180,1,0,0:0:0:0:
364,292,9264,1,0,0:0:0:0:
384,248,9347,1,0,0:0:0:0:
392,204,9430,2,0,P|436:216|496:212,1,94,8|0,0:0|0:0,0:0:0:0:
128,232,9764,5,0,0:0:0:0:
104,52,9930,1,0,0:0:0:0:
276,236,10097,1,8,0:0:0:0:
308,48,10264,1,0,0:0:0:0:
180,328,10430,5,8,0:0:0:0:
224,344,10514,1,0,0:0:0:0:
268,356,10597,1,0,0:0:0:0:
316,348,10680,1,0,0:0:0:0:
372,336,10764,2,0,L|356:260,1,56.3999982788086
340,60,10930,2,0,L|324:136,1,56.3999982788086
260,192,11097,6,0,L|364:204,1,94,4|0,0:0|0:0,0:0:0:0:
468,320,11430,1,8,0:0:0:0:
256,280,11597,1,0,0:0:0:0:
480,176,11764,1,0,0:0:0:0:
240,88,11930,1,0,0:0:0:0:
364,312,12097,1,8,0:0:0:0:
424,44,12264,1,0,0:0:0:0:
424,44,12347,1,0,0:0:0:0:
424,44,12430,6,0,L|412:108,1,47,0|0,0:0|0:0,0:0:0:0:
256,280,12597,2,0,L|244:200,1,47,0|0,0:0|0:0,0:0:0:0:
48,84,12764,2,0,L|160:72,1,94,8|0,0:0|0:0,0:0:0:0:
356,204,13097,1,0,0:0:0:0:
136,320,13264,1,0,0:0:0:0:
240,24,13430,2,0,L|228:132,1,94,8|0,0:0|0:0,0:0:0:0:
496,264,13764,5,0,0:0:0:0:
452,248,13847,1,0,0:0:0:0:
408,264,13930,2,0,L|400:328,1,47,0|0,0:0|0:0,0:0:0:0:
261,373,14097,2,0,L|253:245,1,94,8|0,0:0|0:0,0:0:0:0:
36,224,14430,5,0,0:0:0:0:
84,232,14514,1,0,0:0:0:0:
128,212,14597,2,0,L|128:144,1,47,0|0,0:0|0:0,0:0:0:0:
240,24,14764,2,0,L|232:140,1,94,8|0,0:0|0:0,0:0:0:0:
348,336,15097,5,8,0:0:0:0:
348,31,15264,1,0,0:0:0:0:
169,277,15430,1,8,0:0:0:0:
458,183,15597,1,0,0:0:0:0:
169,89,15764,1,8,0:0:0:0:
208,112,15847,1,0,0:0:0:0:
252,124,15930,1,0,0:0:0:0:
300,120,16014,1,0,0:0:0:0:
344,108,16097,2,0,L|336:184,1,47,8|0,0:0|0:0,0:0:0:0:
244,352,16264,2,0,L|252:276,1,47,0|0,0:0|0:0,0:0:0:0:
72,100,16430,6,0,L|76:228,1,119.850002285957,4|0,0:0|0:0,0:0:0:0:
80,296,16764,1,8,0:0:0:0:
272,276,16930,1,0,0:0:0:0:
136,176,17097,1,0,0:0:0:0:
272,276,17264,1,0,0:0:0:0:
172,368,17430,1,8,0:0:0:0:
240,160,17597,1,0,0:0:0:0:
344,336,17764,6,0,P|389:331|432:340,1,79.9000015239716,0|0,0:0|0:0,0:0:0:0:
504,160,18097,2,0,P|464:168|416:156,1,79.9000015239716,8|0,0:0|0:0,0:0:0:0:
300,48,18430,1,0,0:0:0:0:
316,224,18597,1,0,0:0:0:0:
172,176,18764,2,0,L|280:156,1,79.9000015239716,8|0,0:0|0:0,0:0:0:0:
160,252,19097,6,0,P|116:232|128:116,1,159.800003047943,0|8,0:0|0:0,0:0:0:0:
244,296,19597,1,0,0:0:0:0:
72,340,19764,1,0,0:0:0:0:
244,276,19930,1,0,0:0:0:0:
416,344,20097,1,8,0:0:0:0:
244,256,20264,1,0,0:0:0:0:
456,40,20430,6,0,L|448:164,1,94,4|0,0:0|0:0,0:0:0:0:
152,344,20764,2,0,L|144:220,1,94,4|8,0:0|0:0,0:0:0:0:
312,28,21097,1,4,0:0:0:0:
280,360,21264,1,8,0:0:0:0:
200,80,21430,1,4,0:0:0:0:
372,272,21597,1,8,0:0:0:0:
198,284,21764,6,0,L|302:276,1,79.9000015239716,4|0,0:0|0:0,0:0:0:0:
356,151,22097,2,0,L|252:143,1,79.9000015239716,8|0,0:0|0:0,0:0:0:0:
150,165,22430,1,0,0:0:0:0:
198,284,22597,1,0,0:0:0:0:
356,151,22764,1,8,0:0:0:0:
248,83,22930,1,0,0:0:0:0:
325,275,23097,5,0,0:0:0:0:
150,165,23264,2,0,L|156:224,1,39.9500007619858,0|0,0:0|0:0,0:0:0:0:
197,283,23430,2,0,L|183:362,1,79.9000015239716,8|0,0:0|0:0,0:0:0:0:
472,240,23764,1,0,0:0:0:0:
252,188,23930,1,0,0:0:0:0:
472,240,24097,1,8,0:0:0:0:
380,36,24264,1,0,0:0:0:0:
380,36,24347,1,0,0:0:0:0:
380,36,24430,6,0,L|388:116,1,79.9000015239716
304,352,24764,1,8,0:0:0:0:
102,247,24930,2,0,P|174:231|246:259,1,119.850002285957,0|0,0:0|0:0,0:0:0:0:
248,260,25264,2,0,L|248:168,1,79.9000015239716,0|8,0:0|0:0,0:0:0:0:
44,72,25597,6,0,B|32:136|80:176|80:176|16:200|32:268,1,183.299991609192,0|0,0:0|0:0,0:0:0:0:
102,247,25930,1,0,0:0:0:0:
307,332,26097,1,8,0:0:0:0:
488,204,26264,1,0,0:0:0:0:
228,24,26430,1,0,0:0:0:0:
232,44,26514,1,0,0:0:0:0:
236,60,26597,1,8,0:0:0:0:
240,76,26680,1,0,0:0:0:0:
244,96,26764,2,0,L|264:52,1,39.9500007619858,8|8,0:3|0:3,0:0:0:0:
167,187,26930,2,0,L|184:224,1,39.9500007619858,4|4,0:3|0:3,0:0:0:0:
324,332,27097,6,0,P|336:256|404:236,1,141,4|0,0:0|0:0,0:0:0:0:
420,236,27430,1,0,0:0:0:0:
342,125,27597,2,0,L|336:32,1,94,2|0,0:0|0:0,0:0:0:0:
193,262,27930,2,0,L|200:356,1,94,2|0,0:0|0:0,0:0:0:0:
40,176,28264,6,0,L|140:164,1,94,4|0,0:0|0:0,0:0:0:0:
300,228,28597,1,0,0:0:0:0:
216,92,28764,1,8,0:0:0:0:
236,344,28930,1,0,0:0:0:0:
428,280,29097,5,0,0:0:0:0:
452,268,29180,1,0,0:0:0:0:
472,248,29264,1,0,0:0:0:0:
480,220,29347,1,0,0:0:0:0:
480,192,29430,2,0,L|460:124,1,47,8|0,0:0|0:0,0:0:0:0:
344,32,29597,2,0,L|334:77,1,47
176,136,29764,6,0,L|192:292,1,141,4|0,0:0|0:0,0:0:0:0:
200,356,30097,1,0,0:0:0:0:
480,160,30264,2,0,L|384:152,1,94,2|0,0:0|0:0,0:0:0:0:
96,284,30597,2,0,L|192:276,1,94,2|0,0:0|0:0,0:0:0:0:
312,20,30930,6,0,L|304:152,1,94,4|0,0:0|0:0,0:0:0:0:
280,356,31264,1,0,0:0:0:0:
176,136,31430,1,8,0:0:0:0:
428,268,31597,1,0,0:0:0:0:
132,208,31764,5,0,0:0:0:0:
112,188,31847,1,0,0:0:0:0:
100,160,31930,2,0,P|100:120|108:96,1,47,8|0,0:0|0:0,0:0:0:0:
292,232,32097,2,0,L|280:352,1,94,8|0,0:0|0:0,0:0:0:0:
32,308,32430,6,0,L|200:292,1,141.000005378723,4|2,0:0|0:0,0:0:0:0:
272,232,32930,1,0,0:0:0:0:
162,154,33097,2,0,L|174:318,1,141.000005378723,0|8,0:0|0:0,0:0:0:0:
492,340,33764,6,0,B|460:288|460:288|416:292|380:272,1,141.000005378723,0|2,0:0|0:0,0:0:0:0:
504,208,34264,1,0,0:0:0:0:
352,336,34430,2,0,B|384:272|384:272|366:232|376:192,1,141.000005378723,0|8,0:0|0:0,0:0:0:0:
216,24,35097,6,0,B|184:88|184:88|201:128|192:168,1,141.000005378723,0|2,0:0|0:0,0:0:0:0:
120,232,35597,1,0,0:0:0:0:
28,144,35764,2,0,L|116:136,1,70.5000026893617
264,348,36097,2,0,L|176:356,1,70.5000026893617,8|0,0:0|0:0,0:0:0:0:
44,272,36430,5,4,0:0:0:0:
387,323,36597,1,0,0:0:0:0:
120,232,36930,2,0,P|228:228|276:256,1,141,0|0,0:0|0:0,0:0:0:0:
276,264,37264,2,0,L|272:320,1,47,8|0,0:0|0:0,0:0:0:0:
387,323,37430,2,0,L|387:391,1,47,0|0,0:0|0:0,0:0:0:0:
496,256,37597,2,0,L|504:316,1,47,0|0,0:0|0:0,0:0:0:0:
400,52,37764,5,12,0:0:0:0:
279,357,37930,2,0,L|275:241,1,94,8|0,0:0|0:0,0:0:0:0:
440,144,38264,5,12,0:0:0:0:
144,360,38430,2,0,L|198:257,1,94,8|0,0:0|0:0,0:0:0:0:
436,240,38764,5,12,0:0:0:0:
44,272,38930,2,0,L|142:210,1,94,8|0,0:0|0:0,0:0:0:0:
387,323,39264,5,12,0:0:0:0:
28,140,39430,2,0,L|144:136,1,94,8|0,0:0|0:0,0:0:0:0:
387,323,39764,6,0,P|391:255|367:203,1,94,8|0,0:0|0:0,0:0:0:0:
118,44,40097,2,0,P|114:112|138:164,1,94,8|0,0:0|0:0,0:0:0:0:
284,252,40430,6,0,P|200:260|128:216,1,141,4|0,0:0|0:0,0:0:0:0:
128,212,40764,1,8,0:0:0:0:
16,288,40930,2,0,L|26:194,1,94
328,36,41264,2,0,L|320:129,1,94,0|8,0:0|0:0,0:0:0:0:
160,320,41597,6,0,B|220:300|220:300|244:336|288:340|288:340|312:320|360:316,1,188,4|0,0:0|0:0,0:0:0:0:
428,32,42097,1,8,0:0:0:0:
284,252,42264,1,8,0:0:0:0:
284,252,42347,1,8,0:0:0:0:
284,252,42430,2,0,L|268:164,1,47,8|0,0:0|0:0,0:0:0:0:
184,24,42597,2,0,L|164:96,1,47,8|0,0:0|0:0,0:0:0:0:
112,188,42764,2,0,L|176:200,1,47,8|0,0:0|0:0,0:0:0:0:
352,84,42930,2,0,L|272:68,1,47,12|0,0:0|0:0,0:0:0:0:
252,344,43264,6,0,P|316:328|376:336,1,119.850002285957,0|0,0:0|0:0,0:0:0:0:
392,328,43597,2,0,L|384:256,1,54.050001030922,0|0,0:0|0:0,0:0:0:0:
184,132,43764,2,0,L|188:208,1,54.050001030922,0|0,0:0|0:0,0:0:0:0:
392,328,43930,2,0,L|384:256,1,54.050001030922,0|0,0:0|0:0,0:0:0:0:
184,132,44097,6,0,L|192:280,1,141.000005378723,8|0,0:0|0:0,0:0:0:0:
308,200,44430,6,0,P|292:144|340:48,1,162.150003092766,4|0,0:0|0:0,0:0:0:0:
356,40,44764,2,0,L|428:48,1,54.050001030922,8|0,0:0|0:0,0:0:0:0:
480,128,44930,1,0,0:0:0:0:
280,348,45097,1,0,0:0:0:0:
488,232,45264,1,0,0:0:0:0:
232,240,45430,1,8,0:0:0:0:
448,344,45597,1,0,0:0:0:0:
278,80,45764,6,0,P|250:144|282:236,1,162.150003092766,0|0,0:0|0:0,0:0:0:0:
286,247,46097,2,0,L|186:235,1,54.050001030922,8|0,0:0|0:0,0:0:0:0:
352,152,46264,1,0,0:0:0:0:
260,332,46430,1,0,0:0:0:0:
64,280,46597,1,0,0:0:0:0:
277,230,46764,1,8,0:0:0:0:
64,184,46930,1,0,0:0:0:0:
472,40,47097,6,0,L|452:216,1,162.150003092766,0|0,0:0|0:0,0:0:0:0:
452,228,47430,1,8,0:0:0:0:
244,116,47597,1,0,0:0:0:0:
452,228,47764,1,0,0:0:0:0:
288,332,47930,1,0,0:0:0:0:
344,24,48097,1,8,0:0:0:0:
148,220,48264,6,0,L|288:208,1,108.100002061844,0|0,0:0|0:0,0:0:0:0:
68,156,48597,1,0,0:0:0:0:
160,348,48764,1,8,0:0:0:0:
175,142,48930,2,0,L|68:156,1,108.100002061844
288,332,49264,1,0,0:0:0:0:
324,312,49347,1,0,0:0:0:0:
368,304,49430,1,8,0:0:0:0:
420,316,49514,1,0,0:0:0:0:
464,288,49597,1,0,0:0:0:0:
476,236,49680,1,0,0:0:0:0:
452,188,49764,6,0,L|316:196,1,108.100002061844,4|0,0:0|0:0,0:0:0:0:
68,156,50097,1,8,0:0:0:0:
276,36,50264,2,0,P|296:124|260:208,1,162.150003092766,4|0,0:0|0:0,0:0:0:0:
256,204,50597,2,0,L|168:192,1,54.050001030922,0|0,0:0|0:0,0:0:0:0:
52,336,50764,2,0,L|184:328,1,108.100002061844,8|0,0:0|0:0,0:0:0:0:
440,296,51097,5,4,0:0:0:0:
184,264,51264,1,0,0:0:0:0:
440,296,51430,1,8,0:0:0:0:
292,356,51597,6,0,P|280:268|320:188,1,162.150003092766,4|0,0:0|0:0,0:0:0:0:
328,192,51930,2,0,L|384:204,1,54.050001030922,0|0,0:0|0:0,0:0:0:0:
168,348,52097,2,0,L|44:324,1,108.100002061844,8|0,0:0|0:0,0:0:0:0:
208,92,52430,5,0,0:0:0:0:
480,200,52597,1,4,0:0:0:0:
216,272,52764,1,8,0:0:0:0:
456,96,52930,1,0,0:0:0:0:
176,176,53097,1,0,0:0:0:0:
436,296,53264,1,0,0:0:0:0:
320,40,53430,1,8,0:0:0:0:
200,304,53597,1,0,0:0:0:0:
200,304,53764,6,0,L|88:296,1,108.100002061844
292,360,54097,1,0,0:0:0:0:
200,136,54264,2,0,L|216:8,1,108.100002061844,0|0,0:0|0:0,0:0:0:0:
480,144,54597,2,0,L|472:200,1,54.050001030922,0|0,0:0|0:0,0:0:0:0:
296,300,54764,2,0,L|304:244,1,54.050001030922,0|0,1:0|1:0,0:0:0:0:
480,144,54930,2,0,L|472:200,1,54.050001030922,0|0,1:0|1:0,0:0:0:0:
296,300,55097,6,0,L|328:108,1,162.150003092766,4|0,0:0|0:0,0:0:0:0:
322,140,55430,2,0,L|342:208,1,54.050001030922,8|0,0:0|0:0,0:0:0:0:
388,344,55597,1,0,0:0:0:0:
448,48,55764,1,0,0:0:0:0:
240,352,55930,1,0,0:0:0:0:
192,48,56097,1,8,0:0:0:0:
456,192,56264,1,0,0:0:0:0:
240,352,56430,6,0,P|228:272|160:236,1,162.150003092766,0|0,0:0|0:0,0:0:0:0:
161,236,56764,2,0,L|229:212,1,54.050001030922,8|0,0:0|0:0,0:0:0:0:
312,236,56930,1,0,0:0:0:0:
48,228,57097,1,0,0:0:0:0:
336,336,57264,1,0,0:0:0:0:
48,228,57430,1,8,0:0:0:0:
328,112,57597,1,0,0:0:0:0:
240,352,57764,6,0,B|248:292|248:292|232:248|232:248|248:176,1,162.150003092766,0|0,0:0|0:0,0:0:0:0:
256,152,58097,1,8,0:0:0:0:
128,316,58264,1,0,0:0:0:0:
376,320,58430,1,0,0:0:0:0:
252,44,58597,1,0,0:0:0:0:
240,352,58764,1,8,0:0:0:0:
252,44,58930,6,0,B|188:56|188:56|112:40,1,108.100002061844,0|0,0:0|0:0,0:0:0:0:
328,112,59264,1,0,0:0:0:0:
56,32,59430,1,8,0:0:0:0:
128,316,59597,2,0,L|128:240,1,54.050001030922,0|0,0:0|0:0,0:0:0:0:
128,184,59764,1,0,0:0:0:0:
308,284,59930,1,0,0:0:0:0:
476,184,60097,2,0,L|400:196,1,54.050001030922,8|0,0:0|0:0,0:0:0:0:
252,44,60264,2,0,L|328:32,1,54.050001030922,0|0,0:0|0:0,0:0:0:0:
352,88,60430,5,12,0:0:0:0:
176,312,60597,1,2,0:0:0:0:
252,44,60764,5,8,0:0:0:0:
268,344,60930,1,2,0:0:0:0:
156,56,61097,5,8,0:0:0:0:
368,332,61264,1,2,0:0:0:0:
80,116,61430,5,8,0:0:0:0:
436,272,61597,1,2,0:0:0:0:
436,272,61680,1,0,0:0:0:0:
436,272,61764,5,8,0:0:0:0:
168,280,61930,1,2,0:0:0:0:
468,148,62097,5,8,0:0:0:0:
252,352,62264,1,2,0:0:0:0:
400,80,62430,5,8,0:0:0:0:
360,344,62597,1,2,0:0:0:0:
280,44,62764,5,8,0:0:0:0:
252,352,62930,1,2,0:0:0:0:
436,272,63097,5,4,0:0:0:0:
328,160,63264,1,2,0:0:0:0:
328,160,63347,1,0,0:0:0:0:
328,160,63430,1,8,0:0:0:0:
216,264,63597,5,2,0:0:0:0:
216,264,63680,1,0,0:0:0:0:
216,264,63764,1,8,0:0:0:0:
128,128,63930,1,2,0:0:0:0:
128,128,64014,1,0,0:0:0:0:
128,128,64097,2,0,L|112:236,1,108.100002061844,8|2,0:0|0:0,0:0:0:0:
28,336,64347,1,0,0:0:0:0:
28,336,64430,6,0,L|16:276,1,54.050001030922,8|0,0:0|0:0,0:0:0:0:
219,210,64597,2,0,L|216:264,1,54.050001030922
384,344,64764,2,0,L|392:284,1,54.050001030922,8|0,0:0|0:0,0:0:0:0:
472,92,64930,2,0,L|480:200,1,108.100002061844,0|8,0:0|0:0,0:0:0:0:
224,136,65264,2,0,L|228:68,1,54.050001030922,0|0,0:0|0:0,0:0:0:0:
332,244,65430,2,0,L|328:312,1,54.050001030922,8|0,0:0|0:0,0:0:0:0:
216,264,65597,2,0,L|148:260,1,54.050001030922,0|0,0:0|0:0,0:0:0:0:
324,124,65764,5,4,0:0:0:0:
272,316,65930,1,8,3:0:0:0:
268,336,66014,1,8,3:0:0:0:
264,356,66097,1,4,3:0:0:0:
480,264,66264,6,0,L|368:248,1,108.100002061844,4|8,0:0|3:0,0:0:0:0:
332,244,66514,1,8,3:0:0:0:
332,244,66597,1,8,3:0:0:0:
500,184,66764,1,0,0:0:0:0:
416,32,66930,6,0,L|424:148,1,108.100002061844,4|0,0:0|0:0,0:0:0:0:
216,288,67264,2,0,L|229:340,1,54.050001030922
224,136,67430,2,0,L|237:83,1,54.050001030922,4|0,0:0|0:0,0:0:0:0:
132,208,67597,1,0,1:0:0:0:
112,208,67680,1,0,1:0:0:0:
92,208,67764,1,0,1:0:0:0:
72,208,67847,1,0,1:0:0:0:
52,208,67930,1,0,1:0:0:0:
32,208,68014,1,0,0:0:0:0:
12,208,68097,2,0,L|52:276,1,54.050001030922,0|0,1:0|1:0,0:0:0:0:
84,112,68264,2,0,L|124:44,1,54.050001030922,0|0,1:0|1:0,0:0:0:0:
220,352,68430,5,4,0:0:0:0:
476,224,68597,2,0,L|372:216,1,94,8|0,0:0|0:0,0:0:0:0:
220,28,68930,5,0,0:0:0:0:
312,336,69097,2,0,L|304:216,1,94,8|0,0:0|0:0,0:0:0:0:
340,36,69430,5,0,0:0:0:0:
36,160,69597,2,0,L|140:168,1,94,8|0,0:0|0:0,0:0:0:0:
376,228,69930,5,0,0:0:0:0:
160,248,70097,1,8,0:0:0:0:
220,28,70264,1,0,0:0:0:0:
312,336,70430,5,0,0:0:0:0:
480,216,70597,1,0,0:0:0:0:
480,216,70680,1,0,0:0:0:0:
480,216,70764,1,0,0:0:0:0:
288,112,70930,1,0,0:0:0:0:
208,344,71097,5,4,0:0:0:0:
288,112,71264,2,0,L|280:232,1,94,8|0,0:0|0:0,0:0:0:0:
436,336,71597,5,0,0:0:0:0:
160,248,71764,2,0,L|60:256,1,94,8|0,0:0|0:0,0:0:0:0:
208,48,72097,5,0,0:0:0:0:
336,216,72264,2,0,L|324:340,1,94,8|0,0:0|0:0,0:0:0:0:
144,152,72597,1,0,0:0:0:0:
400,88,72764,1,12,0:0:0:0:
160,248,72930,1,0,0:0:0:0:
472,192,73097,5,4,0:0:0:0:
160,248,73264,1,0,0:0:0:0:
112,248,73347,1,0,0:0:0:0:
72,220,73430,1,0,0:0:0:0:
48,180,73514,1,0,0:0:0:0:
40,132,73597,1,0,0:0:0:0:
60,88,73680,1,0,0:0:0:0:
96,56,73764,5,4,0:0:0:0:
240,176,73930,1,8,0:0:0:0:
240,176,74014,1,0,0:0:0:0:
240,176,74097,1,0,0:0:0:0:
192,356,74264,5,0,0:0:0:0:
336,236,74430,1,8,0:0:0:0:
336,236,74514,1,0,0:0:0:0:
336,236,74597,1,0,0:0:0:0:
500,192,74764,5,0,0:0:0:0:
328,128,74930,1,8,0:0:0:0:
328,128,75014,1,0,0:0:0:0:
328,128,75097,1,0,0:0:0:0:
304,336,75264,5,0,0:0:0:0:
233,82,75430,2,0,L|241:190,1,94,8|0,0:0|0:0,0:0:0:0:
60,276,75764,1,0,0:0:0:0:
304,336,75930,1,0,0:0:0:0:
60,276,76097,1,0,0:0:0:0:
384,220,76264,1,0,0:0:0:0:
384,220,76347,1,0,0:0:0:0:
384,220,76430,6,0,L|304:212,1,47,4|0,0:0|0:0,0:0:0:0:
216,208,76597,2,0,L|232:320,1,94,8|0,0:0|0:0,0:0:0:0:
186,89,76930,6,0,L|238:81,1,47
322,37,77097,2,0,L|342:149,1,94,8|0,0:0|0:0,0:0:0:0:
188,344,77430,5,0,0:0:0:0:
460,288,77597,2,0,P|484:200|444:132,1,141,8|0,0:0|0:0,0:0:0:0:
436,140,77930,6,0,L|384:148,1,47
300,224,78097,2,0,L|140:204,1,141,8|0,0:0|0:0,0:0:0:0:
80,140,78430,5,4,0:0:0:0:
