osu file format v14

[General]
AudioFilename: MARRY ME.mp3
AudioLeadIn: 2000
PreviewTime: 43180
Countdown: 0
SampleSet: Soft
StackLeniency: 0.7
Mode: 0
LetterboxInBreaks: 1
EpilepsyWarning: 1
WidescreenStoryboard: 1

[Editor]
Bookmarks: 39764
DistanceSpacing: 1
BeatDivisor: 8
GridSize: 4
TimelineZoom: 2.9

[Metadata]
Title:MERRY MERRY MERRY MENU... Ne!
TitleUnicode:MERRY MERRY MERRY MENU... ね!
Artist:Tamura Yukari
ArtistUnicode:田村ゆかり
Creator:moonlightleaf
Version:Insane
Source:
Tags:Minakami Yuki cute japanese jpop christmas song carol ufw star Koiyuki Karia kanor karen Crz Sword Rumia- kencho Lami yf_bmp intoon little kawaiwkyik rizia CloudSplash16
BeatmapID:1064354
BeatmapSetID:161089

[Difficulty]
HPDrainRate:7
CircleSize:4
OverallDifficulty:8
ApproachRate:9
SliderMultiplier:1.8
SliderTickRate:1

[Events]
//Background and Video events
0,0,"tt.jpg",0,0
//Break Periods
//Storyboard Layer 0 (Background)
//Storyboard Layer 1 (Fail)
//Storyboard Layer 2 (Pass)
//Storyboard Layer 3 (Foreground)
Sprite,Foreground,Centre,"SB\white.jpg",320,240 C,0,5764,,200,200,255 F,0,5764,6264,0,0.5457271 M,0,5764,16430,320,240,319.1742,240 F,0,6264,6430,0.5 F,0,6430,,0.545648 C,0,16430,,254,233,216 M,0,16430,32430,319.1742,240,319.544,240 F,0,16431,26763,0.37 C,0,26764,,200,200,255 F,0,26764,32430,0.34 C,0,32432,,254,233,216 F,0,41597,43264,0.37,1 C,0,41597,43264,254,233,216,0,0,0 F,0,43264,44430,1,0
Sprite,Foreground,Centre,"Mapper\moonlightleaf+.png",320,240 F,0,5764,6264,0,1 M,0,5764,16430,547.8452,419.2,470.7968,419.2 F,0,16097,16430,1,0
Sprite,Foreground,Centre,"Mapper\moonlightleaf.png",320,240 C,0,5764,,223,64,251 F,0,5764,6264,0,1 M,0,5764,16430,547.8452,419.2,470.7968,419.2 F,0,16097,16430,1,0
Sprite,Foreground,Centre,"sb\light1.png",411,334 S,0,431,597,0,1.67 F,0,597,764,1,0
Sprite,Foreground,Centre,"sb\light1.png",358,197 S,0,597,763,0,1.67 F,0,763,930,1,0
Sprite,Foreground,Centre,"sb\light1.png",480,276 S,0,930,1096,0,1.67 F,0,1096,1263,1,0
Sprite,Foreground,Centre,"sb\light1.png",335,284 S,0,1097,1263,0,1.67 F,0,1263,1430,1,0
Sprite,Foreground,Centre,"sb\light1.png",448,192 C,0,1430,,141,90,134 S,0,1430,1596,0,1.67 F,0,1596,1763,1,0
Sprite,Foreground,Centre,"sb\light1.png",402,343 S,0,1597,1763,0,1.67 F,0,1763,1930,1,0
Sprite,Foreground,Centre,"sb\light1.png",358,197 S,0,1930,2096,0,1.67 F,0,2096,2263,1,0
Sprite,Foreground,Centre,"sb\light1.png",480,276 C,0,2097,,128,128,204 S,0,2097,2263,0,1.67 F,0,2263,2430,1,0
Sprite,Foreground,Centre,"sb\light1.png",336,375 S,0,2430,2596,0,1.67 F,0,2596,2763,1,0
Sprite,Foreground,Centre,"sb\light1.png",275,248 S,0,3097,3263,0,1.67 F,0,3263,3430,1,0
Sprite,Foreground,Centre,"sb\light1.png",388,234 S,0,3264,3430,0,1.67 F,0,3430,3597,1,0
Sprite,Foreground,Centre,"sb\light1.png",275,248 S,0,3597,3763,0,1.67 F,0,3763,3930,1,0
Sprite,Foreground,Centre,"sb\light1.png",346,157 S,0,3764,3930,0,1.67 F,0,3930,4097,1,0
Sprite,Foreground,Centre,"sb\light1.png",275,248 S,0,4097,4263,0,1.67 F,0,4263,4430,1,0
Sprite,Foreground,Centre,"sb\light1.png",261,134 S,0,4264,4430,0,1.67 F,0,4430,4597,1,0
Sprite,Foreground,Centre,"sb\light1.png",275,248 S,0,4597,4763,0,1.67 F,0,4763,4930,1,0
Sprite,Foreground,Centre,"sb\light1.png",184,176 S,0,4764,4930,0,1.67 F,0,4930,5097,1,0
Sprite,Foreground,Centre,"sb\light1.png",346,157 S,0,5097,5263,0,1.67 F,0,5263,5430,1,0
Sprite,Foreground,Centre,"SB\light1.png",320,240 M,0,5430,,347,190 S,0,5430,5764,0,3 F,0,5597,5764,1,0
//Storyboard Sound Samples

[TimingPoints]
431,333.333333333333,4,2,1,70,1,0
35764,-153.846153846153,4,2,1,70,0,0
36097,-121.951219512195,4,2,1,70,0,0
36430,-100,4,2,1,70,0,0
43264,-133.333333333333,4,2,1,70,0,0
43764,-100,4,2,1,70,0,0
44430,-100,4,2,1,70,0,1
44764,-80,4,2,1,70,0,1
44930,-100,4,2,1,70,0,1
46097,-80,4,2,1,70,0,1
46264,-100,4,2,1,70,0,1
55430,-80,4,2,1,70,0,1
55597,-100,4,2,1,70,0,1
56764,-80,4,2,1,70,0,1
56930,-100,4,2,1,70,0,1
73764,-100,4,2,1,70,0,0

[Colours]
Combo1 : 246,236,234
Combo2 : 128,128,204
Combo3 : 227,147,119
Combo4 : 141,90,134

[HitObjects]
348,280,431,5,4,0:0:0:0:
295,143,597,2,0,P|297:98|322:61,1,90
417,222,930,5,4,0:0:0:0:
271,229,1097,2,0,P|232:208|210:170,1,90
385,138,1430,5,4,0:0:0:0:
348,280,1597,2,0,P|316:311|273:321,1,90
295,143,1930,21,4,0:0:0:0:
417,222,2097,2,0,P|436:261|433:306,1,90
273,321,2430,5,4,0:0:0:0:
212,194,3097,5,6,0:0:0:0:
325,180,3264,2,0,P|364:201|384:240,1,90,2|0,0:0|0:0,0:0:0:0:
212,194,3597,5,4,0:0:0:0:
283,103,3764,2,0,P|325:89|367:103,1,90,2|0,0:0|0:0,0:0:0:0:
212,194,4097,21,4,0:0:0:0:
198,80,4264,2,0,P|219:42|258:21,1,90,2|0,0:0|0:0,0:0:0:0:
212,194,4597,5,4,0:0:0:0:
121,122,4764,2,0,P|109:80|122:38,1,90,2|0,0:0|0:0,0:0:0:0:
283,103,5097,5,4,0:0:0:0:
284,136,5430,2,0,L|285:158,6,22.5,8|0|0|0|0|0|0,0:0|0:0|0:0|0:0|0:0|0:0|0:0,0:0:0:0:
292,228,5764,5,4,0:0:0:0:
412,292,5930,1,0,0:0:0:0:
424,156,6097,1,2,0:0:0:0:
328,300,6264,1,0,0:0:0:0:
356,112,6430,1,0,0:0:0:0:
460,228,6597,1,2,0:0:0:0:
428,72,6764,1,2,0:0:0:0:
379,220,6931,1,0,0:0:0:0:
217,259,7097,22,0,P|229:216|263:187,1,90
260,328,7430,2,0,P|216:338|175:323,1,90,2|0,0:0|0:0,0:0:0:0:
300,260,7764,1,0,0:0:0:0:
338,335,7930,1,0,0:0:0:0:
438,193,8097,1,2,0:0:0:0:
389,263,8263,1,0,0:0:0:0:
308,108,8430,5,2,0:0:0:0:
263,110,8513,1,0,0:0:0:0:
223,130,8596,1,0,0:0:0:0:
195,164,8680,1,0,0:0:0:0:
183,208,8764,2,0,L|96:187,1,90,6|0,0:0|0:0,0:0:0:0:
153,297,9097,5,2,0:0:0:0:
197,295,9180,1,0,0:0:0:0:
237,275,9263,1,0,0:0:0:0:
265,241,9347,1,0,0:0:0:0:
278,198,9431,2,0,L|365:219,1,90,6|0,0:0|0:0,0:0:0:0:
484,316,9764,21,2,0:0:0:0:
453,231,9930,1,0,0:0:0:0:
400,344,10097,1,2,0:0:0:0:
422,146,10264,1,0,0:0:0:0:
288,289,10430,2,0,P|248:270|220:236,1,90,4|0,0:0|0:0,0:0:0:0:
259,58,10764,2,0,P|299:77|328:112,1,90,8|0,0:0|0:0,0:0:0:0:
367,257,11097,5,4,0:0:0:0:
367,257,11264,1,0,0:0:0:0:
298,203,11430,1,2,0:0:0:0:
288,289,11597,1,2,0:0:0:0:
272,172,11764,1,0,0:0:0:0:
273,312,11930,1,0,0:0:0:0:
248,144,12097,1,2,0:0:0:0:
256,336,12264,1,0,0:0:0:0:
208,240,12430,5,2,0:0:0:0:
339,251,12597,1,2,0:0:0:0:
339,251,12680,1,0,0:0:0:0:
339,251,12764,2,0,L|350:161,1,90
368,36,13097,1,2,0:0:0:0:
480,116,13264,1,0,0:0:0:0:
304,92,13430,2,0,B|284:80|284:80|280:146,1,90,2|0,0:0|0:0,0:0:0:0:
235,320,13764,21,2,0:0:0:0:
191,313,13847,1,0,0:0:0:0:
154,290,13930,1,0,0:0:0:0:
130,252,14014,1,0,0:0:0:0:
123,208,14097,2,0,L|82:288,1,90,6|0,0:0|0:0,0:0:0:0:
112,108,14430,5,2,0:0:0:0:
156,114,14513,1,0,0:0:0:0:
193,137,14596,1,0,0:0:0:0:
217,175,14680,1,0,0:0:0:0:
224,219,14763,2,0,L|265:139,1,90,6|0,0:0|0:0,0:0:0:0:
360,48,15097,5,2,0:0:0:0:
464,104,15264,1,0,0:0:0:0:
464,104,15347,1,0,0:0:0:0:
464,104,15430,1,2,0:0:0:0:
366,170,15597,1,0,0:0:0:0:
366,170,15680,1,0,0:0:0:0:
366,170,15764,5,6,0:0:0:0:
272,100,15930,1,0,0:0:0:0:
196,148,16097,1,2,0:0:0:0:
112,120,16263,1,0,0:0:0:0:
80,216,16430,22,0,P|95:257|87:301,1,90,4|0,0:0|0:0,0:0:0:0:
5,265,16764,1,2,0:0:0:0:
20,144,16930,1,0,0:0:0:0:
86,301,17097,2,0,L|170:269,1,90,2|0,0:0|0:0,0:0:0:0:
80,216,17430,1,0,0:0:0:0:
144,364,17597,1,0,0:0:0:0:
242,222,17764,6,0,P|208:193|165:186,1,90,2|0,0:0|0:0,0:0:0:0:
343,262,18097,2,0,L|357:173,1,90,2|2,0:0|0:0,0:0:0:0:
379,62,18430,1,2,0:0:0:0:
357,173,18597,1,0,0:0:0:0:
279,106,18764,1,2,0:0:0:0:
455,134,18930,1,0,0:0:0:0:
383,257,19097,6,0,P|338:259|300:237,1,90,2|0,0:0|0:0,0:0:0:0:
182,180,19430,1,0,0:0:0:0:
208,292,19597,1,0,0:0:0:0:
256,177,19764,1,2,0:0:0:0:
140,248,19930,1,0,0:0:0:0:
264,352,20097,2,0,L|360:328,1,90,2|0,0:0|0:0,0:0:0:0:
392,108,20430,6,0,L|304:129,1,90,4|0,0:0|0:0,0:0:0:0:
256,177,20680,1,0,0:0:0:0:
256,177,20764,2,0,P|272:218|279:262,1,90,2|0,0:0|0:0,0:0:0:0:
456,252,21097,2,0,L|461:207,1,45,2|0,0:0|0:0,0:0:0:0:
467,128,21264,1,0,0:0:0:0:
464,83,21347,1,0,0:0:0:0:
437,48,21430,1,2,0:0:0:0:
395,33,21513,1,0,0:0:0:0:
352,43,21597,1,0,0:0:0:0:
324,76,21680,1,0,0:0:0:0:
288,104,21764,6,0,L|198:91,1,90,4|0,0:0|0:0,0:0:0:0:
52,72,22097,1,0,0:0:0:0:
128,24,22264,1,0,0:0:0:0:
103,227,22430,2,0,P|70:199|58:156,1,90,2|0,0:0|0:0,0:0:0:0:
153,293,22764,2,0,P|111:308|68:300,1,90,2|0,0:0|0:0,0:0:0:0:
136,156,23097,5,2,0:0:0:0:
216,220,23264,1,0,0:0:0:0:
228,124,23430,1,2,0:0:0:0:
153,293,23597,1,0,0:0:0:0:
303,184,23764,2,0,P|346:175|390:186,1,90,2|0,0:0|0:0,0:0:0:0:
272,324,24097,1,0,0:0:0:0:
216,220,24264,1,0,0:0:0:0:
344,264,24430,21,2,0:0:0:0:
304,108,24597,2,0,B|304:18,1,90,2|0,0:0|0:0,0:0:0:0:
390,186,24930,2,0,L|431:266,1,90,2|0,0:0|0:0,0:0:0:0:
268,275,25264,2,0,L|226:355,1,90,2|0,0:0|0:0,0:0:0:0:
198,63,25597,2,0,L|240:144,1,90,2|0,0:0|0:0,0:0:0:0:
356,264,25930,5,0,0:0:0:0:
460,272,26097,1,2,0:0:0:0:
492,176,26264,1,0,0:0:0:0:
343,184,26430,1,2,0:0:0:0:
304,204,26513,1,0,0:0:0:0:
281,242,26596,1,0,0:0:0:0:
282,287,26679,1,0,0:0:0:0:
305,325,26764,2,0,L|348:338,1,45,2|0,0:0|0:0,0:0:0:0:
398,250,26930,2,0,L|356:264,1,45,0|0,0:0|0:0,0:0:0:0:
282,287,27097,5,4,0:0:0:0:
248,292,27430,5,2,0:0:0:0:
120,176,27597,1,4,0:0:0:0:
128,208,27930,6,0,L|216:193,1,90,4|2,0:0|0:0,0:0:0:0:
60,278,28264,2,0,L|136:328,1,90,4|2,0:0|0:2,0:0:0:0:
244,364,28597,21,0,0:0:0:0:
216,193,28764,1,2,0:0:0:0:
332,268,28930,2,0,L|329:223,1,45
404,164,29097,2,0,L|401:208,1,45,2|0,0:0|0:0,0:0:0:0:
484,171,29264,1,0,0:0:0:0:
475,128,29347,1,0,0:0:0:0:
444,96,29430,1,2,0:0:0:0:
401,85,29513,1,0,0:0:0:0:
359,98,29597,1,0,0:0:0:0:
330,132,29680,1,0,0:0:0:0:
288,148,29764,6,0,L|199:134,1,90,4|0,0:0|0:0,0:0:0:0:
76,116,30097,1,2,0:0:0:0:
116,276,30264,2,0,L|148:368,1,90,4|0,0:0|0:0,0:0:0:0:
120,240,30597,2,0,L|203:274,1,90,4|0,0:0|0:0,0:0:0:0:
127,204,30930,2,0,L|210:170,1,90,4|0,0:0|0:0,0:0:0:0:
264,228,31264,5,0,0:0:0:0:
248,96,31430,1,2,0:0:0:0:
132,168,31597,1,0,0:0:0:0:
203,274,31764,1,2,0:0:0:0:
238,300,31847,1,0,0:0:0:0:
283,303,31930,1,0,0:0:0:0:
321,280,32013,1,0,0:0:0:0:
340,240,32097,2,0,L|332:196,1,45,2|0,0:0|0:0,0:0:0:0:
248,96,32264,2,0,L|240:140,1,45
282,302,32430,22,0,P|361:339|437:297,1,180,4|2,0:0|0:0,0:0:0:0:
512,212,32930,1,0,0:0:0:0:
456,120,33097,1,0,0:0:0:0:
340,240,33264,1,0,0:0:0:0:
356,144,33430,1,2,0:0:0:0:
424,212,33597,1,0,0:0:0:0:
242,332,33764,6,0,P|203:253|223:167,1,180,4|2,0:0|0:0,0:0:0:0:
300,84,34264,1,0,0:0:0:0:
224,168,34430,1,0,0:0:0:0:
128,40,34597,1,0,0:0:0:0:
68,156,34764,1,2,0:0:0:0:
236,36,34930,1,0,0:0:0:0:
248,240,35097,5,2,0:0:0:0:
172,108,35264,1,0,0:0:0:0:
68,156,35430,1,0,0:0:0:0:
280,104,35597,1,0,0:0:0:0:
144,184,35764,22,0,L|144:243,1,58.4999973220826,2|0,0:0|0:0,0:0:0:0:
248,240,36097,22,0,L|259:312,1,73.8000011260987,2|0,0:2|0:0,0:0:0:0:
344,192,36430,37,4,0:0:0:0:
440,307,36597,2,0,L|454:218,1,90,2|0,0:0|0:0,0:0:0:0:
432,59,36930,2,0,P|366:62|311:100,1,135,2|0,0:0|0:0,0:0:0:0:
276,128,37264,1,0,0:0:0:0:
233,138,37347,1,0,0:0:0:0:
188,132,37430,1,2,0:0:0:0:
144,122,37514,1,0,0:0:0:0:
100,114,37597,1,0,0:0:0:0:
57,125,37680,1,0,0:0:0:0:
24,156,37764,37,4,0:0:0:0:
90,305,37930,2,0,L|100:216,1,90,0|0,0:0|0:0,0:0:0:0:
192,297,38264,5,4,0:0:0:0:
233,138,38430,2,0,L|256:224,1,90,0|0,0:0|0:0,0:0:0:0:
489,293,38764,5,4,0:0:0:0:
422,144,38930,2,0,L|413:233,1,90,0|0,0:0|0:0,0:0:0:0:
321,152,39264,21,4,0:0:0:0:
280,311,39430,2,0,L|256:225,1,90,0|0,0:0|0:0,0:0:0:0:
224,76,39764,5,4,0:0:0:0:
188,60,40097,5,2,0:0:0:0:
148,64,40430,5,4,0:0:0:0:
112,80,40764,5,2,0:0:0:0:
216,184,40930,1,0,0:0:0:0:
232,228,41014,1,0,0:0:0:0:
220,272,41097,1,0,0:0:0:0:
60,244,41264,2,0,L|148:230,1,90,0|2,0:0|0:0,0:0:0:0:
324,364,41597,2,0,L|236:350,1,90,4|2,0:0|0:0,0:0:0:0:
116,328,41930,5,0,0:0:0:0:
116,328,42014,1,0,0:0:0:0:
116,328,42097,1,2,0:0:0:0:
60,244,42264,1,0,0:0:0:0:
60,244,42347,1,0,0:0:0:0:
60,244,42430,1,2,0:0:0:0:
176,144,42597,1,0,0:0:0:0:
148,228,42763,1,2,0:0:0:0:
48,112,42930,1,4,0:0:0:0:
63,100,43264,6,0,P|118:62|184:67,1,135.000005149842
280,132,43764,5,2,0:0:0:0:
316,44,43930,1,0,0:0:0:0:
348,212,44097,1,2,0:0:0:0:
384,124,44263,1,0,0:0:0:0:
216,200,44430,2,0,B|176:152|196:96|196:96|173:102,1,135,4|0,0:0|0:0,0:0:0:0:
117,152,44764,6,0,B|96:164|96:164|64:116|16:112,1,112.5,8|0,0:0|0:0,0:0:0:0:
104,52,45097,5,2,0:0:0:0:
64,264,45264,1,0,0:0:0:0:
173,101,45430,1,2,0:0:0:0:
12,196,45597,1,0,0:0:0:0:
135,336,45764,2,0,B|175:288|155:232|155:232|178:238,1,135,4|0,0:0|0:0,0:0:0:0:
236,284,46097,38,0,B|265:296|265:296|269:248|313:220,1,112.5,8|0,0:0|0:0,0:0:0:0:
452,88,46430,5,0,0:0:0:0:
436,244,46597,1,0,0:0:0:0:
360,180,46764,1,2,0:0:0:0:
508,168,46930,1,0,0:0:0:0:
403,339,47097,6,0,P|364:319|340:282,1,90,2|0,0:0|0:0,0:0:0:0:
256,212,47430,1,2,0:0:0:0:
160,328,47597,1,0,0:0:0:0:
229,288,47764,2,0,P|262:316|275:359,1,90,2|0,0:0|0:0,0:0:0:0:
88,364,48097,1,2,0:0:0:0:
84,252,48264,6,0,L|81:162,1,90,4|0,0:0|0:0,0:0:0:0:
305,240,48597,2,0,L|228:287,1,90,2|0,0:0|0:0,0:0:0:0:
176,56,48930,2,0,L|255:98,1,90,4|0,0:0|0:0,0:0:0:0:
398,164,49264,1,0,0:0:0:0:
398,164,49347,1,0,0:0:0:0:
398,164,49430,2,0,L|380:76,1,90,2|0,0:0|0:0,0:0:0:0:
424,304,49764,21,4,0:0:0:0:
492,144,49930,1,0,0:0:0:0:
312,256,50097,1,2,0:0:0:0:
488,236,50264,1,4,0:0:0:0:
472,224,50597,1,0,0:0:0:0:
311,177,50764,2,0,L|224:153,1,90,2|0,0:0|0:0,0:0:0:0:
88,116,51097,5,4,0:0:0:0:
124,232,51264,1,0,0:0:0:0:
160,48,51430,1,2,0:0:0:0:
44,192,51597,1,4,0:0:0:0:
60,188,51930,1,0,0:0:0:0:
208,260,52096,1,2,0:0:0:0:
252,120,52264,1,0,0:0:0:0:
252,120,52347,1,0,0:0:0:0:
252,120,52430,6,0,L|270:208,1,90,4|0,0:0|0:0,0:0:0:0:
420,328,52764,2,0,L|340:288,1,90,2|0,0:0|0:0,0:0:0:0:
188,380,53097,2,0,L|244:309,1,90,0|0,0:0|0:0,0:0:0:0:
360,200,53430,1,2,0:0:0:0:
188,244,53597,1,0,0:0:0:0:
308,360,53764,21,2,0:0:0:0:
280,232,53930,2,0,L|261:143,1,90,0|0,0:0|0:0,0:0:0:0:
296,40,54264,2,0,P|334:61|360:98,1,90,2|0,0:0|0:0,0:0:0:0:
360,255,54597,1,0,0:0:0:0:
336,294,54680,1,0,0:0:0:0:
297,314,54763,1,2,0:0:0:0:
253,312,54847,1,0,0:0:0:0:
216,287,54930,1,0,0:0:0:0:
200,244,55014,1,0,0:0:0:0:
200,200,55097,6,0,P|145:162|78:164,1,135,4|0,0:0|0:0,0:0:0:0:
36,224,55430,22,0,B|44:260|44:260|36:300|36:300|42:334,1,112.5,8|0,0:0|0:0,0:0:0:0:
200,244,55764,5,2,0:0:0:0:
180,364,55930,1,0,0:0:0:0:
116,264,56097,1,2,0:0:0:0:
260,312,56264,1,0,0:0:0:0:
392,224,56430,2,0,P|331:200|275:233,1,135,4|0,0:0|0:0,0:0:0:0:
200,244,56764,38,0,B|188:204|188:204|188:160|188:160|180:134,1,112.5,8|0,0:0|0:0,0:0:0:0:
160,20,57097,21,2,0:0:0:0:
80,100,57264,1,0,0:0:0:0:
232,68,57430,1,2,0:0:0:0:
196,216,57597,1,0,0:0:0:0:
51,232,57764,2,0,P|76:194|116:173,1,90,4|0,0:0|0:0,0:0:0:0:
264,152,58097,1,2,0:0:0:0:
256,292,58264,1,0,0:0:0:0:
147,350,58430,2,0,P|134:307|135:263,1,90,2|2,0:0|0:0,0:0:0:0:
180,108,58764,1,2,0:0:0:0:
300,224,58930,6,0,L|389:234,1,90,2|0,0:0|0:0,0:0:0:0:
344,112,59264,2,0,L|420:172,1,90,2|0,0:0|0:0,0:0:0:0:
440,40,59597,2,0,L|472:124,1,90,2|0,0:0|0:0,0:0:0:0:
483,231,59930,1,0,0:0:0:0:
475,275,60013,1,0,0:0:0:0:
446,309,60097,2,0,B|428:320|428:320|364:296,1,90,2|0,0:0|0:0,0:0:0:0:
264,208,60430,22,0,P|225:185|181:185,1,90,4|0,0:0|0:0,0:0:0:0:
40,264,60764,2,0,P|78:286|122:286,1,90,2|0,0:0|0:0,0:0:0:0:
123,124,61097,2,0,P|101:162|101:206,1,90,2|0,0:0|0:0,0:0:0:0:
180,347,61430,2,0,P|202:309|202:265,1,90,2|0,0:0|0:0,0:0:0:0:
264,208,61680,1,0,0:0:0:0:
264,208,61764,6,0,L|352:194,1,90,4|0,0:0|0:0,0:0:0:0:
468,76,62097,2,0,L|435:159,1,90,2|0,0:0|0:0,0:0:0:0:
476,316,62430,2,0,L|419:245,1,90,2|0,0:0|0:0,0:0:0:0:
364,96,62764,2,0,B|336:72|336:72|284:61,1,90,2|0,0:0|0:0,0:0:0:0:
176,208,63097,6,0,B|227:197|227:197|255:173,1,90,4|0,0:0|0:0,0:0:0:0:
104,128,63430,2,0,B|74:172|74:172|72:209,1,90,2|0,0:0|0:0,0:0:0:0:
208,368,63764,2,0,B|210:314|210:314|194:281,1,90,2|0,0:0|0:0,0:0:0:0:
36,136,64097,1,2,0:0:0:0:
80,288,64264,1,0,0:0:0:0:
164,188,64430,22,0,L|251:167,1,90,2|0,0:0|0:0,0:0:0:0:
436,260,64764,2,0,L|348:239,1,90,2|0,0:0|0:0,0:0:0:0:
192,88,65097,1,2,0:0:0:0:
224,272,65264,1,0,0:0:0:0:
224,272,65347,1,0,0:0:0:0:
224,272,65430,1,2,0:0:0:0:
235,228,65513,1,0,0:0:0:0:
260,191,65596,1,0,0:0:0:0:
296,165,65680,1,0,0:0:0:0:
339,152,65763,5,4,0:0:0:0:
460,176,65930,1,0,0:0:0:0:
460,176,66014,1,0,0:0:0:0:
460,176,66097,1,0,0:0:0:0:
424,68,66264,1,4,0:0:0:0:
384,232,66430,1,0,0:0:0:0:
384,232,66514,1,0,0:0:0:0:
384,232,66597,1,2,0:0:0:0:
488,304,66764,1,0,0:0:0:0:
380,148,66930,1,4,0:0:0:0:
348,140,67264,5,4,0:0:0:0:
192,204,67430,1,4,0:0:0:0:
124,152,67597,1,0,0:0:0:0:
158,124,67680,1,0,0:0:0:0:
202,118,67763,1,0,0:0:0:0:
243,136,67846,1,0,0:0:0:0:
269,172,67930,1,0,0:0:0:0:
294,208,68013,1,0,0:0:0:0:
335,226,68097,2,0,L|379:220,1,45,0|0,0:0|0:0,0:0:0:0:
392,145,68264,2,0,L|347:139,1,45,0|0,0:0|0:0,0:0:0:0:
243,136,68430,21,4,0:0:0:0:
47,199,68597,2,0,P|36:156|42:112,1,90,2|0,0:0|0:0,0:0:0:0:
248,120,68930,5,4,0:0:0:0:
169,309,69097,2,0,P|128:289|99:255,1,90,2|0,0:0|0:0,0:0:0:0:
256,104,69430,5,6,0:0:0:0:
332,292,69597,2,0,P|290:307|246:304,1,90
264,92,69930,21,4,0:0:0:0:
451,170,70097,2,0,P|432:210|398:239,1,90
224,292,70430,1,4,0:0:0:0:
171,208,70597,1,0,0:0:0:0:
214,193,70680,1,0,0:0:0:0:
258,199,70763,1,2,0:0:0:0:
318,262,70930,1,0,0:0:0:0:
305,348,71096,5,4,0:0:0:0:
141,327,71264,2,0,L|224:292,1,90,2|0,0:0|0:0,0:0:0:0:
216,328,71597,5,4,0:0:0:0:
84,226,71765,2,0,L|173:237,1,90,2|0,0:0|0:0,0:0:0:0:
148,264,72097,21,4,0:0:0:0:
84,109,72265,2,0,L|155:163,1,90,2|0,0:0|0:0,0:0:0:0:
120,172,72597,5,4,0:0:0:0:
142,5,72765,2,0,L|177:87,1,90,2|0,0:0|0:0,0:0:0:0:
220,208,73097,1,4,0:0:0:0:
255,128,73264,1,0,0:0:0:0:
299,116,73347,1,0,0:0:0:0:
343,119,73430,1,0,0:0:0:0:
384,138,73513,1,0,0:0:0:0:
417,169,73597,1,0,0:0:0:0:
437,209,73680,1,0,0:0:0:0:
442,253,73763,5,4,0:0:0:0:
492,152,73930,2,0,L|500:52,1,90,2|0,0:0|0:0,0:0:0:0:
388,40,74264,21,4,0:0:0:0:
348,200,74430,2,0,L|303:121,1,90,2|0,0:0|0:0,0:0:0:0:
303,121,74680,1,0,0:0:0:0:
304,122,74764,5,4,0:0:0:0:
242,241,74931,2,0,L|250:341,1,90,2|0,0:0|0:0,0:0:0:0:
151,82,75265,5,4,0:0:0:0:
101,184,75430,2,0,L|93:284,1,90,2|0,0:0|0:0,0:0:0:0:
24,88,75764,1,4,0:0:0:0:
188,160,75930,1,0,0:0:0:0:
188,160,76014,1,0,0:0:0:0:
188,160,76097,2,0,L|208:200,1,45,2|0,0:0|0:0,0:0:0:0:
256,272,76264,2,0,L|276:231,1,45,0|0,0:0|0:0,0:0:0:0:
312,160,76430,21,4,0:0:0:0:
439,197,76597,2,0,P|450:240|440:284,1,90,2|0,0:0|0:0,0:0:0:0:
392,120,76930,5,4,0:0:0:0:
275,231,77097,2,0,P|233:218|200:188,1,90,2|0,0:0|0:0,0:0:0:0:
360,240,77430,5,4,0:0:0:0:
392,120,77597,2,0,L|384:30,1,90,2|0,0:0|0:0,0:0:0:0:
280,140,77930,21,4,0:0:0:0:
144,120,78097,2,0,L|151:30,1,90,2|0,0:0|0:0,0:0:0:0:
240,256,78430,5,4,0:0:0:0:
