osu file format v14

[General]
AudioFilename: audio.mp3
AudioLeadIn: 0
PreviewTime: 43096
Countdown: 0
SampleSet: Soft
StackLeniency: 0.7
Mode: 3
LetterboxInBreaks: 0
SpecialStyle: 0
WidescreenStoryboard: 0

[Editor]
DistanceSpacing: 1
BeatDivisor: 4
GridSize: 4
TimelineZoom: 1.7

[Metadata]
Title:MERRY MERRY MERRY MENU... Ne!
TitleUnicode:MERRY MERRY MERRY MENU... ね!
Artist:Tamura Yukari
ArtistUnicode:田村ゆかり
Creator:hannanos
Version:Easy
Source:
Tags:xmas christmas kaythen
BeatmapID:1138142
BeatmapSetID:536964

[Difficulty]
HPDrainRate:7
CircleSize:9
OverallDifficulty:7
ApproachRate:5
SliderMultiplier:1.4
SliderTickRate:1

[Events]
//Background and Video events
0,0,"bg.jpg",0,0
//Break Periods
//Storyboard Layer 0 (Background)
//Storyboard Layer 1 (Fail)
//Storyboard Layer 2 (Pass)
//Storyboard Layer 3 (Foreground)
//Storyboard Sound Samples

[TimingPoints]
430,333.333333333333,4,2,1,40,1,0
44429,-100,4,2,1,40,0,1
60096,-100,4,2,1,40,0,0
60429,-100,4,2,1,40,0,1
78429,-100,4,2,1,40,0,0

[HitObjects]
199,192,430,5,8,1:0:0:0:
312,192,596,1,8,1:0:0:0:
142,192,929,1,8,1:0:0:0:
369,192,1096,1,8,1:0:0:0:
85,192,1429,1,8,1:0:0:0:
426,192,1596,1,8,1:0:0:0:
312,192,1929,1,8,1:0:0:0:
199,192,2096,1,8,1:0:0:0:
28,192,2429,1,4,2:0:0:0:
483,192,2429,1,0,1:0:0:0:
312,192,3096,1,8,1:0:0:0:
199,192,3263,1,8,1:0:0:0:
369,192,3596,1,8,1:0:0:0:
142,192,3763,1,8,1:0:0:0:
426,192,4096,1,8,1:0:0:0:
85,192,4263,1,8,1:0:0:0:
199,192,4596,1,8,1:0:0:0:
312,192,4763,1,8,1:0:0:0:
28,192,5096,1,0,1:0:0:0:
483,192,5096,1,4,2:0:0:0:
256,192,5429,1,8,2:0:0:0:
426,192,5763,1,0,1:0:0:0:
85,192,5763,1,4,2:0:0:0:
312,192,6096,1,8,1:0:0:0:
199,192,6429,1,0,1:0:0:0:
85,192,6763,1,8,1:0:0:0:
369,192,7096,1,0,1:0:0:0:
256,192,7263,1,0,0:0:0:0:
142,192,7429,1,8,1:0:0:0:
256,192,7763,1,0,1:0:0:0:
28,192,8429,128,0,8763:1:0:0:0:
312,192,8763,1,8,1:0:0:0:
85,192,9096,128,0,9429:1:0:0:0:
369,192,9429,1,8,1:0:0:0:
426,192,9763,1,0,1:0:0:0:
142,192,9929,1,0,0:0:0:0:
256,192,10096,1,8,1:0:0:0:
369,192,10263,1,0,0:0:0:0:
483,192,10429,1,8,1:0:0:0:
28,192,10763,1,8,1:0:0:0:
426,192,11096,1,0,1:0:0:0:
85,192,11096,1,4,2:0:0:0:
312,192,11429,1,8,1:0:0:0:
199,192,11763,1,0,1:0:0:0:
85,192,12096,1,8,1:0:0:0:
369,192,12429,1,0,1:0:0:0:
256,192,12596,1,0,0:0:0:0:
142,192,12763,1,8,1:0:0:0:
256,192,13096,1,0,1:0:0:0:
142,192,13763,128,0,14096:1:0:0:0:
426,192,14096,1,8,1:0:0:0:
199,192,14429,128,0,14763:1:0:0:0:
483,192,14763,1,8,1:0:0:0:
199,192,15096,1,0,1:0:0:0:
85,192,15263,1,0,0:0:0:0:
312,192,15429,1,0,1:0:0:0:
426,192,15596,1,0,0:0:0:0:
256,192,15763,128,0,16429:1:0:0:0:
142,192,16429,1,0,1:0:0:0:
483,192,16429,1,4,2:0:0:0:
142,192,16763,1,8,1:0:0:0:
369,192,16929,1,0,0:0:0:0:
256,192,17096,1,0,1:0:0:0:
312,192,17596,1,0,0:0:0:0:
199,192,17763,1,0,1:0:0:0:
85,192,17929,1,0,0:0:0:0:
312,192,18096,1,8,1:0:0:0:
426,192,18263,1,0,1:0:0:0:
256,192,18429,1,0,0:0:0:0:
142,192,18929,1,0,0:0:0:0:
28,192,19096,1,0,1:0:0:0:
312,192,19263,1,0,0:0:0:0:
199,192,19429,1,8,1:0:0:0:
483,192,19596,1,0,0:0:0:0:
369,192,19763,1,0,1:0:0:0:
85,192,19929,1,0,1:0:0:0:
312,192,20096,1,8,1:0:0:0:
199,192,20263,1,0,0:0:0:0:
28,192,20429,1,0,1:0:0:0:
369,192,20429,1,0,0:0:0:0:
85,192,20763,1,0,1:0:0:0:
426,192,20763,1,0,0:0:0:0:
142,192,21096,1,0,1:0:0:0:
483,192,21096,1,0,0:0:0:0:
199,192,21429,1,0,1:0:0:0:
483,192,21763,1,4,2:0:0:0:
28,192,21763,1,0,1:0:0:0:
256,192,21929,1,0,0:0:0:0:
142,192,22096,1,8,1:0:0:0:
369,192,22263,1,0,0:0:0:0:
256,192,22429,1,0,1:0:0:0:
199,192,22929,1,0,0:0:0:0:
85,192,23096,1,0,1:0:0:0:
312,192,23263,1,0,0:0:0:0:
199,192,23429,1,8,1:0:0:0:
426,192,23596,1,0,1:0:0:0:
312,192,23763,1,0,0:0:0:0:
28,192,24263,1,0,0:0:0:0:
483,192,24429,1,0,1:0:0:0:
256,192,24596,1,0,0:0:0:0:
142,192,24929,1,0,1:0:0:0:
369,192,25263,1,0,1:0:0:0:
256,192,25596,128,0,26429:1:0:0:0:
142,192,26763,1,8,3:0:0:0:
312,192,26929,1,4,3:0:0:0:
483,192,27096,1,0,1:0:0:0:
28,192,27096,1,4,2:0:0:0:
369,192,27429,1,0,0:0:0:0:
142,192,27596,1,0,1:0:0:0:
256,192,27929,1,0,1:0:0:0:
85,192,28263,1,0,1:0:0:0:
426,192,28263,1,4,2:0:0:0:
199,192,28596,1,0,1:0:0:0:
312,192,28763,1,0,1:0:0:0:
426,192,29096,1,0,1:0:0:0:
28,192,29763,1,4,2:0:0:0:
483,192,29763,1,0,1:0:0:0:
142,192,30096,1,0,0:0:0:0:
369,192,30263,1,0,1:0:0:0:
256,192,30596,1,0,1:0:0:0:
85,192,30929,1,0,1:0:0:0:
426,192,30929,1,4,2:0:0:0:
199,192,31263,1,0,1:0:0:0:
312,192,31429,1,0,1:0:0:0:
426,192,31596,1,0,0:0:0:0:
85,192,31763,1,0,1:0:0:0:
256,192,32429,1,0,1:0:0:0:
483,192,32429,1,4,2:0:0:0:
312,192,33096,1,0,1:0:0:0:
369,192,33763,1,0,1:0:0:0:
199,192,34429,1,0,1:0:0:0:
142,192,35096,1,0,1:0:0:0:
28,192,35763,1,0,1:0:0:0:
199,192,36096,1,8,1:0:0:0:
426,192,36429,1,0,1:0:0:0:
85,192,36429,1,4,2:0:0:0:
312,192,36596,1,0,0:0:0:0:
199,192,36929,1,0,1:0:0:0:
312,192,37763,1,8,1:0:0:0:
28,192,37929,1,8,1:0:0:0:
369,192,38263,1,8,1:0:0:0:
85,192,38429,1,8,1:0:0:0:
426,192,38763,1,8,1:0:0:0:
142,192,38929,1,8,1:0:0:0:
483,192,39263,1,8,1:0:0:0:
199,192,39429,1,8,1:0:0:0:
312,192,39763,1,8,1:0:0:0:
369,192,40096,1,8,1:0:0:0:
426,192,40429,1,0,1:0:0:0:
28,192,40429,1,4,2:0:0:0:
369,192,40763,1,8,1:0:0:0:
142,192,40929,1,0,1:0:0:0:
199,192,41263,1,4,3:0:0:0:
256,192,41596,128,0,42929:1:0:0:0:
85,192,43263,1,0,0:0:0:0:
85,192,43596,1,0,0:0:0:0:
483,192,43763,1,0,0:0:0:0:
369,192,43929,1,0,0:0:0:0:
256,192,44096,1,0,0:0:0:0:
142,192,44263,1,0,0:0:0:0:
28,192,44429,1,0,1:0:0:0:
312,192,44429,1,4,2:0:0:0:
483,192,44763,1,2,1:0:0:0:
199,192,45096,1,0,1:0:0:0:
256,192,45263,1,0,1:0:0:0:
312,192,45429,1,8,1:0:0:0:
369,192,45596,1,0,0:0:0:0:
199,192,45763,1,0,1:0:0:0:
28,192,46096,1,2,1:0:0:0:
199,192,46429,1,0,1:0:0:0:
256,192,46596,1,0,1:0:0:0:
312,192,46763,1,8,1:0:0:0:
369,192,46929,1,0,0:0:0:0:
256,192,47096,1,0,1:0:0:0:
369,192,47429,1,8,1:0:0:0:
142,192,47596,1,0,0:0:0:0:
312,192,47763,1,0,1:0:0:0:
199,192,47929,1,0,1:0:0:0:
312,192,48096,1,8,1:0:0:0:
28,192,48263,1,0,1:0:0:0:
483,192,48263,1,0,0:0:0:0:
85,192,48596,1,0,1:0:0:0:
426,192,48596,1,0,0:0:0:0:
142,192,48929,1,0,1:0:0:0:
369,192,48929,1,0,0:0:0:0:
28,192,49763,1,4,2:0:0:0:
312,192,49763,1,0,1:0:0:0:
199,192,49929,1,0,0:0:0:0:
426,192,50096,1,8,1:0:0:0:
312,192,50263,1,0,1:0:0:0:
28,192,50263,128,4,51096:2:0:0:0:
483,192,51096,1,4,2:0:0:0:
199,192,51096,1,0,1:0:0:0:
85,192,51263,1,0,0:0:0:0:
312,192,51429,1,8,1:0:0:0:
199,192,51596,1,0,1:0:0:0:
483,192,51596,128,4,52429:2:0:0:0:
199,192,52429,1,0,1:0:0:0:
426,192,52596,1,0,0:0:0:0:
142,192,52763,1,8,1:0:0:0:
369,192,52929,1,0,0:0:0:0:
85,192,53096,1,0,1:0:0:0:
312,192,53263,1,0,1:0:0:0:
28,192,53429,1,8,1:0:0:0:
256,192,53596,1,0,0:0:0:0:
85,192,53763,1,0,1:0:0:0:
483,192,54263,1,8,1:0:0:0:
369,192,54596,1,0,0:0:0:0:
256,192,54763,1,8,3:0:0:0:
142,192,54929,1,4,3:0:0:0:
28,192,55096,1,0,1:0:0:0:
312,192,55096,1,4,2:0:0:0:
483,192,55429,1,2,1:0:0:0:
199,192,55763,1,0,1:0:0:0:
256,192,55929,1,0,1:0:0:0:
312,192,56096,1,8,1:0:0:0:
369,192,56263,1,0,0:0:0:0:
199,192,56429,1,0,1:0:0:0:
28,192,56763,1,2,1:0:0:0:
199,192,57096,1,0,1:0:0:0:
256,192,57263,1,0,1:0:0:0:
312,192,57429,1,8,1:0:0:0:
369,192,57596,1,0,0:0:0:0:
256,192,57763,1,0,1:0:0:0:
369,192,58096,1,8,1:0:0:0:
142,192,58263,1,0,0:0:0:0:
312,192,58429,1,0,1:0:0:0:
199,192,58596,1,0,1:0:0:0:
312,192,58763,1,8,1:0:0:0:
28,192,58929,1,0,1:0:0:0:
483,192,58929,1,0,0:0:0:0:
85,192,59263,1,0,1:0:0:0:
426,192,59263,1,0,0:0:0:0:
142,192,59596,1,0,1:0:0:0:
369,192,59596,1,0,0:0:0:0:
483,192,60096,1,8,1:0:0:0:
28,192,60429,1,4,2:0:0:0:
312,192,60429,1,0,1:0:0:0:
142,192,61263,1,0,0:0:0:0:
369,192,61429,1,0,1:0:0:0:
256,192,61596,1,0,0:0:0:0:
85,192,61763,1,0,1:0:0:0:
199,192,62096,1,0,1:0:0:0:
312,192,62263,1,0,0:0:0:0:
28,192,62763,1,0,1:0:0:0:
483,192,63096,1,4,2:0:0:0:
199,192,63096,1,0,1:0:0:0:
369,192,63929,1,0,0:0:0:0:
256,192,64096,1,0,1:0:0:0:
142,192,64263,1,0,0:0:0:0:
426,192,64429,1,0,1:0:0:0:
312,192,64763,1,0,1:0:0:0:
199,192,64929,1,0,0:0:0:0:
312,192,65763,1,8,1:0:0:0:
85,192,65929,1,8,3:0:0:0:
199,192,66096,1,0,0:0:0:0:
426,192,66263,1,8,1:0:0:0:
28,192,66596,1,4,3:0:0:0:
142,192,66763,1,0,0:0:0:0:
483,192,66929,1,8,1:0:0:0:
369,192,67263,1,8,1:0:0:0:
256,192,67429,1,8,1:0:0:0:
426,192,68096,1,0,0:0:0:0:
85,192,68263,1,0,0:0:0:0:
199,192,68429,5,8,1:0:0:0:
312,192,68596,1,8,1:0:0:0:
142,192,68929,1,8,1:0:0:0:
369,192,69096,1,8,1:0:0:0:
85,192,69429,1,8,1:0:0:0:
426,192,69596,1,8,1:0:0:0:
312,192,69929,1,8,1:0:0:0:
199,192,70096,1,8,1:0:0:0:
28,192,70429,1,0,1:0:0:0:
483,192,70429,1,0,1:0:0:0:
199,192,71096,5,8,1:0:0:0:
312,192,71263,1,8,1:0:0:0:
142,192,71596,1,8,1:0:0:0:
369,192,71763,1,8,1:0:0:0:
85,192,72096,1,8,1:0:0:0:
426,192,72263,1,8,1:0:0:0:
312,192,72596,1,8,1:0:0:0:
199,192,72763,1,8,1:0:0:0:
483,192,73096,1,0,1:0:0:0:
28,192,73096,1,0,1:0:0:0:
312,192,73763,1,8,1:0:0:0:
199,192,73929,1,8,1:0:0:0:
369,192,74263,1,8,1:0:0:0:
142,192,74429,1,8,1:0:0:0:
426,192,74763,1,8,1:0:0:0:
85,192,74929,1,8,1:0:0:0:
199,192,75263,1,8,1:0:0:0:
312,192,75429,1,8,1:0:0:0:
483,192,75763,1,0,1:0:0:0:
28,192,75763,1,0,1:0:0:0:
312,192,76429,1,8,1:0:0:0:
199,192,76596,1,8,1:0:0:0:
369,192,76929,1,8,1:0:0:0:
142,192,77096,1,8,1:0:0:0:
426,192,77429,1,8,1:0:0:0:
85,192,77596,1,8,1:0:0:0:
199,192,77929,1,8,1:0:0:0:
312,192,78096,1,8,1:0:0:0:
28,192,78429,1,0,1:0:0:0:
483,192,78429,1,4,2:0:0:0:
256,192,78429,1,4,1:0:0:0:
