osu file format v14

[General]
AudioFilename: MARRY ME.mp3
AudioLeadIn: 0
PreviewTime: 111017
Countdown: 0
SampleSet: Normal
StackLeniency: 0.7
Mode: 1
LetterboxInBreaks: 0
WidescreenStoryboard: 0

[Editor]
Bookmarks: 136350
DistanceSpacing: 1.4
BeatDivisor: 2
GridSize: 4
TimelineZoom: 0.6999997

[Metadata]
Title:MERRY MERRY MERRY MENU... Ne!
TitleUnicode:MERRY MERRY MERRY MENU... ね!
Artist:Tamura Yukari
ArtistUnicode:田村ゆかり
Creator:Volta
Version:Kantan
Source:
Tags:cute jpop christmas carol xmas
BeatmapID:919979
BeatmapSetID:425994

[Difficulty]
HPDrainRate:6.5
CircleSize:7
OverallDifficulty:3.5
ApproachRate:0
SliderMultiplier:1.4
SliderTickRate:1

[Events]
//Background and Video events
0,0,"menu2.jpg",0,60
//Break Periods
//Storyboard Layer 0 (Background)
//Storyboard Layer 1 (Fail)
//Storyboard Layer 2 (Pass)
//Storyboard Layer 3 (Foreground)
//Storyboard Sound Samples

[TimingPoints]
351,333.333333333333,4,1,0,90,1,0
44350,-100,4,1,0,90,0,1
65684,-100,4,1,0,90,0,0
68350,-100,4,1,0,90,0,1
73684,-100,4,1,0,90,0,0
112350,-100,4,1,0,90,0,1
133684,-100,4,1,0,90,0,0
171017,-100,4,1,0,90,0,1
187017,-100,4,1,0,90,0,0
189684,-100,4,1,0,90,0,1
199684,-100,4,1,0,90,0,0

[HitObjects]
200,212,351,5,12,0:0:0:0:
200,216,1350,1,12,0:0:0:0:
200,216,2350,1,12,0:0:0:0:
200,216,3017,1,12,0:0:0:0:
200,216,4017,1,12,0:0:0:0:
136,188,5017,1,12,0:0:0:0:
280,200,5684,1,4,0:0:0:0:
264,184,7017,1,8,0:0:0:0:
216,192,7684,1,0,0:0:0:0:
180,176,8350,1,8,0:0:0:0:
120,128,8684,1,0,0:0:0:0:
160,168,9017,1,8,0:0:0:0:
160,168,9684,1,0,0:0:0:0:
160,168,10017,1,8,0:0:0:0:
184,160,10350,1,8,0:0:0:0:
172,160,11017,1,4,0:0:0:0:
160,168,12350,1,8,0:0:0:0:
192,196,13017,1,0,0:0:0:0:
192,200,13684,1,8,0:0:0:0:
156,124,14017,1,0,0:0:0:0:
192,200,14350,1,8,0:0:0:0:
168,196,15017,1,8,0:0:0:0:
168,196,15350,1,8,0:0:0:0:
168,196,15684,1,0,0:0:0:0:
168,196,16350,1,0,0:0:0:0:
176,204,17684,1,8,0:0:0:0:
176,204,18350,1,8,0:0:0:0:
176,204,19017,1,0,0:0:0:0:
128,180,19684,1,0,0:0:0:0:
152,188,20350,1,8,0:0:0:0:
152,188,20684,1,8,0:0:0:0:
152,188,21017,1,8,0:0:0:0:
152,188,21684,1,0,0:0:0:0:
152,188,23017,1,8,0:0:0:0:
152,188,23684,1,8,0:0:0:0:
152,188,24350,1,0,0:0:0:0:
152,188,24850,1,8,0:0:0:0:
152,188,25517,1,0,0:0:0:0:
152,188,27017,1,0,0:0:0:0:
192,164,28184,1,0,0:0:0:0:
192,164,29017,1,8,0:0:0:0:
192,164,29684,1,8,0:0:0:0:
128,160,30850,1,0,0:0:0:0:
128,160,31684,1,8,0:0:0:0:
128,160,32350,1,0,0:0:0:0:
144,160,33684,1,8,0:0:0:0:
144,160,35017,1,0,0:0:0:0:
144,160,36350,1,12,0:0:0:0:
144,160,36850,1,4,0:0:0:0:
144,160,37684,1,4,0:0:0:0:
144,160,38684,1,4,0:0:0:0:
144,160,39684,1,4,0:0:0:0:
144,160,40350,1,12,0:0:0:0:
144,160,41517,1,4,0:0:0:0:
192,224,42350,1,0,0:0:0:0:
268,232,42850,1,8,0:0:0:0:
188,172,44350,5,4,0:0:0:0:
188,172,45017,1,0,0:0:0:0:
188,172,45350,1,0,0:0:0:0:
188,172,45684,1,8,0:0:0:0:
188,172,46350,1,8,0:0:0:0:
188,172,46684,1,8,0:0:0:0:
188,172,47017,1,0,0:0:0:0:
192,160,47684,1,8,0:0:0:0:
92,168,48184,1,0,0:0:0:0:
192,160,48850,1,0,0:0:0:0:
156,176,49684,1,12,0:0:0:0:
192,160,51017,1,4,0:0:0:0:
176,152,52350,1,8,0:0:0:0:
176,152,53017,1,8,0:0:0:0:
176,156,53350,1,8,0:0:0:0:
176,156,53684,1,0,0:0:0:0:
244,152,54350,1,8,0:0:0:0:
184,192,55017,1,4,0:0:0:0:
184,192,55684,1,0,0:0:0:0:
184,192,56017,1,8,0:0:0:0:
184,192,56350,1,0,0:0:0:0:
212,152,57017,1,0,0:0:0:0:
212,152,57350,1,0,0:0:0:0:
212,192,57684,5,8,0:0:0:0:
208,188,58350,1,8,0:0:0:0:
208,188,58850,1,0,0:0:0:0:
208,188,59517,1,0,0:0:0:0:
208,188,60350,1,12,0:0:0:0:
208,188,61684,1,0,0:0:0:0:
208,188,62017,1,0,0:0:0:0:
208,188,62350,1,0,0:0:0:0:
208,188,63017,1,12,0:0:0:0:
184,104,63684,1,0,0:0:0:0:
208,188,64350,1,8,0:0:0:0:
208,188,64684,1,8,0:0:0:0:
208,188,65017,1,8,0:0:0:0:
212,188,65684,1,4,0:0:0:0:
212,188,66850,1,12,0:0:0:0:
212,188,67350,1,12,0:0:0:0:
200,212,68350,5,12,0:0:0:0:
200,216,69349,1,12,0:0:0:0:
200,216,70349,1,12,0:0:0:0:
200,216,71016,1,12,0:0:0:0:
200,216,72016,1,12,0:0:0:0:
136,188,73016,1,12,0:0:0:0:
280,200,73683,1,4,0:0:0:0:
264,184,75017,1,8,0:0:0:0:
216,192,75684,1,0,0:0:0:0:
180,176,76350,1,8,0:0:0:0:
92,148,76684,1,0,0:0:0:0:
160,168,77017,1,8,0:0:0:0:
160,168,77684,1,0,0:0:0:0:
160,168,78017,1,8,0:0:0:0:
184,160,78350,1,8,0:0:0:0:
172,160,79017,1,4,0:0:0:0:
160,168,80350,1,8,0:0:0:0:
192,196,81017,1,0,0:0:0:0:
192,200,81684,1,8,0:0:0:0:
168,144,82017,1,0,0:0:0:0:
192,200,82350,1,8,0:0:0:0:
168,196,83017,1,8,0:0:0:0:
168,196,83350,1,8,0:0:0:0:
168,196,83684,1,0,0:0:0:0:
168,196,84350,1,4,0:0:0:0:
168,180,85684,1,12,0:0:0:0:
128,184,87017,1,4,0:0:0:0:
128,184,88350,1,12,0:0:0:0:
128,184,89017,1,12,0:0:0:0:
128,184,89684,1,4,0:0:0:0:
188,176,90350,1,0,0:0:0:0:
132,184,91017,1,4,0:0:0:0:
132,184,91684,1,12,0:0:0:0:
132,184,92350,1,4,0:0:0:0:
132,184,93517,1,4,0:0:0:0:
152,188,95017,1,0,0:0:0:0:
192,164,96184,1,0,0:0:0:0:
192,164,97017,1,8,0:0:0:0:
192,164,97684,1,8,0:0:0:0:
128,160,98850,1,0,0:0:0:0:
128,160,99684,1,8,0:0:0:0:
128,160,100350,1,0,0:0:0:0:
144,160,101684,1,8,0:0:0:0:
144,160,103017,1,0,0:0:0:0:
144,160,104350,1,12,0:0:0:0:
144,160,104850,1,4,0:0:0:0:
144,160,105684,1,4,0:0:0:0:
144,160,106684,1,4,0:0:0:0:
144,160,107684,1,4,0:0:0:0:
144,160,108350,1,12,0:0:0:0:
144,160,109517,1,4,0:0:0:0:
184,188,110350,1,0,0:0:0:0:
184,196,110850,1,0,0:0:0:0:
244,196,112350,5,4,0:0:0:0:
188,172,113017,1,0,0:0:0:0:
188,172,113350,1,0,0:0:0:0:
188,172,113684,1,8,0:0:0:0:
188,172,114350,1,8,0:0:0:0:
188,172,114684,1,8,0:0:0:0:
188,172,115017,1,0,0:0:0:0:
192,160,115684,1,8,0:0:0:0:
92,168,116184,1,0,0:0:0:0:
192,160,116850,1,0,0:0:0:0:
156,176,117684,1,12,0:0:0:0:
192,160,119017,1,4,0:0:0:0:
176,152,120350,1,8,0:0:0:0:
176,152,121017,1,8,0:0:0:0:
176,156,121350,1,8,0:0:0:0:
176,156,121684,1,0,0:0:0:0:
264,168,122350,1,8,0:0:0:0:
184,192,123017,1,4,0:0:0:0:
184,192,123684,1,0,0:0:0:0:
184,192,124017,1,8,0:0:0:0:
184,192,124350,1,0,0:0:0:0:
212,152,125017,1,0,0:0:0:0:
212,152,125350,1,0,0:0:0:0:
212,192,125684,5,8,0:0:0:0:
208,188,126350,1,8,0:0:0:0:
208,188,126850,1,0,0:0:0:0:
208,188,127517,1,0,0:0:0:0:
208,188,128350,1,12,0:0:0:0:
208,188,129684,1,0,0:0:0:0:
208,188,130017,1,0,0:0:0:0:
208,188,130350,1,0,0:0:0:0:
208,188,131017,1,12,0:0:0:0:
248,128,131684,1,0,0:0:0:0:
208,188,132350,1,8,0:0:0:0:
208,188,132684,1,8,0:0:0:0:
208,188,133017,1,8,0:0:0:0:
212,188,133684,1,4,0:0:0:0:
212,188,134850,1,12,0:0:0:0:
212,188,135350,1,12,0:0:0:0:
256,172,136350,1,4,0:0:0:0:
256,172,137684,1,0,0:0:0:0:
188,204,138350,1,8,0:0:0:0:
188,204,139017,1,0,0:0:0:0:
188,176,140350,1,0,0:0:0:0:
268,112,140684,1,8,0:0:0:0:
188,176,141017,1,8,0:0:0:0:
188,176,141684,1,4,0:0:0:0:
116,184,142350,1,8,0:0:0:0:
136,148,143017,1,0,0:0:0:0:
144,184,143350,1,8,0:0:0:0:
144,184,143684,1,0,0:0:0:0:
144,184,144350,1,8,0:0:0:0:
144,184,145684,1,8,0:0:0:0:
144,184,146350,1,8,0:0:0:0:
144,184,146684,1,8,0:0:0:0:
144,184,147017,1,0,0:0:0:0:
144,184,147684,1,0,0:0:0:0:
144,184,148350,1,8,0:0:0:0:
144,184,148684,1,0,0:0:0:0:
144,184,149017,1,8,0:0:0:0:
144,184,149684,1,0,0:0:0:0:
144,184,151017,1,8,0:0:0:0:
144,184,151684,1,8,0:0:0:0:
144,184,152017,1,8,0:0:0:0:
144,184,152350,1,4,0:0:0:0:
116,184,153017,1,8,0:0:0:0:
136,148,153684,1,0,0:0:0:0:
144,184,154017,1,8,0:0:0:0:
144,184,154351,1,0,0:0:0:0:
144,184,155017,1,8,0:0:0:0:
144,184,156351,1,8,0:0:0:0:
144,184,157017,1,8,0:0:0:0:
144,184,157350,1,8,0:0:0:0:
144,184,157684,1,0,0:0:0:0:
144,184,158351,1,0,0:0:0:0:
144,184,159017,1,8,0:0:0:0:
144,184,159351,1,0,0:0:0:0:
144,184,159684,1,8,0:0:0:0:
144,184,160351,1,0,0:0:0:0:
116,164,161684,1,0,0:0:0:0:
220,136,162350,1,0,0:0:0:0:
180,40,163017,1,8,0:0:0:0:
212,160,163350,1,8,0:0:0:0:
212,160,163684,1,8,0:0:0:0:
212,160,164017,1,8,0:0:0:0:
212,160,164350,1,0,0:0:0:0:
212,160,166017,1,4,0:0:0:0:
212,160,167350,1,12,0:0:0:0:
212,160,168350,1,4,0:0:0:0:
212,160,169517,1,4,0:0:0:0:
212,160,170184,1,12,0:0:0:0:
212,160,171017,1,12,0:0:0:0:
212,160,172350,1,4,0:0:0:0:
176,152,173684,1,8,0:0:0:0:
176,152,174351,1,8,0:0:0:0:
176,156,174684,1,8,0:0:0:0:
176,156,175018,1,0,0:0:0:0:
168,228,175684,1,8,0:0:0:0:
184,192,176350,1,4,0:0:0:0:
184,192,177018,1,0,0:0:0:0:
184,192,177351,1,8,0:0:0:0:
184,192,177684,1,0,0:0:0:0:
212,152,178351,1,0,0:0:0:0:
212,152,178684,1,0,0:0:0:0:
212,192,179018,5,8,0:0:0:0:
208,188,179684,1,8,0:0:0:0:
208,188,180184,1,0,0:0:0:0:
208,188,180851,1,0,0:0:0:0:
208,188,181684,1,12,0:0:0:0:
208,188,183018,1,0,0:0:0:0:
208,188,183351,1,0,0:0:0:0:
208,188,183684,1,0,0:0:0:0:
256,136,184017,1,0,0:0:0:0:
208,188,184351,1,12,0:0:0:0:
244,168,185017,1,0,0:0:0:0:
208,188,185684,1,8,0:0:0:0:
208,188,186018,1,8,0:0:0:0:
208,188,186351,1,8,0:0:0:0:
256,148,186684,1,8,0:0:0:0:
212,188,187018,1,4,0:0:0:0:
212,188,188184,5,12,0:0:0:0:
212,188,188684,1,12,0:0:0:0:
200,212,189684,5,12,0:0:0:0:
200,216,190683,1,12,0:0:0:0:
200,216,191683,1,12,0:0:0:0:
200,216,192350,1,12,0:0:0:0:
200,216,193350,1,12,0:0:0:0:
136,188,194350,1,12,0:0:0:0:
200,212,195017,5,12,0:0:0:0:
200,216,196016,1,12,0:0:0:0:
200,216,197016,1,12,0:0:0:0:
200,216,197683,1,12,0:0:0:0:
200,216,198683,1,12,0:0:0:0:
136,188,199683,1,12,0:0:0:0:
