osu file format v14

[General]
AudioFilename: Marry Me!.mp3
AudioLeadIn: 0
PreviewTime: 43067
Countdown: 0
SampleSet: Normal
StackLeniency: 0.7
Mode: 0
LetterboxInBreaks: 0
WidescreenStoryboard: 1

[Editor]
Bookmarks: 5734,16400,27067
DistanceSpacing: 1.2
BeatDivisor: 4
GridSize: 4
TimelineZoom: 3

[Metadata]
Title:MERRY MERRY MERRY MENU... Ne!
TitleUnicode:MERRY MERRY MERRY MENU... ね!
Artist:Tamura Yukari
ArtistUnicode:田村ゆかり
Creator:Uber
Version:Insane
Source:
Tags:cute
BeatmapID:1384376
BeatmapSetID:652954

[Difficulty]
HPDrainRate:5
CircleSize:3.5
OverallDifficulty:8
ApproachRate:9
SliderMultiplier:1.6
SliderTickRate:1

[Events]
//Background and Video events
0,0,"bg.jpg",0,0
//Break Periods
//Storyboard Layer 0 (Background)
//Storyboard Layer 1 (Fail)
//Storyboard Layer 2 (Pass)
//Storyboard Layer 3 (Foreground)
//Storyboard Sound Samples

[TimingPoints]
401,333.333333333333,4,1,2,50,1,0
16400,-133.333333333333,4,1,2,50,0,0
20400,-90.9090909090909,4,1,2,50,0,0
22400,-133.333333333333,4,1,2,50,0,0
25567,-90.9090909090909,4,1,2,50,0,0
28734,-133.333333333333,4,1,2,50,0,0
39567,-100,4,1,2,50,0,0
42900,-200,4,1,2,50,0,0
43218,-133.333333333333,4,1,2,50,0,0
44400,-83.3333333333333,4,1,2,50,0,0
60400,-83.3333333333333,4,1,2,50,0,0

[Colours]
Combo1 : 255,47,47
Combo2 : 6,174,255
Combo3 : 225,225,225
Combo4 : 0,255,64

[HitObjects]
125,91,401,5,0,0:0:0:0:
301,103,567,1,0,0:0:0:0:
301,103,900,1,0,0:0:0:0:
202,249,1066,1,0,0:0:0:0:
202,249,1400,1,0,2:0:0:0:
378,262,1567,1,0,2:0:0:0:
378,262,1900,5,0,0:0:0:0:
125,91,2067,2,0,P|127:154|150:177,1,80,0|0,2:0|2:0,2:0:0:0:
281,255,2400,1,0,0:0:0:0:
281,255,3067,5,0,0:0:0:0:
372,113,3234,1,0,0:0:0:0:
372,113,3567,1,0,0:0:0:0:
205,104,3734,1,0,0:0:0:0:
205,104,4067,1,0,0:0:0:0:
101,243,4234,1,0,0:0:0:0:
101,243,4567,5,0,0:0:0:0:
381,191,4734,2,0,P|341:255|297:259,1,120
225,247,5067,2,0,P|180:226|224:201,1,120,0|0,2:0|2:0,2:0:0:0:
300,184,5400,2,0,L|315:93,1,80
173,115,5734,5,0,0:0:0:0:
173,115,5900,1,0,0:0:0:0:
105,27,6067,1,0,0:0:0:0:
105,27,6233,1,0,0:0:0:0:
297,23,6400,1,0,0:0:0:0:
297,23,6566,1,0,0:0:0:0:
49,131,6734,1,0,0:0:0:0:
49,131,6900,1,0,0:0:0:0:
316,192,7067,5,0,0:0:0:0:
201,27,7234,1,0,0:0:0:0:
316,192,7400,2,0,P|335:232|395:265,1,80
224,280,7734,2,0,L|238:120,1,160
61,251,8400,6,0,L|109:295,3,40
5,191,8734,2,0,L|65:127,1,80
160,60,9067,2,0,L|208:104,3,40
256,140,9400,2,0,L|201:198,1,80
68,232,9734,5,0,0:0:0:0:
101,19,9900,1,0,0:0:0:0:
68,232,10067,1,0,0:0:0:0:
101,19,10234,1,0,0:0:0:0:
334,108,10400,2,0,P|342:146|331:183,1,80
420,52,10734,2,0,L|444:160,1,80
265,151,11067,5,0,0:0:0:0:
265,151,11234,1,0,0:0:0:0:
229,47,11400,1,0,0:0:0:0:
229,47,11567,1,0,0:0:0:0:
296,256,11734,1,0,0:0:0:0:
296,256,11900,1,0,0:0:0:0:
145,115,12067,1,0,0:0:0:0:
145,115,12233,1,0,0:0:0:0:
341,79,12400,5,0,0:0:0:0:
153,247,12567,1,0,0:0:0:0:
341,79,12734,2,0,P|364:146|350:186,1,80
456,24,13067,2,0,L|456:212,1,160
225,47,13734,6,0,L|173:15,3,40
141,87,14067,2,0,L|98:155,1,80
141,279,14400,6,0,L|175:299,3,40
253,311,14734,2,0,L|295:242,1,80
361,119,15067,5,0,0:0:0:0:
173,199,15234,1,0,0:0:0:0:
361,119,15400,1,0,0:0:0:0:
173,199,15567,1,0,0:0:0:0:
293,55,15734,2,0,P|212:52|188:122,1,160
389,187,16400,6,0,P|395:227|376:267,1,60.0000022888184
309,295,16734,1,0,0:0:0:0:
237,235,16900,1,0,0:0:0:0:
149,287,17067,2,0,P|113:303|70:287,1,60.0000022888184
232,344,17400,1,0,0:0:0:0:
224,40,17734,5,0,0:0:0:0:
309,111,17900,1,0,0:0:0:0:
389,47,18067,1,0,0:0:0:0:
465,119,18234,1,0,0:0:0:0:
382,192,18400,2,0,P|335:215|302:208,1,60.0000022888184
480,240,18734,1,0,0:0:0:0:
180,168,19067,6,0,L|152:246,1,60.0000022888184,0|0,2:0|2:0,0:0:0:0:
88,260,19400,1,0,0:0:0:0:
88,260,19567,1,0,0:0:0:0:
144,344,19734,1,0,0:0:0:0:
144,344,19901,1,0,0:0:0:0:
200,228,20067,1,0,0:0:0:0:
200,228,20234,1,0,0:0:0:0:
115,118,20400,6,0,B|172:76|172:76|244:117,1,132.00000402832,0|0,0:0|0:0,2:0:0:0:
284,157,20734,2,0,L|289:300,1,132.00000402832
318,357,21067,2,0,P|369:383|429:341,1,132.00000402832
340,12,21734,5,0,0:0:0:0:
382,100,21900,1,0,0:0:0:0:
340,188,22067,1,0,0:0:0:0:
403,265,22234,1,0,0:0:0:0:
296,282,22400,2,0,P|256:252|245:221,1,60.0000022888184
384,368,22734,1,0,0:0:0:0:
124,340,23067,5,0,0:0:0:0:
82,252,23233,1,0,0:0:0:0:
124,164,23400,1,0,0:0:0:0:
61,87,23567,1,0,0:0:0:0:
168,70,23733,2,0,P|205:96|214:120,1,60.0000022888184
100,4,24067,1,0,0:0:0:0:
393,0,24400,5,0,0:0:0:0:
384,93,24567,2,0,L|386:179,1,60.0000022888184
382,255,24900,2,0,P|316:258|304:252,1,60.0000022888184
220,142,25234,2,0,P|285:138|297:144,1,60.0000022888184
217,234,25567,6,0,P|155:296|219:358,1,176.000005371094
299,371,26067,2,0,L|405:387,2,88.000002685547
313,261,26567,2,0,L|232:288,1,44.0000013427735
81,328,26734,1,0,0:0:0:0:
212,148,26900,1,0,0:0:0:0:
200,352,27067,5,0,0:0:0:0:
418,182,27400,1,0,0:0:0:0:
350,333,27567,1,0,0:0:0:0:
130,138,27900,1,0,0:0:0:0:
448,280,28234,1,0,0:0:0:0:
260,101,28567,5,0,0:0:0:0:
213,240,28734,2,0,P|262:268|290:268,1,60.0000022888184
324,195,29067,2,0,B|288:252|343:261|300:321,1,120.000004577637
388,64,29734,2,0,P|344:41|324:41,1,60.0000022888184
100,113,30067,1,0,0:0:0:0:
313,115,30234,2,0,P|289:155|265:169,1,60.0000022888184
111,238,30567,1,0,0:0:0:0:
430,255,30900,1,0,0:0:0:0:
351,25,31234,5,0,0:0:0:0:
217,189,31400,1,0,0:0:0:0:
351,25,31567,1,0,0:0:0:0:
169,247,31734,2,0,B|201:191|139:189|186:133,1,120.000004577637
454,275,32400,6,0,P|386:344|331:295,1,180.000006866455
249,195,33067,2,0,B|216:114|216:114|301:40,1,180.000006866455
408,104,33734,2,0,L|406:292,1,180.000006866455
248,270,34400,2,0,B|147:226|157:317|59:267,1,180.000006866455
77,147,35067,2,0,B|141:180|141:180|197:149|266:188,1,180.000006866455
335,260,35734,1,0,0:0:0:0:
143,31,36067,1,0,0:0:0:0:
465,77,36400,1,0,0:0:0:0:
260,98,36567,2,0,P|277:152|299:164,1,60.0000022888184
257,9,36900,2,0,P|246:67|202:106,2,120.000004577637
350,115,37734,5,0,0:0:0:0:
125,153,37900,1,0,0:0:0:0:
125,153,38234,1,0,0:0:0:0:
271,329,38400,5,0,0:0:0:0:
271,329,38734,1,0,0:0:0:0:
350,115,38900,1,0,0:0:0:0:
350,115,39234,1,0,0:0:0:0:
126,154,39400,1,0,0:0:0:0:
126,154,39734,6,0,P|125:206|162:252,1,80
265,330,40067,2,0,P|265:278|229:231,1,80
36,309,40400,2,0,B|107:278|105:340|201:296,1,160
213,144,40900,2,0,P|190:97|137:70,1,80
396,132,41234,2,0,L|402:53,1,80
242,227,41567,2,0,P|285:197|303:141,1,80
233,26,41900,1,0,0:0:0:0:
88,268,42067,1,0,0:0:0:0:
396,224,42234,1,0,0:0:0:0:
396,224,42317,1,0,0:0:0:0:
396,224,42400,1,0,0:0:0:0:
92,48,42567,1,0,0:0:0:0:
192,284,42734,1,0,0:0:0:0:
300,56,42900,6,0,L|350:62,1,40
268,140,43234,2,0,P|309:160|331:175,1,60.0000022888184,0|0,2:0|2:0,2:0:0:0:
375,257,43567,1,0,0:0:0:0:
178,179,43734,1,0,0:0:0:0:
397,178,43900,1,0,0:0:0:0:
152,255,44067,1,0,0:0:0:0:
344,332,44234,1,0,0:0:0:0:
350,105,44400,6,0,P|392:96|474:165,1,143.999995605469
481,98,44734,2,0,L|391:2,1,95.9999970703126
263,70,45067,1,0,0:0:0:0:
341,210,45234,1,0,0:0:0:0:
331,3,45400,1,0,0:0:0:0:
258,271,45567,1,0,0:0:0:0:
194,6,45734,6,0,P|167:45|200:134,1,143.999995605469
200,87,46067,2,0,B|252:90|252:90|318:131,1,95.9999970703126
399,284,46400,1,0,0:0:0:0:
185,214,46567,1,0,0:0:0:0:
464,225,46734,1,0,0:0:0:0:
121,279,46900,1,0,0:0:0:0:
351,159,47067,6,0,L|327:287,1,95.9999970703126
250,150,47400,1,0,0:0:0:0:
229,71,47567,1,0,0:0:0:0:
367,79,47734,1,0,0:0:0:0:
388,0,47901,1,0,0:0:0:0:
161,134,48067,1,0,0:0:0:0:
467,67,48234,6,0,P|443:152|388:161,1,143.999995605469
303,197,48567,2,0,L|300:355,1,143.999995605469
192,353,48900,2,0,B|134:304|134:304|181:223,1,143.999995605469
208,176,49234,1,0,0:0:0:0:
303,357,49400,2,0,L|304:261,1,95.9999970703126
192,353,49734,5,0,0:0:0:0:
303,184,49900,1,0,0:0:0:0:
123,73,50067,1,0,0:0:0:0:
401,38,50234,6,0,L|180:61,1,191.999994140625
36,160,50734,2,0,L|160:148,1,95.9999970703126
384,140,51067,1,0,0:0:0:0:
163,281,51234,1,0,0:0:0:0:
356,336,51400,1,0,0:0:0:0:
293,103,51567,2,0,B|314:200|240:200|289:290,1,191.999994140625
444,279,52067,2,0,P|496:237|496:194,1,95.9999970703126
257,29,52400,5,0,0:0:0:0:
345,225,52567,1,0,0:0:0:0:
496,130,52734,1,0,0:0:0:0:
215,140,52900,1,0,0:0:0:0:
367,325,53067,1,0,0:0:0:0:
421,200,53234,1,0,0:0:0:0:
181,216,53400,1,0,0:0:0:0:
73,20,53567,1,0,0:0:0:0:
121,276,53734,6,0,B|71:175|146:176|125:91,1,191.999994140625
138,199,54234,2,0,P|224:184|271:207,1,95.9999970703126
386,336,54567,1,0,0:0:0:0:
341,177,54734,1,0,0:0:0:0:
149,355,54900,1,0,0:0:0:0:
384,101,55067,6,0,B|463:156|399:264,1,143.999995605469
467,183,55400,2,0,L|509:89,1,95.9999970703126
291,41,55734,1,0,0:0:0:0:
285,251,55900,1,0,0:0:0:0:
154,56,56067,1,0,0:0:0:0:
415,230,56234,1,0,0:0:0:0:
133,137,56400,6,0,P|91:113|73:15,1,143.999995605469
42,86,56734,2,0,L|39:184,1,95.9999970703126
158,288,57067,1,0,0:0:0:0:
226,127,57234,1,0,0:0:0:0:
242,340,57400,1,0,0:0:0:0:
155,75,57567,1,0,0:0:0:0:
74,313,57734,6,0,P|102:350|146:367,1,95.9999970703126
326,243,58067,1,0,0:0:0:0:
395,182,58234,1,0,0:0:0:0:
218,243,58400,1,0,0:0:0:0:
149,182,58567,1,0,0:0:0:0:
349,351,58734,1,0,0:0:0:0:
61,152,58900,6,0,B|35:230|114:214|55:309,1,143.999995605469
0,343,59234,2,0,P|42:373|152:343,1,143.999995605469
189,298,59567,2,0,L|263:177,1,95.9999970703126
109,82,59900,1,0,0:0:0:0:
303,161,60067,2,0,P|324:227|300:274,1,95.9999970703126
20,243,60400,6,0,L|111:251,1,80
292,81,60734,2,0,L|212:73,1,80
280,329,61067,2,0,L|371:337,1,80
464,152,61400,1,0,0:0:0:0:
201,262,61567,1,0,0:0:0:0:
500,93,61734,6,0,L|503:211,1,95.9999970703126
407,281,62067,1,0,0:0:0:0:
296,48,62234,2,0,P|371:89|408:64,2,95.9999970703126
103,115,62734,1,0,0:0:0:0:
270,324,62900,1,0,0:0:0:0:
281,160,63067,6,0,P|198:181|179:220,1,95.9999970703126
431,335,63400,2,0,L|420:231,1,95.9999970703126
327,73,63734,1,0,0:0:0:0:
268,264,63900,1,0,0:0:0:0:
338,210,64067,1,0,0:0:0:0:
409,153,64234,1,0,0:0:0:0:
165,109,64400,6,0,P|110:162|111:199,1,95.9999970703126
191,279,64734,1,0,0:0:0:0:
86,116,64900,2,0,L|69:12,2,95.9999970703126
186,184,65400,2,0,L|286:156,1,95.9999970703126
260,297,65734,5,0,0:0:0:0:
345,299,65901,1,0,0:0:0:0:
418,250,66067,1,0,0:0:0:0:
315,113,66234,2,0,L|354:230,1,95.9999970703126
176,259,66567,1,0,0:0:0:0:
176,259,66734,1,0,0:0:0:0:
382,71,66900,2,0,P|328:35|269:41,1,95.9999970703126
438,211,67234,1,0,0:0:0:0:
58,135,67400,1,0,0:0:0:0:
200,270,68067,5,0,0:0:0:0:
200,270,68234,1,0,0:0:0:0:
128,23,68400,5,0,0:0:0:0:
379,84,68567,1,0,0:0:0:0:
379,84,68900,1,0,2:0:0:0:
200,270,69067,1,0,2:0:0:0:
200,270,69400,1,0,0:0:0:0:
123,23,69567,1,0,0:0:0:0:
123,23,69900,5,0,0:0:0:0:
361,81,70067,2,0,P|288:85|270:101,1,95.9999970703126
200,270,70400,1,0,0:0:0:0:
440,128,70567,1,0,0:0:0:0:
440,128,70650,1,0,0:0:0:0:
440,128,70734,1,0,0:0:0:0:
440,128,71067,5,0,0:0:0:0:
282,348,71234,1,0,0:0:0:0:
282,348,71567,1,0,0:0:0:0:
170,110,71734,1,0,0:0:0:0:
170,110,72067,1,0,0:0:0:0:
429,133,72234,1,0,0:0:0:0:
429,133,72567,5,0,0:0:0:0:
278,349,72734,2,0,P|301:310|293:252,1,95.9999970703126
169,113,73067,2,0,P|147:153|154:211,1,95.9999970703126
429,133,73400,5,0,0:0:0:0:
