osu file format v14

[General]
AudioFilename: audio.mp3
AudioLeadIn: 0
PreviewTime: 43067
Countdown: 0
SampleSet: Drum
StackLeniency: 0.7
Mode: 3
LetterboxInBreaks: 0
SpecialStyle: 0
WidescreenStoryboard: 0

[Editor]
DistanceSpacing: 0.8
BeatDivisor: 4
GridSize: 4
TimelineZoom: 0.8

[Metadata]
Title:MERRY MERRY MERRY MENU... Ne! (Cut Ver.)
TitleUnicode:MERRY MERRY MERRY MENU... ね! (Cut Ver.)
Artist:Tamura Yukari
ArtistUnicode:田村ゆかり
Creator:Sies
Version:Ez!
Source:
Tags:cute japanese jpop christmas song carol xmas Harumachi Soleil 春待ちソレイユ pop
BeatmapID:1087511
BeatmapSetID:510666

[Difficulty]
HPDrainRate:6.5
CircleSize:4
OverallDifficulty:6.5
ApproachRate:5
SliderMultiplier:1.4
SliderTickRate:1

[Events]
//Background and Video events
0,0,"Merry2.jpg",0,0
//Break Periods
//Storyboard Layer 0 (Background)
//Storyboard Layer 1 (Fail)
//Storyboard Layer 2 (Pass)
//Storyboard Layer 3 (Foreground)
//Storyboard Layer 4 (Overlay)
//Storyboard Sound Samples

[TimingPoints]
425,333.333333333333,4,3,2,60,1,0
44424,-100,4,3,2,60,0,1
53758,-100,4,3,2,60,0,0
55091,-100,4,3,2,60,0,1
64424,-100,4,3,2,60,0,0

[HitObjects]
64,192,425,5,6,0:0:0:0:
192,192,591,1,2,0:0:0:0:
448,192,924,1,2,0:0:0:0:
320,192,1091,1,2,0:0:0:0:
64,192,1424,1,6,0:0:0:0:
192,192,1591,1,2,0:0:0:0:
448,192,1924,1,2,0:0:0:0:
320,192,2091,1,2,0:0:0:0:
64,192,2424,1,6,0:0:0:0:
448,192,3091,1,2,0:0:0:0:
320,192,3258,1,2,0:0:0:0:
192,192,3591,1,2,0:0:0:0:
64,192,3758,1,2,0:0:0:0:
448,192,4091,1,2,0:0:0:0:
192,192,4258,1,2,0:0:0:0:
320,192,4591,1,2,0:0:0:0:
64,192,4758,1,2,0:0:0:0:
320,192,5091,1,2,0:0:0:0:
448,192,5424,1,0,0:0:0:70:clap.wav
64,192,5424,1,0,0:0:0:0:
320,192,5758,1,4,0:0:0:0:
192,192,5758,1,2,0:0:0:70:
64,192,6091,1,8,0:0:0:0:
320,192,6424,1,2,0:0:0:70:
192,192,6758,1,8,0:0:0:0:
448,192,7091,1,2,0:0:0:70:
64,192,7424,1,8,0:0:0:0:
192,192,7758,1,0,0:0:0:0:
448,192,8091,1,8,0:0:0:0:
320,192,8424,128,2,8758:0:0:0:70:
64,192,8758,1,8,0:0:0:0:
192,192,9091,128,2,9424:0:0:0:70:
448,192,9424,1,8,0:0:0:0:
320,192,9758,1,0,0:0:0:50:t.wav
320,192,10091,1,0,0:0:0:50:t.wav
192,192,10424,1,0,0:0:0:50:t.wav
448,192,10758,1,0,0:0:0:70:clap.wav
64,192,10758,1,0,0:0:0:0:
192,192,11091,1,2,0:0:0:70:
320,192,11091,1,4,0:0:0:0:
448,192,11424,1,8,0:0:0:0:
192,192,11758,1,2,0:0:0:70:
320,192,12091,1,8,0:0:0:0:
64,192,12424,1,2,0:0:0:70:
448,192,12758,1,8,0:0:0:0:
320,192,13091,1,0,0:0:0:0:
64,192,13424,1,8,0:0:0:0:
192,192,13758,128,2,14091:0:0:0:70:
448,192,14091,1,8,0:0:0:0:
320,192,14424,128,0,14758:0:0:0:0:
64,192,14758,1,8,0:0:0:0:
448,192,15091,1,0,0:0:0:50:t.wav
448,192,15424,1,0,0:0:0:50:t.wav
192,192,15758,128,0,16424:0:0:0:50:t.wav
448,192,16424,1,4,0:0:0:0:
64,192,16424,1,2,0:0:0:70:
320,192,16758,128,8,17091:0:0:0:0:
448,192,17091,1,2,0:0:0:70:
192,192,17424,128,8,17758:0:0:0:0:
320,192,17758,1,2,0:0:0:70:
64,192,18091,128,8,18424:0:0:0:0:
192,192,18424,1,0,0:0:0:0:
448,192,18758,128,8,19091:0:0:0:0:
320,192,19091,1,4,0:0:0:0:
64,192,19091,1,2,0:0:0:70:
192,192,19424,128,8,19758:0:0:0:0:
64,192,19758,1,2,0:0:0:70:
320,192,20091,128,8,20424:0:0:0:0:
448,192,20424,1,2,0:0:0:0:
64,192,20758,1,2,0:0:0:0:
192,192,21091,1,2,0:0:0:0:
320,192,21424,1,2,0:0:0:0:
192,192,21758,1,4,0:0:0:0:
448,192,21758,1,2,0:0:0:70:
64,192,22091,128,8,22424:0:0:0:0:
320,192,22424,1,2,0:0:0:70:
448,192,22758,128,8,23091:0:0:0:0:
192,192,23091,1,2,0:0:0:70:
320,192,23424,128,8,23758:0:0:0:0:
64,192,23758,1,0,0:0:0:0:
192,192,24091,128,8,24424:0:0:0:0:
448,192,24424,1,4,0:0:0:0:
320,192,24424,1,2,0:0:0:70:
64,192,24758,1,8,0:0:0:0:
320,192,24924,128,2,25424:0:0:0:70:
192,192,25424,1,8,0:0:0:0:
448,192,25591,128,2,25924:0:0:0:70:
64,192,25924,1,2,0:0:0:70:
192,192,26091,1,8,0:0:0:0:
320,192,26258,1,8,0:0:0:0:
64,192,26424,128,0,27091:0:0:0:0:
448,192,27091,1,4,0:0:0:0:
320,192,27091,1,2,0:0:0:70:
192,192,27591,1,2,0:0:0:70:
448,192,27924,1,2,0:0:0:70:
192,192,28258,1,6,0:0:0:0:
64,192,28591,1,2,0:0:0:70:
448,192,28758,1,2,0:0:0:70:
192,192,29091,1,2,0:0:0:70:
320,192,29424,1,10,0:0:0:0:
448,192,29758,1,4,0:0:0:0:
64,192,29758,1,2,0:0:0:70:
192,192,30258,1,2,0:0:0:70:
320,192,30591,1,2,0:0:0:70:
64,192,30924,1,6,0:0:0:0:
448,192,31258,1,2,0:0:0:70:
192,192,31424,1,2,0:0:0:70:
320,192,31758,1,2,0:0:0:70:
192,192,31924,1,8,0:0:0:0:
64,192,32091,1,10,0:0:0:0:
448,192,32424,128,2,33758:0:0:0:70:
320,192,32424,1,4,0:0:0:0:
64,192,33424,1,8,0:0:0:0:
320,192,33758,128,2,34758:0:0:0:70:
448,192,34758,1,8,0:0:0:0:
192,192,35091,128,2,36091:0:0:0:70:
64,192,36091,1,8,0:0:0:0:
448,192,36424,1,6,0:0:0:0:
192,192,36758,1,8,0:0:0:0:
320,192,36924,1,2,0:0:0:70:
448,192,37258,1,2,0:0:0:70:
64,192,37424,1,8,0:0:0:0:
320,192,37758,1,0,0:0:0:50:t.wav
192,192,37924,1,0,0:0:0:50:t.wav
448,192,38258,1,0,0:0:0:50:t.wav
320,192,38424,1,0,0:0:0:50:t.wav
192,192,38758,1,0,0:0:0:50:t.wav
320,192,38924,1,0,0:0:0:50:t.wav
64,192,39258,1,0,0:0:0:50:t.wav
192,192,39424,1,0,0:0:0:50:t.wav
448,192,39758,1,0,0:0:0:50:t.wav
320,192,40091,1,0,0:0:0:50:t.wav
192,192,40424,1,2,0:0:0:70:
448,192,40424,1,4,0:0:0:0:
64,192,40758,1,8,0:0:0:0:
192,192,40924,1,2,0:0:0:70:
448,192,41258,1,2,0:0:0:70:
320,192,41424,1,8,0:0:0:0:
192,192,41591,128,2,42924:0:0:0:70:
448,192,42924,1,8,0:0:0:0:
64,192,42924,1,0,0:0:0:0:
64,192,43758,1,0,0:0:0:0:
448,192,44091,1,0,0:0:0:0:
320,192,44424,1,4,0:0:0:0:
192,192,44424,1,2,0:0:0:70:
64,192,44758,1,0,0:0:0:70:clap.wav
448,192,44758,1,8,0:0:0:0:
320,192,45091,1,2,0:0:0:70:
192,192,45424,1,8,0:0:0:0:
448,192,45758,1,2,0:0:0:70:
320,192,46091,1,8,0:0:0:0:
64,192,46091,1,0,0:0:0:70:clap.wav
192,192,46424,1,2,0:0:0:70:
448,192,46758,1,8,0:0:0:0:
320,192,47091,1,2,0:0:0:70:
64,192,47424,1,8,0:0:0:0:
448,192,47758,1,2,0:0:0:70:
192,192,48091,1,8,0:0:0:0:
320,192,48424,1,0,0:0:0:0:
64,192,48758,1,8,0:0:0:0:
192,192,49091,1,0,0:0:0:0:
320,192,49424,1,8,0:0:0:0:
448,192,49758,1,2,0:0:0:70:
64,192,49758,1,4,0:0:0:0:
64,192,50258,1,4,0:0:0:0:
320,192,50258,1,2,0:0:0:70:
64,192,51091,1,2,0:0:0:70:
448,192,51091,1,4,0:0:0:0:
192,192,51591,1,2,0:0:0:70:
448,192,51591,1,4,0:0:0:0:
320,192,52424,1,4,0:0:0:0:
64,192,52424,1,2,0:0:0:70:
192,192,52758,1,8,0:0:0:0:
320,192,53091,1,2,0:0:0:70:
448,192,53424,1,8,0:0:0:0:
192,192,53758,1,2,0:0:0:70:
320,192,54091,1,8,0:0:0:70:
64,192,54424,1,2,0:0:0:70:
192,192,54758,1,2,0:0:0:70:
320,192,55091,1,4,0:0:0:0:
448,192,55091,1,2,0:0:0:70:
64,192,55424,1,0,0:0:0:70:clap.wav
192,192,55424,1,8,0:0:0:0:
320,192,55758,1,2,0:0:0:70:
448,192,56091,1,8,0:0:0:0:
64,192,56424,1,2,0:0:0:70:
320,192,56758,1,8,0:0:0:0:
192,192,56758,1,0,0:0:0:70:clap.wav
448,192,57091,1,2,0:0:0:70:
320,192,57424,1,8,0:0:0:0:
64,192,57758,1,2,0:0:0:70:
192,192,58091,1,8,0:0:0:0:
448,192,58424,1,2,0:0:0:70:
320,192,58758,1,8,0:0:0:0:
64,192,59091,1,0,0:0:0:0:
448,192,59424,1,8,0:0:0:0:
192,192,59758,1,0,0:0:0:0:
320,192,60091,1,8,0:0:0:0:
448,192,60424,1,4,0:0:0:0:
64,192,60424,1,8,0:0:0:0:
192,192,60758,1,8,0:0:0:0:
448,192,61091,1,8,0:0:0:0:
192,192,61424,1,8,0:0:0:0:
64,192,61758,1,8,0:0:0:0:
320,192,62091,1,8,0:0:0:0:
64,192,62424,1,8,0:0:0:0:
448,192,62758,1,8,0:0:0:0:
192,192,63091,1,8,0:0:0:0:
64,192,63091,1,4,0:0:0:0:
320,192,63424,1,8,0:0:0:0:
192,192,63758,1,8,0:0:0:0:
448,192,64091,1,8,0:0:0:0:
64,192,64424,1,8,0:0:0:0:
320,192,64758,1,8,0:0:0:0:
448,192,64924,1,0,0:0:0:70:t.wav
192,192,65258,1,0,0:0:0:70:t.wav
64,192,65424,1,8,0:0:0:0:
320,192,65758,1,2,0:0:0:0:
448,192,65758,1,0,0:0:0:0:
320,192,66258,1,2,0:0:0:0:
448,192,66258,1,0,0:0:0:0:
64,192,66924,1,0,0:0:0:0:
192,192,66924,1,2,0:0:0:0:
192,192,67258,1,2,0:0:0:0:
64,192,67258,1,0,0:0:0:0:
448,192,67424,1,0,0:0:0:0:
320,192,67424,1,2,0:0:0:0:
448,192,68091,1,0,0:0:0:0:
320,192,68258,1,0,0:0:0:0:
192,192,68424,1,6,0:0:0:0:
64,192,68591,1,0,0:0:0:70:t.wav
320,192,68924,1,0,0:0:0:70:t.wav
448,192,69091,1,2,0:0:0:0:
192,192,69424,1,2,0:0:0:0:
64,192,69591,1,0,0:0:0:70:t.wav
320,192,69924,1,0,0:0:0:70:t.wav
192,192,70091,1,2,0:0:0:0:
448,192,70424,1,2,0:0:0:0:
320,192,71091,1,6,0:0:0:0:
448,192,71258,1,0,0:0:0:70:t.wav
64,192,71591,1,0,0:0:0:70:t.wav
192,192,71758,1,2,0:0:0:0:
320,192,72091,1,6,0:0:0:0:
192,192,72258,1,0,0:0:0:70:t.wav
448,192,72591,1,0,0:0:0:70:t.wav
64,192,72758,1,2,0:0:0:0:
320,192,73091,1,2,0:0:0:0:
192,192,73758,1,6,0:0:0:0:
64,192,73924,1,0,0:0:0:70:t.wav
320,192,74258,1,0,0:0:0:70:t.wav
448,192,74424,1,2,0:0:0:0:
192,192,74758,1,2,0:0:0:0:
64,192,74924,1,0,0:0:0:70:t.wav
320,192,75258,1,0,0:0:0:70:t.wav
192,192,75424,1,2,0:0:0:0:
448,192,75758,1,2,0:0:0:0:
320,192,76424,1,6,0:0:0:0:
448,192,76591,1,2,0:0:0:0:
64,192,76924,1,2,0:0:0:0:
192,192,77091,1,2,0:0:0:0:
320,192,77424,1,6,0:0:0:0:
192,192,77591,1,2,0:0:0:0:
448,192,77924,1,6,0:0:0:0:
64,192,78091,1,2,0:0:0:0:
192,192,78424,1,2,0:0:0:0:
320,192,78424,1,4,0:0:0:0:
