osu file format v14

[General]
AudioFilename: Marry Menu Ne.mp3
AudioLeadIn: 0
PreviewTime: 44400
Countdown: 0
SampleSet: Normal
StackLeniency: 0.7
Mode: 3
LetterboxInBreaks: 0
SpecialStyle: 1
WidescreenStoryboard: 0

[Editor]
DistanceSpacing: 0.8
BeatDivisor: 2
GridSize: 4
TimelineZoom: 1

[Metadata]
Title:MERRY MERRY MERRY MENU NE!
TitleUnicode:MERRY MERRY MERRY MENU...ね!
Artist:Tamura Yukari
ArtistUnicode:田村ゆかり
Creator:Doug Dimmadome
Version:Basic
Source:
Tags:cute jpop christmas song carol xmas
BeatmapID:913956
BeatmapSetID:422111

[Difficulty]
HPDrainRate:6.5
CircleSize:4
OverallDifficulty:6.5
ApproachRate:5
SliderMultiplier:1.4
SliderTickRate:1

[Events]
//Background and Video events
0,0,"kyah.jpg",0,0
//Break Periods
//Storyboard Layer 0 (Background)
//Storyboard Layer 1 (Fail)
//Storyboard Layer 2 (Pass)
//Storyboard Layer 3 (Foreground)
//Storyboard Sound Samples

[TimingPoints]
401,333.333333333333,4,1,1,45,1,0
5734,-100,4,1,1,95,0,0
20400,-100,4,1,1,45,0,0
21734,-100,4,1,1,95,0,0
37734,-100,4,1,1,45,0,0
44400,-100,4,1,1,45,0,1
60400,-100,4,1,1,35,0,0
79067,-100,4,1,1,20,0,0
81734,-100,4,1,1,11,0,0
82400,-100,4,1,1,7,0,0
83734,-100,4,1,1,6,0,0

[HitObjects]
448,192,401,5,8,0:0:0:0:
192,192,567,1,8,0:0:0:0:
64,192,900,1,8,0:0:0:0:
320,192,1067,1,8,0:0:0:0:
448,192,1400,1,8,0:0:0:0:
192,192,1567,1,8,0:0:0:0:
64,192,1900,1,8,0:0:0:0:
448,192,2067,1,8,0:0:0:0:
192,192,2400,1,8,0:0:0:0:
64,192,3067,1,8,0:0:0:0:
192,192,3234,1,8,0:0:0:0:
448,192,3567,1,8,0:0:0:0:
320,192,3734,1,8,0:0:0:0:
64,192,4067,1,8,0:0:0:0:
192,192,4234,1,8,0:0:0:0:
320,192,4567,1,8,0:0:0:0:
192,192,4734,1,8,0:0:0:0:
448,192,5067,1,8,0:0:0:0:
64,192,5400,128,8,5734:0:0:0:0:
192,192,5734,1,0,0:0:0:0:
320,192,6067,1,0,0:0:0:0:
448,192,6400,1,0,0:0:0:0:
320,192,6734,1,0,0:0:0:0:
192,192,7067,1,0,0:0:0:0:
320,192,7400,1,0,0:0:0:0:
64,192,7734,128,0,8234:0:0:0:0:
448,192,8400,128,0,9067:0:0:0:0:
192,192,9067,128,0,9734:0:0:0:0:
320,192,9734,128,0,10067:0:0:0:0:
448,192,10067,128,0,10400:0:0:0:0:
192,192,10400,128,0,10734:0:0:0:0:
64,192,10734,128,8,11067:0:0:0:0:
448,192,11067,1,0,0:0:0:0:
320,192,11400,1,0,0:0:0:0:
192,192,11734,1,0,0:0:0:0:
64,192,12067,1,0,0:0:0:0:
320,192,12400,1,0,0:0:0:0:
448,192,12734,1,0,0:0:0:0:
64,192,13067,128,0,13567:0:0:0:0:
448,192,13734,128,0,14400:0:0:0:0:
320,192,14400,128,0,15067:0:0:0:0:
64,192,15067,128,0,15400:0:0:0:0:
448,192,15400,128,0,15734:0:0:0:0:
64,192,15734,128,0,16400:0:0:0:0:
320,192,16400,1,0,0:0:0:0:
192,192,16734,1,0,0:0:0:0:
448,192,16900,1,0,0:0:0:0:
320,192,17067,128,0,17400:0:0:0:0:
192,192,17567,1,0,0:0:0:0:
64,192,17734,1,0,0:0:0:0:
448,192,17900,1,0,0:0:0:0:
192,192,18067,1,0,0:0:0:0:
64,192,18234,1,0,0:0:0:0:
448,192,18400,1,0,0:0:0:0:
64,192,18734,1,0,0:0:0:0:
320,192,19067,128,0,19400:0:0:0:0:
448,192,19400,1,0,0:0:0:0:
64,192,19567,1,0,0:0:0:0:
448,192,19734,1,0,0:0:0:0:
192,192,20067,1,0,0:0:0:0:
448,192,20400,1,8,0:0:0:0:
320,192,20734,1,8,0:0:0:0:
64,192,21067,1,8,0:0:0:0:
192,192,21400,1,8,0:0:0:0:
448,192,21734,1,0,0:0:0:0:
320,192,22067,1,0,0:0:0:0:
192,192,22234,1,0,0:0:0:0:
64,192,22400,128,0,22900:0:0:0:0:
320,192,23067,1,0,0:0:0:0:
64,192,23400,1,0,0:0:0:0:
192,192,23567,1,0,0:0:0:0:
320,192,23734,128,0,24234:0:0:0:0:
192,192,24400,1,0,0:0:0:0:
64,192,24567,1,0,0:0:0:0:
448,192,24900,1,0,0:0:0:0:
320,192,25234,1,0,0:0:0:0:
64,192,25567,128,0,25900:0:0:0:0:
192,192,25900,1,0,0:0:0:0:
320,192,26067,1,0,0:0:0:0:
448,192,26317,1,0,0:0:0:0:
192,192,26400,128,0,26734:0:0:0:0:
64,192,26734,1,0,0:0:0:0:
448,192,26900,1,0,0:0:0:0:
64,192,27067,128,0,27400:0:0:0:0:
448,192,27400,1,0,0:0:0:0:
320,192,27567,1,0,0:0:0:0:
192,192,27900,1,0,0:0:0:0:
320,192,28234,1,0,0:0:0:0:
448,192,28567,1,0,0:0:0:0:
64,192,28734,1,0,0:0:0:0:
192,192,29067,1,0,0:0:0:0:
320,192,29400,1,0,0:0:0:0:
192,192,29734,1,0,0:0:0:0:
64,192,30067,1,0,0:0:0:0:
320,192,30234,1,0,0:0:0:0:
192,192,30567,1,0,0:0:0:0:
448,192,30900,1,0,0:0:0:0:
64,192,31234,1,0,0:0:0:0:
448,192,31400,1,0,0:0:0:0:
320,192,31567,1,0,0:0:0:0:
192,192,31734,1,0,0:0:0:0:
320,192,32067,1,0,0:0:0:0:
448,192,32400,128,0,33067:0:0:0:0:
320,192,33067,128,0,33734:0:0:0:0:
192,192,33734,128,0,34400:0:0:0:0:
64,192,34400,128,0,35067:0:0:0:0:
192,192,35067,128,0,35734:0:0:0:0:
320,192,35734,128,0,36067:0:0:0:0:
448,192,36067,1,0,0:0:0:0:
320,192,36400,1,0,0:0:0:0:
64,192,36567,1,0,0:0:0:0:
448,192,36900,1,0,0:0:0:0:
64,192,37234,1,0,0:0:0:0:
320,192,37400,1,0,0:0:0:0:
192,192,37734,1,8,0:0:0:0:
320,192,37900,1,8,0:0:0:0:
448,192,38234,1,8,0:0:0:0:
320,192,38400,1,8,0:0:0:0:
64,192,38734,1,8,0:0:0:0:
192,192,38900,1,8,0:0:0:0:
320,192,39234,1,8,0:0:0:0:
192,192,39400,1,8,0:0:0:0:
448,192,39734,1,8,0:0:0:0:
64,192,40067,1,8,0:0:0:0:
448,192,40400,1,0,0:0:0:0:
320,192,40734,1,0,0:0:0:0:
64,192,40900,1,0,0:0:0:0:
192,192,41234,1,0,0:0:0:0:
448,192,41567,128,0,42900:0:0:0:0:
192,192,43234,1,0,0:0:0:0:
64,192,43567,1,0,0:0:0:0:
448,192,43734,1,0,0:0:0:0:
320,192,44067,1,0,0:0:0:0:
448,192,44400,1,0,0:0:0:0:
64,192,44734,1,8,0:0:0:0:
448,192,45067,1,0,0:0:0:0:
192,192,45400,1,0,0:0:0:0:
320,192,45734,1,0,0:0:0:0:
64,192,46067,1,8,0:0:0:0:
192,192,46067,1,0,0:0:0:0:
448,192,46400,1,0,0:0:0:0:
320,192,46734,1,0,0:0:0:0:
192,192,47067,1,0,0:0:0:0:
64,192,47400,1,0,0:0:0:0:
320,192,47734,1,0,0:0:0:0:
192,192,47900,1,0,0:0:0:0:
448,192,48067,1,0,0:0:0:0:
192,192,48234,128,0,48567:0:0:0:0:
320,192,48567,128,0,48900:0:0:0:0:
448,192,48900,128,0,49234:0:0:0:0:
320,192,49734,1,0,0:0:0:0:
192,192,50067,1,0,0:0:0:0:
448,192,50234,128,0,50734:0:0:0:0:
64,192,51067,1,0,0:0:0:0:
320,192,51400,1,0,0:0:0:0:
192,192,51567,128,0,52067:0:0:0:0:
448,192,52400,1,0,0:0:0:0:
64,192,52734,1,0,0:0:0:0:
448,192,53067,1,0,0:0:0:0:
320,192,53400,1,0,0:0:0:0:
192,192,53734,1,0,0:0:0:0:
64,192,54234,1,0,0:0:0:0:
320,192,54567,1,0,0:0:0:0:
448,192,54734,1,0,0:0:0:0:
192,192,54900,1,0,0:0:0:0:
64,192,55067,1,0,0:0:0:0:
448,192,55400,1,8,0:0:0:0:
320,192,55734,1,0,0:0:0:0:
192,192,56067,1,0,0:0:0:0:
448,192,56400,1,0,0:0:0:0:
64,192,56734,1,8,0:0:0:0:
320,192,57067,1,0,0:0:0:0:
448,192,57400,1,0,0:0:0:0:
192,192,57734,1,0,0:0:0:0:
320,192,58067,1,0,0:0:0:0:
64,192,58400,1,0,0:0:0:0:
320,192,58734,1,0,0:0:0:0:
192,192,58900,1,0,0:0:0:0:
448,192,59234,1,0,0:0:0:0:
192,192,59567,1,0,0:0:0:0:
448,192,60067,1,0,0:0:0:0:
64,192,60400,128,0,61067:0:0:0:0:
320,192,61234,1,0,0:0:0:0:
192,192,61567,1,0,0:0:0:0:
448,192,61734,1,0,0:0:0:0:
192,192,62067,1,0,0:0:0:0:
448,192,62400,1,0,0:0:0:0:
64,192,62734,1,0,0:0:0:0:
448,192,63067,128,0,63650:0:0:0:0:
64,192,63900,1,0,0:0:0:0:
320,192,64067,1,0,0:0:0:0:
192,192,64400,1,0,0:0:0:0:
320,192,64734,1,0,0:0:0:0:
192,192,64900,128,0,65317:0:0:0:0:
448,192,65734,1,0,0:0:0:0:
64,192,66067,1,0,0:0:0:0:
320,192,66234,1,0,0:0:0:0:
192,192,66567,1,0,0:0:0:0:
320,192,66734,1,0,0:0:0:0:
448,192,66900,1,0,0:0:0:0:
192,192,67234,1,0,0:0:0:0:
448,192,67400,1,0,0:0:0:0:
320,192,68067,1,0,0:0:0:0:
192,192,68234,1,0,0:0:0:0:
64,192,68400,1,8,0:0:0:0:
448,192,68567,1,8,0:0:0:0:
64,192,68900,1,8,0:0:0:0:
448,192,69067,1,8,0:0:0:0:
320,192,69400,1,8,0:0:0:0:
64,192,69567,1,8,0:0:0:0:
320,192,69900,1,8,0:0:0:0:
64,192,70067,1,8,0:0:0:0:
320,192,70400,1,8,0:0:0:0:
448,192,71067,1,8,0:0:0:0:
64,192,71234,1,8,0:0:0:0:
192,192,71567,1,8,0:0:0:0:
448,192,71734,1,8,0:0:0:0:
64,192,72067,1,8,0:0:0:0:
192,192,72234,1,8,0:0:0:0:
320,192,72567,1,8,0:0:0:0:
64,192,72734,1,8,0:0:0:0:
448,192,73067,1,8,0:0:0:0:
192,192,73400,128,0,73734:0:0:0:0:
320,192,73734,1,0,0:0:0:0:
192,192,74067,1,0,0:0:0:0:
320,192,74400,1,0,0:0:0:0:
64,192,74734,1,0,0:0:0:0:
448,192,75067,1,0,0:0:0:0:
64,192,75400,1,0,0:0:0:0:
320,192,75734,128,0,76234:0:0:0:0:
64,192,76400,128,0,77067:0:0:0:0:
192,192,77067,128,0,77734:0:0:0:0:
320,192,77734,128,0,78067:0:0:0:0:
64,192,78067,128,0,78400:0:0:0:0:
448,192,78400,128,0,78734:0:0:0:0:
320,192,78734,1,0,0:0:0:0:
64,192,79067,1,0,0:0:0:0:
320,192,79400,1,0,0:0:0:0:
192,192,79734,1,0,0:0:0:0:
448,192,80067,1,0,0:0:0:0:
320,192,80400,1,0,0:0:0:0:
64,192,80734,1,0,0:0:0:0:
448,192,81067,128,0,81567:0:0:0:0:
320,192,81734,128,0,82400:0:0:0:0:
192,192,82400,128,0,83067:0:0:0:0:
320,192,83067,128,0,83734:0:0:0:0:
448,192,83734,128,0,84234:0:0:0:0:
