osu file format v14

[General]
AudioFilename: 04. .mp3
AudioLeadIn: 1015
PreviewTime: 60546
Countdown: 0
SampleSet: Normal
StackLeniency: 0.4
Mode: 0
LetterboxInBreaks: 1
WidescreenStoryboard: 1

[Editor]
Bookmarks: 138947
DistanceSpacing: 1.2
BeatDivisor: 4
GridSize: 32
TimelineZoom: 1.5

[Metadata]
Title:Love Love Baby Happy Star
TitleUnicode:ラブラブベイビーハッピースター
Artist:Tamura Yukari
ArtistUnicode:田村ゆかり
Creator:Suimya
Version:Hard
Source:
Tags:loli cRyo[iceeicee] Sekai Sekaii Sekai-nyan Yukarin ゆかりん citron no ame シトロンの雨 Kazuya Komatsu 小松一也 Miku Hazuki 羽月美久 jpop j-pop japanese pop
BeatmapID:4529599
BeatmapSetID:2150054

[Difficulty]
HPDrainRate:5
CircleSize:4
OverallDifficulty:6
ApproachRate:8
SliderMultiplier:1.4
SliderTickRate:1

[Events]
//Background and Video events
0,0,"panocute.jpg",0,0
//Break Periods
2,88653,96075
2,175164,178401
//Storyboard Layer 0 (Background)
//Storyboard Layer 1 (Fail)
//Storyboard Layer 2 (Pass)
//Storyboard Layer 3 (Foreground)
//Storyboard Layer 4 (Overlay)
//Storyboard Sound Samples

[TimingPoints]
1942,348.837209302326,4,1,2,75,1,0
2116,-100,4,1,2,55,0,0
4209,-100,4,1,1,55,0,0
4732,-100,4,1,2,75,0,0
4832,-100,4,1,2,55,0,0
7000,-100,4,1,1,55,0,0
7523,-100,4,1,4,55,0,0
10314,-100,4,1,1,55,0,0
13104,-100,4,1,2,55,0,0
13976,-100,4,1,1,47,0,0
14238,-100,4,1,2,55,0,0
14500,-100,4,1,1,60,0,0
14674,-100,4,2,1,55,0,0
15197,-100,4,1,2,55,0,0
15459,-100,4,2,1,55,0,0
15895,-100,4,2,2,55,0,0
16069,-100,4,2,2,60,0,0
16244,-100,4,2,1,55,0,0
16344,-100,4,1,2,55,0,0
16767,-100,4,1,1,47,0,0
16942,-100,4,2,1,55,0,0
17290,-100,4,1,1,55,0,0
17390,-100,4,2,1,55,0,0
17639,-100,4,1,1,47,0,0
17814,-100,4,1,1,55,0,0
17914,-100,4,2,1,55,0,0
18511,-100,4,2,2,45,0,0
18611,-100,4,1,1,55,0,0
18773,-100,4,2,1,55,0,0
19383,-100,4,1,1,55,0,0
19471,-100,4,1,1,47,0,0
19732,-100,4,2,1,55,0,0
19907,-100,4,1,1,55,0,0
20255,-100,4,2,1,55,0,0
20430,-100,4,2,1,55,0,0
20779,-100,4,1,1,55,0,0
21040,-100,4,2,1,55,0,0
22174,-100,4,1,1,55,0,0
22436,-100,4,2,1,55,0,0
22872,-100,4,1,1,55,0,0
22972,-100,4,2,1,55,0,0
23395,-100,4,1,1,55,0,0
23495,-100,4,2,1,55,0,0
24093,-100,4,1,2,55,0,0
25139,-100,4,1,1,47,0,0
25401,-100,4,1,2,55,0,0
25575,-100,4,1,1,55,0,0
25837,-100,4,2,1,55,0,0
26360,-100,4,1,1,55,0,0
26535,-100,4,1,1,47,0,0
26709,-100,4,2,1,55,0,0
27232,-100,4,2,1,65,0,0
27332,-100,4,2,1,55,0,0
27581,-100,4,1,1,55,0,0
27930,-100,4,1,1,47,0,0
28104,-100,4,2,1,55,0,0
28453,-100,4,1,1,55,0,0
28553,-100,4,2,1,55,0,0
28976,-100,4,1,1,55,0,0
29325,-100,4,1,1,47,0,0
29500,-100,4,2,1,55,0,0
29848,-100,4,2,1,55,0,0
29948,-100,4,2,1,55,0,0
30546,-100,4,1,1,55,0,0
30646,-100,4,2,1,55,0,0
31069,-100,4,1,1,55,0,0
31169,-100,4,2,1,55,0,0
31418,-100,4,1,1,47,0,0
31593,-100,4,2,1,55,0,0
31942,-100,4,1,1,55,0,0
32290,-100,4,2,1,55,0,0
33337,-100,4,1,1,55,0,0
33598,-100,4,2,1,55,0,0
34035,-100,4,1,1,55,0,0
34135,-100,4,2,1,55,0,0
34558,-100,4,2,2,55,0,0
35081,-133.333333333333,4,2,1,55,0,0
35255,-100,4,2,2,55,0,0
35355,-133.333333333333,4,1,5,55,0,0
35604,-133.333333333333,4,2,1,55,0,0
35953,-133.333333333333,4,1,1,55,0,0
36215,-133.333333333333,4,2,1,65,0,0
36825,-133.333333333333,4,1,5,55,0,0
36925,-133.333333333333,4,2,1,55,0,0
37348,-133.333333333333,4,1,1,55,0,0
37697,-133.333333333333,4,2,1,65,0,0
38221,-133.333333333333,4,1,5,55,0,0
38395,-133.333333333333,4,2,1,55,0,0
38744,-133.333333333333,4,1,1,55,0,0
39005,-133.333333333333,4,2,1,55,0,0
39267,-133.333333333333,4,2,1,65,0,0
39367,-133.333333333333,4,2,1,55,0,0
39716,-133.333333333333,4,2,1,55,0,0
40139,-133.333333333333,4,1,1,55,0,0
40488,-133.333333333333,4,2,1,65,0,0
40750,-133.333333333333,4,1,7,55,0,0
41098,-133.333333333333,4,2,1,55,0,0
41535,-133.333333333333,4,1,1,55,0,0
41883,-133.333333333333,4,2,1,55,0,0
42145,-133.333333333333,4,2,3,55,0,0
42407,-133.333333333333,4,1,7,55,0,0
42507,-133.333333333333,4,2,1,55,0,0
42930,-133.333333333333,4,1,1,55,0,0
43279,-133.333333333333,4,2,1,55,0,0
43802,-133.333333333333,4,1,7,55,0,0
44848,-133.333333333333,4,2,1,55,0,0
45197,-100,4,1,3,55,0,0
46157,-100,4,1,1,47,0,0
46593,-100,4,1,3,60,0,0
51651,-133.333333333333,4,1,1,55,0,0
52174,-133.333333333333,4,1,1,60,0,0
52274,-133.333333333333,4,2,1,60,0,0
52697,-133.333333333333,4,1,3,60,0,0
52785,-133.333333333333,4,2,2,60,0,0
53221,-100,4,2,1,60,0,0
53569,-133.333333333333,4,1,3,60,0,0
53669,-133.333333333333,4,2,3,60,0,0
54093,-133.333333333333,4,1,2,60,0,0
54180,-133.333333333333,4,2,2,60,0,0
54965,-100,4,1,4,55,0,0
57755,-83.3333333333333,4,1,1,55,0,0
59064,-83.3333333333333,4,1,1,60,0,0
60546,-95.2380952380952,4,1,3,70,0,0
62814,-100,4,1,1,70,0,0
62988,-100,4,1,3,70,0,0
65692,-100,4,1,1,70,0,0
66128,-100,4,1,3,70,0,0
67785,-100,4,1,3,70,0,0
71273,-100,4,1,1,70,0,0
71709,-100,4,1,2,70,0,0
73976,-100,4,1,1,70,0,0
74151,-100,4,1,2,70,0,0
76680,-100,4,1,1,70,0,0
76942,-100,4,1,2,70,0,0
79558,-100,4,1,1,70,0,0
79732,-100,4,1,2,70,0,0
82959,-100,4,2,3,70,0,0
84180,-100,4,1,1,70,0,0
84878,-100,4,2,3,70,0,0
85052,-100,4,2,3,70,0,0
85662,-100,4,1,2,70,0,0
87930,-100,4,2,2,70,0,0
88453,-100,4,1,2,70,0,0
100662,-100,4,2,8,85,0,0
100762,-100,4,1,1,60,0,0
101098,-100,4,2,1,60,0,0
101709,-100,4,1,1,60,0,0
101883,-100,4,1,1,47,0,0
102058,-100,4,2,1,60,0,0
102407,-100,4,2,1,60,0,0
102507,-100,4,2,1,60,0,0
102930,-100,4,1,1,60,0,0
103379,-100,4,2,1,60,0,0
103802,-100,4,1,1,60,0,0
103902,-100,4,2,1,60,0,0
104325,-100,4,1,1,60,0,0
104425,-100,4,2,1,60,0,0
104674,-100,4,1,1,47,0,0
104848,-100,4,2,1,60,0,0
105023,-100,4,2,1,55,0,0
105197,-100,4,1,1,60,0,0
105297,-100,4,2,1,55,0,0
105546,-100,4,2,1,60,0,0
105646,-100,4,2,1,55,0,0
105895,-100,4,1,1,60,0,0
105995,-100,4,1,1,47,0,0
106244,-100,4,2,1,60,0,0
106418,-100,4,1,1,60,0,0
106518,-100,4,2,1,60,0,0
107290,-100,4,1,1,60,0,0
107465,-100,4,1,1,47,0,0
107639,-100,4,2,1,60,0,0
107726,-100,4,2,3,50,0,0
108162,-100,4,2,1,60,0,0
108262,-100,4,2,1,60,0,0
108686,-100,4,1,1,60,0,0
108773,-100,4,1,1,47,0,0
109035,-100,4,2,1,60,0,0
109383,-100,4,1,1,60,0,0
109483,-100,4,2,1,60,0,0
109907,-100,4,1,1,60,0,0
110255,-100,4,2,1,60,0,0
110355,-100,4,1,1,60,0,0
111651,-100,4,1,1,47,0,0
112348,-100,4,2,1,60,0,0
112872,-100,4,1,1,60,0,0
113046,-100,4,1,1,47,0,0
113133,-100,4,2,1,60,0,0
113569,-100,4,1,1,60,0,0
113669,-100,4,2,1,60,0,0
114005,-100,4,2,1,55,0,0
114267,-100,4,1,1,60,0,0
114442,-100,4,1,1,47,0,0
114616,-100,4,2,1,60,0,0
114965,-100,4,1,1,60,0,0
115065,-100,4,2,1,60,0,0
115488,-100,4,1,1,60,0,0
115588,-100,4,2,1,60,0,0
115837,-100,4,1,1,47,0,0
116011,-100,4,2,1,60,0,0
116286,-100,4,1,1,60,0,0
116447,-100,4,2,1,60,0,0
117058,-100,4,1,1,60,0,0
117158,-100,4,2,1,60,0,0
117581,-100,4,1,1,42,0,0
117755,-100,4,1,1,60,0,0
117855,-100,4,2,1,60,0,0
118453,-100,4,1,1,60,0,0
118553,-100,4,1,1,47,0,0
118802,-100,4,2,1,60,0,0
118976,-100,4,1,1,55,0,0
119412,-100,4,2,1,60,0,0
119848,-100,4,1,1,60,0,0
120110,-100,4,2,1,60,0,0
120546,-100,4,1,1,60,0,0
120646,-100,4,2,1,60,0,0
121069,-100,4,2,2,55,0,0
121593,-133.333333333333,4,2,1,60,0,0
121767,-133.333333333333,4,2,2,55,0,0
121867,-133.333333333333,4,1,5,60,0,0
122029,-133.333333333333,4,2,2,60,0,0
122465,-133.333333333333,4,1,2,60,0,0
122814,-133.333333333333,4,2,1,60,0,0
123337,-133.333333333333,4,1,5,60,0,0
123437,-133.333333333333,4,2,1,60,0,0
123860,-133.333333333333,4,1,1,60,0,0
124209,-133.333333333333,4,2,1,60,0,0
124471,-133.333333333333,4,2,1,60,0,0
124732,-133.333333333333,4,1,5,60,0,0
124832,-133.333333333333,4,2,1,60,0,0
125255,-133.333333333333,4,1,1,60,0,0
125517,-133.333333333333,4,2,1,60,0,0
126128,-133.333333333333,4,1,1,60,0,0
126228,-133.333333333333,4,2,1,60,0,0
126651,-133.333333333333,4,1,1,60,0,0
126738,-133.333333333333,4,2,1,60,0,0
126825,-133.333333333333,4,1,1,60,0,0
126912,-133.333333333333,4,2,1,60,0,0
127523,-133.333333333333,4,1,7,60,0,0
127623,-133.333333333333,4,2,1,60,0,0
128046,-133.333333333333,4,1,1,60,0,0
128308,-133.333333333333,4,2,1,60,0,0
128918,-133.333333333333,4,1,1,60,0,0
129018,-133.333333333333,4,2,1,60,0,0
129442,-133.333333333333,4,1,1,60,0,0
129703,-133.333333333333,4,2,1,60,0,0
130314,-133.333333333333,4,1,7,60,0,0
130414,-133.333333333333,4,2,1,60,0,0
130837,-133.333333333333,4,1,1,60,0,0
131360,-100,4,2,1,60,0,0
131709,-100,4,1,2,60,0,0
132581,-100,4,1,1,47,0,0
132843,-100,4,1,3,60,0,0
137116,-100,4,1,1,42,0,0
137290,-100,4,1,3,60,0,0
138162,-133.333333333333,4,1,1,55,0,0
138598,-133.333333333333,4,1,2,60,0,0
138773,-133.333333333333,4,2,2,60,0,0
139209,-133.333333333333,4,1,2,60,0,0
139309,-133.333333333333,4,2,2,60,0,0
139732,-133.333333333333,4,2,1,60,0,0
139832,-133.333333333333,4,2,2,60,0,0
140081,-133.333333333333,4,1,2,60,0,0
140181,-133.333333333333,4,2,2,60,0,0
140604,-133.333333333333,4,1,2,60,0,0
140704,-133.333333333333,4,2,2,60,0,0
141128,-133.333333333333,4,2,1,60,0,0
141476,-100,4,1,4,55,0,0
144267,-83.3333333333333,4,1,1,55,0,0
145575,-83.3333333333333,4,1,1,60,0,0
146971,-100,4,1,2,70,0,0
149325,-100,4,1,1,70,0,0
149500,-100,4,1,2,70,0,0
152290,-100,4,1,1,70,0,0
152639,-100,4,1,2,70,0,0
157697,-100,4,1,1,70,0,0
158133,-100,4,1,2,70,0,0
160488,-100,4,1,1,70,0,0
160662,-100,4,1,2,70,0,0
163279,-100,4,1,1,70,0,0
163453,-100,4,1,2,70,0,0
166069,-100,4,1,1,70,0,0
166244,-100,4,1,2,70,0,0
169383,-133.333333333333,4,1,2,70,0,0
169471,-133.333333333333,4,2,1,70,0,0
170081,-100,4,1,1,70,0,0
170168,-100,4,2,1,70,0,0
170779,-100,4,1,2,70,0,0
171389,-100,4,2,3,70,0,0
171564,-100,4,2,3,70,0,0
172087,-100,4,1,2,70,0,0
174442,-100,4,1,1,70,0,0
174616,-100,4,1,2,70,0,0
178976,-100,4,1,4,60,0,0
180197,-100,4,2,0,60,0,0
180546,-100,4,1,2,60,0,0
185604,-100,4,1,1,48,0,0
185866,-100,4,1,2,60,0,0
187174,-100,4,1,1,48,0,0
187523,-100,4,1,2,60,0,0
188831,-100,4,1,4,55,0,0
191709,-100,4,1,1,55,0,0
193104,-100,4,1,2,60,0,0
194151,-71.4285714285714,4,2,8,85,0,0
194251,-100,4,2,0,55,0,0
194500,-100,4,1,2,60,0,0
196767,-100,4,1,1,47,0,0
196942,-100,4,1,2,60,0,0
199645,-100,4,1,1,47,0,0
200081,-100,4,1,2,60,0,0
202348,-100,4,1,1,47,0,0
202523,-100,4,1,2,60,0,0
205139,-100,4,1,1,47,0,0
205662,-100,4,1,2,70,0,0
207930,-100,4,1,1,70,0,0
208104,-100,4,1,2,70,0,0
210721,-100,4,1,1,70,0,0
211244,-100,4,1,2,70,0,0
213511,-100,4,1,1,70,0,0
213686,-100,4,1,2,70,0,0
216912,-100,4,2,2,70,0,0
218221,-100,4,1,2,70,0,0
218918,-100,4,2,3,70,0,0
219093,-100,4,2,3,50,0,0
219616,-100,4,1,2,60,0,0
221883,-100,4,1,1,50,0,0
222145,-100,4,1,2,60,0,0
222407,-100,4,1,2,55,0,0
230255,-100,4,1,1,60,0,0
230430,-100,4,1,2,60,0,0
230953,-100,4,1,4,40,0,0
231302,-100,4,1,4,45,0,0
231651,-100,4,1,4,50,0,0
232000,-100,4,1,1,47,0,0
232174,-100,4,1,4,55,0,0
234965,-100,4,1,1,55,0,0
236360,-100,4,1,2,60,0,0
238104,-100,4,2,2,5,0,0

[Colours]
Combo1 : 128,128,255
Combo2 : 255,128,128

[HitObjects]
123,279,1941,5,2,1:0:0:0:
360,98,3337,1,6,1:0:0:0:
360,98,3511,1,2,0:0:0:0:
279,227,3860,2,2,P|234:216|123:189,1,140,2|8,0:0|0:0,0:0:0:0:
123,279,4383,2,0,P|164:286|211:294,1,70,8|8,0:0|0:0,0:0:0:0:
140,366,4732,1,0,0:0:0:0:
89,72,6128,5,6,0:0:0:0:
89,72,6302,1,2,0:0:0:0:
279,227,6651,2,2,P|234:216|123:189,1,140,2|8,0:0|0:0,0:0:0:0:
123,279,7174,2,0,P|164:286|211:294,1,70,0|8,0:0|0:0,0:0:0:0:
265,379,7523,6,0,P|279:341|272:304,1,70,2|0,0:0|0:0,0:0:0:0:
382,320,7872,2,0,P|369:280|338:252,1,70,2|0,0:0|0:0,0:0:0:0:
392,176,8221,2,0,P|343:163|304:178,1,70,2|0,0:0|0:0,0:0:0:0:
262,85,8569,2,0,P|232:117|225:154,1,70,2|0,0:0|0:0,0:0:0:0:
271,243,8918,6,0,P|231:233|192:223,1,70,2|2,0:0|0:0,0:0:0:0:
207,141,9267,2,0,P|216:105|241:80,1,70,2|2,0:0|0:0,0:0:0:0:
323,153,9616,2,0,P|359:147|392:157,1,70,2|2,0:0|0:0,0:0:0:0:
357,255,9965,2,0,P|383:281|392:314,1,70,2|2,0:0|0:0,0:0:0:0:
477,241,10314,5,8,0:0:0:0:
434,150,10488,2,0,L|460:123,2,35,0|0|8,0:0|0:0|0:0,0:0:0:0:
399,61,10837,2,0,L|425:36,2,35,0|0|8,0:0|0:0|0:0,0:0:0:0:
322,115,11186,1,0,0:0:0:0:
322,115,11273,1,0,0:0:0:0:
322,115,11360,2,0,P|272:109|220:98,1,70,8|8,0:0|0:0,0:0:0:0:
120,102,11709,5,2,0:0:0:0:
120,102,11883,1,0,0:0:0:0:
173,184,12058,2,0,P|210:189|246:194,1,70,2|0,0:0|0:0,0:0:0:0:
193,278,12407,1,2,0:0:0:0:
444,355,13104,6,0,P|454:309|465:278,1,70,6|2,0:0|0:0,0:0:0:0:
362,168,13628,2,2,P|368:212|375:316,1,140,6|8,0:0|0:0,0:0:0:0:
365,342,14064,1,8,0:0:0:0:
365,342,14151,1,8,0:0:0:0:
191,291,14500,2,0,P|153:281|28:264,1,140,4|8,0:0|0:0,0:0:0:0:
22,184,15023,1,0,0:0:0:0:
101,121,15197,2,0,P|110:159|117:203,1,70,0|0,1:0|0:0,0:0:0:0:
179,73,15546,2,0,P|190:120|197:166,1,70,8|0,0:0|0:0,0:0:0:0:
315,125,15895,6,0,P|347:113|383:92,1,70,4|2,1:0|0:0,0:0:0:0:
472,88,16244,1,8,0:0:0:0:
443,176,16418,2,0,P|398:194|307:251,1,140,0|8,1:0|0:0,0:0:0:0:
288,316,16942,1,8,0:0:0:0:
148,352,17290,6,0,P|128:309|62:219,1,140,0|8,0:0|0:0,0:0:0:0:
56,212,17726,1,8,0:0:0:0:
56,212,17814,2,0,P|94:206|140:191,1,70,0|0,1:0|0:0,0:0:0:0:
187,126,18162,1,8,0:0:0:0:
102,98,18337,2,0,P|64:104|18:119,1,70,8|4,0:0|0:0,0:0:0:0:
187,126,18686,6,0,P|225:120|271:105,1,70
320,47,19035,2,0,P|353:37|388:32,1,70,8|2,0:0|0:0,0:0:0:0:
425,124,19383,2,0,P|392:134|357:139,1,70,0|8,1:0|1:0,0:0:0:0:
358,236,19732,1,8,2:0:0:0:
358,236,19907,6,0,P|311:232|208:244,1,140,0|2,0:0|0:0,0:0:0:0:
150,338,20430,2,0,P|133:301|131:268,1,70,8|2,0:0|0:0,0:0:0:0:
56,206,20779,2,0,P|97:188|205:168,1,140,0|8,0:0|0:0,0:0:0:0:
219,66,21302,6,0,P|285:75|359:71,1,140,4|2,1:0|0:0,0:0:0:0:
456,49,21825,1,8,0:0:0:0:
456,49,22000,1,2,0:0:0:0:
435,144,22174,2,0,P|387:152|351:164,1,70
290,235,22523,1,8,0:0:0:0:
290,235,22697,2,0,P|324:239|358:249,1,70,0|4,0:0|0:0,0:0:0:0:
291,379,23046,2,0,P|304:343|286:291,1,70,2|8,0:0|0:0,0:0:0:0:
200,283,23395,2,0,P|183:222|223:143,1,140,0|8,0:0|0:0,0:0:0:0:
175,68,23918,1,4,0:0:0:0:
65,130,24093,5,0,0:0:0:0:
65,130,24180,1,0,0:0:0:0:
65,130,24267,2,0,P|80:169|92:203,1,70,6|2,0:0|0:0,0:0:0:0:
70,335,24790,2,2,P|110:318|208:280,1,140,2|8,0:0|0:0,0:0:0:0:
232,269,25226,1,8,0:0:0:0:
232,269,25314,1,8,0:0:0:0:
418,134,25662,6,0,P|411:170|403:284,1,140,4|8,0:0|0:0,0:0:0:0:
411,369,26186,1,0,0:0:0:0:
332,327,26360,2,0,P|322:285|319:246,1,70,0|8,0:0|0:0,0:0:0:0:
319,223,26622,1,8,0:0:0:0:
319,223,26709,2,0,P|325:185|337:141,1,70,8|0,0:0|0:0,0:0:0:0:
257,63,27058,6,0,P|209:50|130:96,2,140,4|8|0,1:0|0:0|0:0,0:0:0:0:
205,135,27930,1,8,0:0:0:0:
205,135,28017,1,8,0:0:0:0:
205,135,28104,2,0,P|192:174|184:212,1,70,8|0,0:0|0:0,0:0:0:0:
187,307,28453,6,0,P|130:285|52:263,1,140,0|8,0:0|0:0,0:0:0:0:
0,334,28976,2,0,P|67:352|132:377,1,140,0|8,0:0|0:0,0:0:0:0:
195,289,29500,2,0,P|138:267|100:256,2,70,8|8|4,0:0|0:0|0:0,0:0:0:0:
254,206,30023,5,0,0:0:0:0:
329,242,30197,1,8,0:0:0:0:
400,285,30372,1,0,0:0:0:0:
400,285,30546,2,0,P|429:221|465:161,1,140,0|8,0:0|0:0,0:0:0:0:
512,56,31069,6,0,P|465:69|364:75,1,140,0|8,1:0|0:0,0:0:0:0:
343,72,31505,1,8,0:0:0:0:
343,72,31593,2,0,P|300:74|258:82,1,70,8|0,0:0|0:0,0:0:0:0:
202,7,31942,2,0,P|188:43|189:87,1,70
234,157,32290,1,8,0:0:0:0:
145,191,32465,6,0,P|96:197|-18:210,1,140,4|2,0:0|0:0,0:0:0:0:
47,291,32988,2,0,P|89:284|135:275,1,70
168,352,33337,2,0,P|133:358|99:364,1,70
200,265,33686,1,8,0:0:0:0:
200,265,33860,1,2,0:0:0:0:
299,321,34035,6,0,P|344:304|439:279,1,140,0|8,0:0|0:0,0:0:0:0:
491,204,34558,2,0,P|492:119|455:74,1,140,8|8,0:0|0:0,0:0:0:0:
412,155,35081,1,8,0:0:0:0:
412,155,35255,1,8,0:0:0:0:
328,81,35430,6,0,P|280:73|211:57,1,105.000004005432,12|0,0:0|0:0,0:0:0:0:
138,26,35953,1,0,0:0:0:0:
138,26,36128,2,0,P|143:58|151:143,1,105.000004005432,0|8,0:0|0:0,0:0:0:0:
66,255,36825,6,0,P|114:263|183:279,1,105.000004005432,12|0,0:0|0:0,0:0:0:0:
256,310,37348,1,0,0:0:0:0:
256,310,37523,2,0,P|251:278|243:193,1,105.000004005432,0|8,0:0|0:0,0:0:0:0:
349,87,38221,6,0,P|397:76|451:100,1,105.000004005432,12|0,0:0|0:0,0:0:0:0:
438,190,38744,1,0,0:0:0:0:
438,190,38918,2,0,P|390:201|336:177,1,105.000004005432,0|8,0:0|0:0,0:0:0:0:
219,250,39616,2,0,P|238:280|254:304,1,52.5000020027161,2|2,1:0|0:0,0:0:0:0:
180,363,39965,2,0,P|161:332|146:309,1,52.5000020027161,2|2,1:0|0:0,0:0:0:0:
66,283,40314,1,0,0:0:0:0:
122,212,40488,2,0,P|153:207|169:201,2,26.2500010013581,8|0|8,0:0|0:0|0:0,0:0:0:0:
58,141,40837,5,0,0:0:0:0:
58,141,40924,1,0,0:0:0:0:
58,141,41011,2,0,P|94:128|168:94,1,105.000004005432,8|0,0:0|0:0,0:0:0:0:
174,15,41535,1,0,0:0:0:0:
174,15,41709,2,0,P|211:32|276:51,1,105.000004005432,0|8,0:0|0:0,0:0:0:0:
427,44,42407,6,0,P|407:81|380:149,1,105.000004005432
461,178,42930,1,0,0:0:0:0:
461,178,43104,2,0,P|449:213|435:296,1,105.000004005432,0|8,0:0|0:0,0:0:0:0:
302,381,43802,6,0,P|295:342|269:276,1,105.000004005432,8|0,0:0|0:0,0:0:0:0:
179,294,44325,1,0,0:0:0:0:
179,294,44500,2,0,P|129:277|66:272,1,105.000004005432,0|8,0:0|0:0,0:0:0:0:
53,133,45197,6,0,P|115:119|181:163,1,140,2|8,0:0|0:0,0:0:0:0:
236,83,45721,1,2,0:0:0:0:
236,83,45895,2,0,P|276:71|311:55,1,70,0|8,0:0|0:0,0:0:0:0:
379,15,46244,1,8,0:0:0:0:
471,112,46593,6,0,P|434:127|344:183,1,140,6|8,0:0|0:0,0:0:0:0:
335,297,47116,1,2,2:0:0:0:
444,318,47290,2,0,P|432:283|445:241,1,70,4|0,2:0|0:0,0:0:0:0:
335,297,47639,2,0,P|295:308|260:324,1,70,8|0,1:0|0:0,0:0:0:0:
134,364,47988,6,0,P|122:308|152:231,1,140,2|8,0:0|0:0,0:0:0:0:
168,136,48511,1,2,2:0:0:0:
59,115,48685,2,0,P|71:150|58:192,1,70,4|0,2:0|0:0,0:0:0:0:
168,136,49034,2,0,P|208:125|243:109,1,70,8|0,0:0|0:0,0:0:0:0:
362,37,49383,6,0,P|348:83|335:191,1,140,2|8,0:0|0:0,0:0:0:0:
442,106,49907,1,2,2:0:0:0:
415,196,50081,2,0,P|422:230|437:262,1,70,4|0,2:0|0:0,0:0:0:0:
365,342,50430,2,0,P|350:310|342:275,1,70,2|0,2:0|0:0,0:0:0:0:
256,191,50779,5,4,1:0:0:0:
256,191,51302,2,0,P|208:175|132:128,1,140,4|8,0:0|0:0,0:0:0:0:
29,108,51825,2,0,P|48:149|54:180,1,52.5000020027161,8|8,0:0|0:0,0:0:0:0:
36,260,52174,6,0,P|71:249|91:243,1,52.5000020027161
113,322,52523,2,0,P|148:311|168:305,1,52.5000020027161,2|0,0:0|0:0,0:0:0:0:
201,380,52872,2,0,P|275:356|317:344,1,105.000004005432,8|8,0:0|0:0,0:0:0:0:
503,318,53569,6,0,P|468:329|448:335,1,52.5000020027161
426,256,53918,2,0,P|391:267|371:273,1,52.5000020027161,2|0,0:0|0:0,0:0:0:0:
337,193,54267,2,0,P|262:216|220:228,1,105.000004005432,8|0,0:0|0:0,0:0:0:0:
152,384,54965,6,0,P|138:346|145:309,1,70,2|0,0:0|0:0,0:0:0:0:
35,325,55314,2,0,P|48:285|79:257,1,70,2|0,0:0|0:0,0:0:0:0:
25,181,55663,2,0,P|74:168|113:183,1,70,2|0,0:0|0:0,0:0:0:0:
155,90,56011,2,0,P|185:122|192:159,1,70,2|0,0:0|0:0,0:0:0:0:
146,248,56360,6,0,P|186:238|225:228,1,70,2|2,0:0|0:0,0:0:0:0:
210,146,56709,2,0,P|201:110|176:85,1,70,2|2,0:0|0:0,0:0:0:0:
94,158,57058,2,0,P|58:152|25:162,1,70,2|2,0:0|0:0,0:0:0:0:
60,260,57407,2,0,P|34:286|25:319,1,70,2|2,0:0|0:0,0:0:0:0:
140,368,57755,5,8,0:0:0:0:
195,271,57930,2,0,L|152:281,2,41.9999987182618,8|0|8,0:0|0:0|0:0,0:0:0:0:
286,333,58279,2,0,L|243:343,2,41.9999987182618,8|0|8,0:0|0:0|0:0,0:0:0:0:
330,240,58628,2,0,L|287:250,2,41.9999987182618,8|0|8,0:0|0:0|0:0,0:0:0:0:
391,316,58976,1,8,0:0:0:0:
452,204,59151,6,0,P|468:158|482:123,1,83.9999974365235,2|0,0:0|0:0,0:0:0:0:
379,131,59500,2,0,P|395:85|409:50,1,83.9999974365235,2|0,0:0|0:0,0:0:0:0:
294,79,59848,1,2,0:0:0:0:
109,181,60546,6,0,P|81:181|40:216,1,73.4999977569581,6|0,0:0|0:0,0:0:0:0:
51,297,60895,2,0,P|69:331|86:368,1,73.4999977569581,10|0,0:0|0:0,0:0:0:0:
163,287,61244,2,0,P|178:253|195:221,1,73.4999977569581,2|0,0:0|0:0,0:0:0:0:
284,151,61593,1,8,0:0:0:0:
284,151,61767,6,0,P|355:135|426:172,1,146.999995513916,2|2,0:0|0:0,0:0:0:0:
412,282,62290,1,8,0:0:0:0:
412,282,62465,2,2,P|341:298|270:261,1,146.999995513916,2|8,0:0|0:0,0:0:0:0:
348,216,62988,1,8,0:0:0:0:
228,87,63337,6,0,P|208:57|175:18,1,70,2|0,0:0|0:0,0:0:0:0:
126,110,63686,2,0,P|88:89|57:78,1,70,10|0,0:0|0:0,0:0:0:0:
71,191,64035,2,0,P|42:256|73:323,1,140,2|8,0:0|0:0,0:0:0:0:
155,258,64558,6,0,P|191:269|288:311,1,140,2|2,0:0|0:0,0:0:0:0:
379,372,65081,1,8,0:0:0:0:
379,372,65255,2,2,P|380:332|396:220,1,140,2|0,0:0|0:0,0:0:0:0:
362,140,65779,2,0,P|329:174|300:190,1,70,8|8,0:0|0:0,0:0:0:0:
182,90,66128,6,0,P|229:107|270:113,1,70,8|8,0:0|0:0,0:0:0:0:
318,49,66476,1,2,0:0:0:0:
318,49,66825,1,2,0:0:0:0:
210,183,67174,2,0,P|163:166|122:160,1,70,8|0,0:0|0:0,0:0:0:0:
79,293,67523,6,0,P|108:273|131:247,1,70,8|8,0:0|0:0,0:0:0:0:
45,191,67872,1,2,0:0:0:0:
45,191,68221,1,2,0:0:0:0:
153,115,68395,1,0,0:0:0:0:
153,115,68482,1,0,0:0:0:0:
153,115,68569,2,0,P|187:122|219:135,1,70,8|0,0:0|0:0,0:0:0:0:
308,49,68918,5,2,0:0:0:0:
376,97,69093,1,0,0:0:0:0:
442,148,69267,1,8,0:0:0:0:
442,148,69616,5,2,0:0:0:0:
374,196,69791,1,0,0:0:0:0:
308,247,69965,1,10,0:0:0:0:
308,247,70314,6,0,P|335:276|361:311,1,70,2|0,0:0|0:0,0:0:0:0:
419,249,70662,1,8,0:0:0:0:
419,249,70837,2,2,P|397:221|325:135,1,140,2|8,0:0|0:0,0:0:0:0:
419,109,71360,2,0,P|406:96|395:83,3,35,8|8|2|0,0:0|0:0|0:0|0:0,0:0:0:0:
369,58,71709,6,0,P|335:54|296:71,1,70,2|0,0:0|0:0,0:0:0:0:
209,66,72058,2,0,P|177:54|143:58,1,70,10|0,0:0|0:0,0:0:0:0:
28,52,72407,2,0,P|51:84|113:183,1,140,2|8,0:0|0:0,0:0:0:0:
75,294,72930,6,0,P|47:246|-3:171,1,140,2|0,0:0|0:0,0:0:0:0:
49,41,73453,1,8,0:0:0:0:
49,41,73628,2,2,P|72:73|134:172,1,140,2|8,0:0|0:0,0:0:0:0:
141,188,74064,1,8,0:0:0:0:
141,188,74151,1,8,0:0:0:0:
283,252,74500,6,0,P|242:269|208:294,1,70,2|0,0:0|0:0,0:0:0:0:
302,346,74848,2,8,P|343:329|377:304,1,70,10|0,0:0|0:0,0:0:0:0:
364,205,75197,2,0,P|408:227|498:263,1,140,2|8,0:0|0:0,0:0:0:0:
499,159,75721,6,0,P|433:133|370:102,1,140,2|2,0:0|0:0,0:0:0:0:
298,29,76244,1,8,0:0:0:0:
265,118,76418,2,0,P|253:161|248:204,1,70,2|0,0:0|0:0,0:0:0:0:
177,272,76767,1,8,0:0:0:0:
177,272,76854,1,8,0:0:0:0:
177,272,76942,2,0,P|171:237|161:203,1,70,8|0,0:0|0:0,0:0:0:0:
151,101,77290,6,0,P|107:129|18:168,2,140,6|10|0,0:0|0:0|0:0,0:0:0:0:
179,10,78162,1,2,0:0:0:0:
280,49,78337,2,0,P|268:92|263:135,1,70
360,163,78686,6,0,P|404:191|493:230,2,140,2|8|0,0:0|0:0|0:0,0:0:0:0:
360,74,79558,1,8,0:0:0:0:
264,117,79733,2,0,P|276:160|281:203,1,70,10|0,0:0|0:0,0:0:0:0:
196,277,80081,5,2,0:0:0:0:
348,340,80430,1,8,0:0:0:0:
196,277,80779,2,0,P|185:315|183:357,1,70,2|0,0:0|0:0,0:0:0:0:
98,261,81128,2,0,P|94:226|84:192,1,70,8|0,0:0|0:0,0:0:0:0:
34,100,81476,6,0,P|85:91|185:60,1,140,2|8,0:0|0:0,0:0:0:0:
255,13,82000,1,2,0:0:0:0:
394,122,82348,2,0,P|343:131|322:138,1,70,2|0,0:0|0:0,0:0:0:0:
277,219,82697,1,0,0:0:0:0:
369,228,82872,6,0,P|355:269|331:366,1,140,4|8,0:0|1:0,0:0:0:0:
240,353,83395,1,2,0:0:0:0:
240,353,83569,2,0,P|255:284|277:218,1,140,8|8,0:0|1:0,0:0:0:0:
143,92,84267,6,0,P|150:140|151:179,1,70,2|0,0:0|2:0,0:0:0:0:
58,247,84616,2,0,P|60:212|66:177,1,70,2|0,0:0|2:0,0:0:0:0:
303,54,85662,6,0,P|355:46|457:23,1,140,6|8,0:0|0:0,0:0:0:0:
497,193,86360,1,2,0:0:0:0:
471,273,86535,1,2,0:0:0:0:
444,352,86709,1,8,0:0:0:0:
307,270,86883,6,0,P|256:251|160:231,1,140,6|2,0:0|0:0,0:0:0:0:
106,316,87407,1,2,0:0:0:0:
79,237,87581,1,2,0:0:0:0:
53,157,87756,1,2,0:0:0:0:
298,37,88453,5,4,0:0:0:0:
256,192,96825,12,2,98221,0:0:0:0:
424,275,98569,5,2,0:0:0:0:
197,122,99093,1,0,0:0:0:0:
197,122,99180,1,0,0:0:0:0:
197,122,99267,2,0,P|208:160|218:207,1,70
255,298,99616,1,6,0:0:0:0:
255,298,100662,2,0,P|212:285|163:274,1,70,8|0,0:0|0:0,0:0:0:0:
119,343,101011,6,0,P|81:333|33:325,1,70,4|0,1:0|0:0,0:0:0:0:
11,234,101360,2,0,P|45:240|79:249,1,70,8|0,0:0|0:0,0:0:0:0:
147,184,101709,1,0,0:0:0:0:
84,106,101883,1,8,0:0:0:0:
84,106,101971,1,8,0:0:0:0:
84,106,102058,2,0,P|64:142|72:178,1,70,8|0,0:0|0:0,0:0:0:0:
205,92,102407,6,0,P|258:79|357:38,1,140,4|8,0:0|0:0,0:0:0:0:
442,28,102930,2,0,P|416:96|397:160,1,140
413,253,103453,1,8,0:0:0:0:
413,253,103802,2,0,P|370:272|283:325,1,140,0|8,0:0|0:0,0:0:0:0:
192,366,104325,2,0,P|205:315|221:214,1,140,0|8,0:0|0:0,0:0:0:0:
219,140,104848,2,0,P|269:159|302:163,1,70,8|8,0:0|0:0,0:0:0:0:
157,46,105371,5,2,0:0:0:0:
89,95,105546,1,8,0:0:0:0:
16,137,105720,1,2,0:0:0:0:
16,137,105895,2,0,P|41:173|62:204,1,70,0|8,0:0|0:0,0:0:0:0:
83,275,106244,1,8,0:0:0:0:
166,355,106418,6,0,P|176:285|193:217,1,140,0|2,0:0|0:0,0:0:0:0:
219,141,106942,1,8,0:0:0:0:
293,179,107117,1,2,0:0:0:0:
365,217,107290,2,0,P|376:184|395:135,1,70,0|8,0:0|0:0,0:0:0:0:
399,120,107552,1,8,0:0:0:0:
399,120,107639,1,12,0:0:0:0:
456,225,107814,6,0,P|436:268|399:368,1,140,4|2,0:0|0:0,0:0:0:0:
293,363,108337,2,0,P|317:326|339:289,1,70,8|2,0:0|0:0,0:0:0:0:
365,217,108686,2,0,P|346:187|327:157,1,70,0|8,0:0|0:0,0:0:0:0:
278,88,109035,1,8,0:0:0:0:
190,149,109209,6,0,P|216:184|269:275,1,140,4|2,0:0|0:0,0:0:0:0:
205,365,109732,1,8,0:0:0:0:
205,365,109907,2,0,P|179:329|126:239,1,140,0|8,0:0|0:0,0:0:0:0:
94,152,110430,1,2,0:0:0:0:
23,247,110604,5,0,0:0:0:0:
23,247,110692,1,0,0:0:0:0:
23,247,110779,2,0,P|48:278|75:321,1,70,2|2,0:0|0:0,0:0:0:0:
265,266,111302,2,2,P|230:205|190:149,1,140,2|8,0:0|0:0,0:0:0:0:
166,123,111738,1,8,0:0:0:0:
166,123,111825,1,8,0:0:0:0:
308,69,112174,6,0,P|351:55|380:39,1,70,4|0,1:0|0:0,0:0:0:0:
388,146,112523,2,0,P|428:137|460:116,1,70,8|0,0:0|0:0,0:0:0:0:
385,236,112872,2,0,P|416:251|449:261,1,70,0|8,0:0|0:0,0:0:0:0:
310,300,113221,2,0,P|335:323|365:342,1,70,8|0,0:0|0:0,0:0:0:0:
188,318,113569,6,0,P|124:311|40:309,1,140,0|8,0:0|0:0,0:0:0:0:
6,221,114093,2,0,P|75:222|145:230,1,140,4|8,0:0|0:0,3:0:0:0:
181,237,114529,1,8,0:0:0:0:
181,237,114616,2,0,P|194:198|187:164,1,70,8|0,0:0|0:0,0:0:0:0:
97,102,114965,6,0,P|161:95|245:93,1,140,0|8,0:0|0:0,0:0:0:0:
279,5,115489,2,0,P|210:6|140:14,1,140,0|8,0:0|0:0,0:0:0:0:
103,20,115924,1,8,0:0:0:0:
103,20,116011,1,8,0:0:0:0:
189,170,116360,6,0,P|193:204|181:237,1,70,4|2,0:0|0:0,0:0:0:0:
110,347,116709,2,0,P|97:314|101:280,1,70,8|2,0:0|0:0,0:0:0:0:
198,172,117058,2,0,P|201:206|189:238,1,70
108,202,117407,1,8,0:0:0:0:
184,316,117581,5,8,0:0:0:0:
184,316,117668,1,8,0:0:0:0:
184,316,117755,2,0,P|226:308|259:301,1,70
325,358,118104,2,0,P|339:321|354:280,1,70,8|8,0:0|0:0,0:0:0:0:
446,347,118453,2,0,P|451:308|456:257,1,70,0|8,0:0|0:0,0:0:0:0:
512,212,118802,1,8,0:0:0:0:
435,156,118976,6,0,P|391:152|281:128,1,140,4|0,0:0|0:0,0:0:0:0:
345,51,119500,2,0,P|303:37|270:20,1,70,8|0,0:0|0:0,0:0:0:0:
174,7,119848,2,0,P|188:43|202:87,1,70
164,188,120197,2,0,P|200:167|243:155,1,70,8|0,0:0|0:0,0:0:0:0:
79,158,120546,6,0,P|98:204|134:297,1,140,0|8,0:0|0:0,0:0:0:0:
176,382,121069,2,0,P|226:347|306:303,1,140,8|8,0:0|0:0,0:0:0:0:
376,263,121593,1,8,0:0:0:0:
376,263,121767,1,8,0:0:0:0:
298,194,121942,6,0,P|286:161|245:93,1,105.000004005432,12|0,0:0|0:0,0:0:0:0:
343,91,122465,1,0,0:0:0:0:
343,91,122639,2,0,P|378:52|434:10,1,105.000004005432,0|8,0:0|0:0,0:0:0:0:
298,194,123337,6,0,P|265:206|197:247,1,105.000004005432,12|0,0:0|0:0,0:0:0:0:
195,149,123860,1,0,0:0:0:0:
195,149,124034,2,0,P|156:114|114:58,1,105.000004005432,0|8,0:0|0:0,0:0:0:0:
0,205,124732,6,0,P|25:234|68:294,1,105.000004005432,12|0,0:0|0:0,0:0:0:0:
94,372,125255,1,0,0:0:0:0:
94,372,125430,2,0,P|119:351|182:308,1,105.000004005432,0|8,0:0|0:0,0:0:0:0:
292,270,126128,6,0,P|277:305|269:333,2,52.5000020027161
380,237,126651,1,0,0:0:0:0:
308,178,126825,2,0,P|272:182|245:195,1,52.5000020027161,0|8,0:0|0:0,0:0:0:0:
227,202,127087,1,0,0:0:0:0:
227,202,127174,1,8,0:0:0:0:
309,75,127523,6,0,P|340:83|426:97,1,105.000004005432,8|0,0:0|0:0,0:0:0:0:
502,98,128046,1,0,0:0:0:0:
502,98,128221,2,0,P|486:140|464:211,1,105.000004005432,0|8,0:0|0:0,0:0:0:0:
483,336,128918,6,0,P|452:328|366:314,1,105.000004005432
290,313,129441,1,0,0:0:0:0:
290,313,129616,2,0,P|306:271|328:200,1,105.000004005432,0|8,0:0|0:0,0:0:0:0:
200,146,130314,6,0,P|154:130|87:142,1,105.000004005432,8|0,0:0|0:0,0:0:0:0:
88,231,130837,1,0,0:0:0:0:
88,231,131011,2,0,P|134:247|201:235,1,105.000004005432,0|8,0:0|0:0,0:0:0:0:
246,82,131709,6,0,P|211:65|173:53,1,70,2|0,0:0|2:0,0:0:0:0:
200,146,132058,1,8,0:0:0:0:
291,164,132232,2,0,P|313:127|374:43,1,140,2|8,0:0|0:0,0:0:0:0:
390,27,132668,1,8,0:0:0:0:
390,27,132755,1,8,0:0:0:0:
408,163,133104,6,0,P|377:213|335:292,1,140,6|8,0:0|0:0,0:0:0:0:
396,365,133628,1,2,2:0:0:0:
436,280,133802,2,0,P|455:238|474:206,1,70,4|0,2:0|0:0,0:0:0:0:
329,279,134151,2,0,P|348:237|367:205,1,70,8|0,0:0|0:0,0:0:0:0:
232,314,134500,6,0,P|182:283|103:241,1,140,2|0,0:0|0:0,0:0:0:0:
30,302,135024,1,2,2:0:0:0:
115,342,135198,2,0,P|157:361|189:380,1,70,4|0,2:0|0:0,0:0:0:0:
120,234,135547,2,0,P|162:253|194:272,1,70,8|0,0:0|0:0,0:0:0:0:
220,154,135895,6,0,P|270:123|349:81,1,140,2|8,0:0|0:0,0:0:0:0:
422,142,136419,1,2,2:0:0:0:
337,182,136593,2,0,P|295:201|263:220,1,70,4|0,2:0|0:0,0:0:0:0:
336,72,136942,2,0,P|294:91|262:110,1,70,8|8,0:0|0:0,0:0:0:0:
160,45,137290,5,4,2:0:0:0:
160,45,137814,2,0,P|113:63|74:77,1,70,4|0,0:0|0:0,0:0:0:0:
9,97,138162,1,8,0:0:0:0:
59,157,138337,1,8,0:0:0:0:
105,220,138511,1,8,0:0:0:0:
154,141,138686,6,0,P|186:149|264:177,1,105.000004005432,4|0,0:0|0:0,0:0:0:0:
194,251,139209,1,0,0:0:0:0:
194,251,139383,2,0,P|207:281|227:357,1,105.000004005432,8|8,0:0|0:0,0:0:0:0:
419,343,140081,6,0,P|387:335|309:307,1,105.000004005432,0|2,0:0|0:0,0:0:0:0:
379,233,140604,1,0,0:0:0:0:
379,233,140778,2,0,P|366:203|346:127,1,105.000004005432,8|8,0:0|0:0,0:0:0:0:
183,43,141476,6,0,P|169:81|176:118,1,70,2|0,0:0|0:0,0:0:0:0:
66,102,141825,2,0,P|79:142|110:170,1,70,2|0,0:0|0:0,0:0:0:0:
56,246,142174,2,0,P|105:259|144:244,1,70,2|0,0:0|0:0,0:0:0:0:
186,337,142522,2,0,P|216:305|223:268,1,70,2|0,0:0|0:0,0:0:0:0:
177,179,142871,6,0,P|217:189|256:199,1,70,2|2,0:0|0:0,0:0:0:0:
241,281,143220,2,0,P|232:317|207:342,1,70,2|2,0:0|0:0,0:0:0:0:
125,269,143569,2,0,P|89:275|56:265,1,70,2|2,0:0|0:0,0:0:0:0:
91,167,143918,2,0,P|65:141|56:108,1,70,2|2,0:0|0:0,0:0:0:0:
171,59,144266,5,8,0:0:0:0:
226,156,144441,2,0,L|183:146,2,41.9999987182618,8|0|8,0:0|0:0|0:0,0:0:0:0:
317,94,144790,2,0,L|274:84,2,41.9999987182618,8|0|8,0:0|0:0|0:0,0:0:0:0:
361,187,145139,2,0,L|318:177,2,41.9999987182618,8|0|8,0:0|0:0|0:0,0:0:0:0:
422,111,145487,1,8,0:0:0:0:
492,231,145662,6,0,P|476:277|462:312,1,83.9999974365235,2|0,0:0|0:0,0:0:0:0:
365,291,146011,2,0,P|349:337|335:372,1,83.9999974365235,2|0,0:0|0:0,0:0:0:0:
254,294,146359,1,2,0:0:0:0:
116,140,147058,6,0,P|77:144|36:137,1,70,6|0,1:0|0:0,0:0:0:0:
48,51,147407,2,0,P|82:45|117:47,1,70,10|0,0:0|0:0,0:0:0:0:
191,99,147755,2,0,P|225:101|260:95,1,70,2|0,0:0|0:0,0:0:0:0:
325,31,148104,1,8,0:0:0:0:
371,123,148279,6,0,P|343:150|272:233,1,140,2|2,0:0|0:0,0:0:0:0:
237,319,148802,1,8,0:0:0:0:
328,311,148976,2,0,P|372:257|422:207,1,140,2|8,0:0|0:0,0:0:0:0:
448,186,149412,1,8,0:0:0:0:
448,186,149500,1,8,0:0:0:0:
488,362,149848,6,0,P|431:347|400:344,1,70,2|0,0:0|0:0,0:0:0:0:
328,311,150197,2,0,P|293:317|260:327,1,70,8|0,0:0|0:0,0:0:0:0:
168,362,150546,2,0,P|152:323|112:234,1,140,2|8,0:0|0:0,0:0:0:0:
29,175,151069,5,2,0:0:0:0:
29,175,151157,1,0,0:0:0:0:
29,175,151244,2,0,P|60:150|92:119,1,70,0|2,0:0|0:0,0:0:0:0:
133,57,151593,1,8,0:0:0:0:
199,128,151767,2,0,P|230:101|310:35,1,140,2|0,0:0|0:0,0:0:0:0:
422,32,152290,1,8,0:0:0:0:
486,179,152639,6,0,P|431:192|402:202,1,70,8|8,0:0|0:0,0:0:0:0:
354,276,152988,1,2,0:0:0:0:
354,276,153337,1,2,0:0:0:0:
238,359,153686,2,0,P|247:312|254:280,1,70,8|0,0:0|0:0,0:0:0:0:
154,296,154035,6,0,P|138:262|119:229,1,70,8|8,0:0|0:0,0:0:0:0:
9,186,154383,1,2,0:0:0:0:
9,186,154732,1,2,0:0:0:0:
120,94,155081,2,0,P|149:127|175:161,1,70,8|0,0:0|0:0,0:0:0:0:
257,64,155430,5,2,0:0:0:0:
340,75,155604,1,0,0:0:0:0:
422,91,155779,1,10,0:0:0:0:
422,91,156128,5,2,0:0:0:0:
404,172,156302,1,0,0:0:0:0:
380,252,156476,1,10,0:0:0:0:
380,252,156825,6,0,P|344:233|306:217,1,70,2|0,0:0|0:0,0:0:0:0:
208,265,157174,1,8,0:0:0:0:
208,265,157348,2,0,P|282:298|354:336,1,140,2|8,0:0|0:0,0:0:0:0:
364,342,157785,1,8,0:0:0:0:
364,342,157872,1,8,0:0:0:0:
195,343,158221,6,0,P|157:356|121:349,1,70,2|0,0:0|0:0,0:0:0:0:
68,297,158569,2,0,P|53:263|64:228,1,70,10|0,0:0|0:0,0:0:0:0:
121,175,158918,2,0,P|160:171|197:193,1,70,2|0,0:0|0:0,0:0:0:0:
158,266,159267,1,8,0:0:0:0:
281,226,159442,6,0,P|272:191|238:86,1,140,2|2,0:0|0:0,0:0:0:0:
298,18,159965,1,8,0:0:0:0:
349,98,160139,2,0,P|371:164|389:231,1,140,2|8,0:0|0:0,0:0:0:0:
397,271,160575,1,8,0:0:0:0:
397,271,160662,1,8,0:0:0:0:
234,353,161011,6,0,P|268:332|286:300,1,70,2|0,0:0|0:0,0:0:0:0:
281,226,161359,2,0,P|264:192|230:178,1,70,10|0,0:0|0:0,0:0:0:0:
153,188,161708,2,0,P|124:215|117:257,1,70,2|0,0:0|0:0,0:0:0:0:
205,266,162058,1,8,0:0:0:0:
69,353,162232,6,0,P|52:297|25:221,1,140,2|2,0:0|0:0,0:0:0:0:
0,127,162755,1,8,0:0:0:0:
0,127,162930,2,0,P|56:104|133:63,1,140,2|8,0:0|0:0,0:0:0:0:
156,47,163366,1,8,0:0:0:0:
156,47,163453,1,8,0:0:0:0:
314,127,163802,6,0,P|353:111|455:83,2,140,6|10|0,0:0|0:0|0:0,0:0:0:0:
291,213,164674,1,2,0:0:0:0:
201,187,164848,2,0,P|191:146|177:106,1,70,8|0,0:0|0:0,0:0:0:0:
178,273,165197,6,0,P|139:289|37:317,2,140,2|8|0,0:0|0:0|0:0,0:0:0:0:
201,187,166069,1,8,0:0:0:0:
291,213,166243,2,0,P|301:254|315:294,1,70,10|0,0:0|0:0,0:0:0:0:
394,368,166593,6,0,P|422:335|494:261,1,140,2|8,0:0|0:0,0:0:0:0:
483,121,167290,2,0,P|452:150|420:177,1,70,2|0,0:0|0:0,0:0:0:0:
393,83,167639,2,0,P|362:112|330:139,1,70,8|0,0:0|0:0,0:0:0:0:
198,125,167988,6,0,P|241:98|311:40,1,140,2|8,0:0|0:0,0:0:0:0:
277,177,168511,2,0,P|224:207|152:264,1,140,2|2,0:0|0:0,0:0:0:0:
114,340,169035,1,0,0:0:0:0:
114,340,169383,6,0,P|100:307|79:277,1,52.5000020027161,4|2,0:0|0:0,0:0:0:0:
203,352,169732,2,0,P|214:321|231:294,1,52.5000020027161,0|2,0:0|0:0,0:0:0:0:
307,349,170081,1,12,0:0:0:0:
367,291,170255,1,2,0:0:0:0:
423,228,170430,2,0,P|386:214|356:196,1,70,2|2,0:0|0:0,0:0:0:0:
372,70,170779,6,0,P|332:92|300:103,1,70,10|0,0:0|0:0,0:0:0:0:
283,107,171040,1,2,2:0:0:0:
283,107,171128,2,0,P|244:94|206:72,1,70,2|0,0:0|0:0,0:0:0:0:
43,75,172174,6,0,P|58:117|89:220,1,140,6|8,0:0|0:0,0:0:0:0:
76,351,172872,1,2,0:0:0:0:
148,309,173046,1,2,0:0:0:0:
218,262,173221,1,8,0:0:0:0:
285,212,173395,6,0,P|297:260|333:360,1,140,6|2,0:0|0:0,0:0:0:0:
386,233,173918,1,2,0:0:0:0:
434,164,174093,1,2,0:0:0:0:
482,95,174267,1,2,0:0:0:0:
364,100,174442,5,8,0:0:0:0:
364,100,174529,1,8,0:0:0:0:
364,100,174616,2,2,P|314:111|218:138,1,140,0|0,0:0|0:0,0:0:0:0:
87,318,179151,6,0,L|78:273,3,35,2|0|0|0,0:0|0:0|0:0|0:0,0:0:0:0:
81,248,179500,2,0,L|86:205,3,35,2|0|0|0,0:0|0:0|0:0|0:0,0:0:0:0:
93,168,179848,2,0,P|134:177|186:186,1,70,2|0,0:0|0:0,0:0:0:0:
153,80,180197,2,0,P|171:87|194:92,3,35,2|2|2|2,0:0|0:0|0:0|0:0,0:0:0:0:
223,98,180546,6,0,P|265:106|379:119,1,140,6|10,0:0|0:0,0:0:0:0:
456,115,181069,1,0,0:0:0:0:
440,210,181244,2,0,P|412:234|381:265,1,70,2|2,0:0|0:0,0:0:0:0:
326,333,181593,2,0,P|312:297|295:266,1,70,8|2,0:0|0:0,0:0:0:0:
188,311,181942,6,0,P|137:330|107:342,1,70,2|0,0:0|0:0,0:0:0:0:
99,248,182290,1,10,0:0:0:0:
99,248,182465,2,2,P|54:269|22:281,1,70,0|0,0:0|0:0,0:0:0:0:
106,153,182814,2,0,P|61:174|29:186,1,70,10|10,0:0|0:0,0:0:0:0:
83,62,183162,5,2,0:0:0:0:
83,62,183250,1,0,0:0:0:0:
83,62,183337,2,2,P|130:48|225:14,1,140,2|10,0:0|0:0,0:0:0:0:
320,13,183860,1,0,0:0:0:0:
266,92,184035,2,0,P|234:107|202:120,1,70,2|2,0:0|0:0,0:0:0:0:
279,181,184383,2,0,P|234:202|202:214,1,70,8|2,0:0|0:0,0:0:0:0:
235,311,184732,6,0,P|255:349|268:388,1,70,8|2,0:0|0:0,0:0:0:0:
356,342,185081,1,0,0:0:0:0:
318,262,185255,2,2,P|354:239|445:192,1,140,2|10,0:0|0:0,0:0:0:0:
469,180,185692,1,8,0:0:0:0:
469,180,185779,2,0,P|478:146|496:106,1,70,2|0,0:0|2:0,0:0:0:0:
449,19,186128,5,8,0:0:0:0:
401,110,186302,1,8,0:0:0:0:
352,33,186476,2,0,P|307:29|270:20,1,70,2|0,0:0|0:0,0:0:0:0:
255,116,186825,2,0,P|221:90|197:59,1,70,2|0,0:0|0:0,0:0:0:0:
118,21,187174,6,0,L|106:59,3,35,8|8|8|8,0:0|0:0|0:0|0:0,0:0:0:0:
94,88,187523,2,0,P|82:132|85:176,1,70,8|8,0:0|0:0,0:0:0:0:
13,212,187872,2,0,P|47:237|91:248,1,70,2|0,0:0|0:0,0:0:0:0:
71,347,188221,2,0,P|108:331|135:308,2,70,2|0|0,0:0|0:0|0:0,0:0:0:0:
321,350,188918,6,0,P|335:312|328:275,1,70,2|0,0:0|0:0,0:0:0:0:
438,291,189267,2,0,P|425:251|394:223,1,70,2|0,0:0|0:0,0:0:0:0:
448,147,189616,2,0,P|399:134|360:149,1,70,2|0,0:0|0:0,0:0:0:0:
318,56,189964,2,0,P|288:88|281:125,1,70,2|0,0:0|0:0,0:0:0:0:
327,214,190313,6,0,P|287:204|248:194,1,70,2|2,0:0|0:0,0:0:0:0:
263,112,190662,2,0,P|272:76|297:51,1,70,2|2,0:0|0:0,0:0:0:0:
379,124,191011,2,0,P|415:118|448:128,1,70,2|2,0:0|0:0,0:0:0:0:
413,226,191360,2,0,P|439:252|448:285,1,70,2|2,0:0|0:0,0:0:0:0:
355,343,191709,6,0,L|315:352,3,35,8|0|0|0,0:0|0:0|0:0|0:0,0:0:0:0:
291,326,192058,2,0,L|269:300,3,35,8|0|0|0,0:0|0:0|0:0|0:0,0:0:0:0:
224,301,192407,2,0,L|188:312,3,35,8|0|8|0,0:0|0:0|0:0|0:0,0:0:0:0:
155,287,192755,2,0,L|126:263,3,35,8|0|8|0,0:0|0:0|0:0|0:0,0:0:0:0:
104,228,193104,6,0,P|95:177|113:137,1,70,2|0,0:0|0:0,0:0:0:0:
161,69,193453,2,0,P|207:63|242:76,1,70,2|0,0:0|0:0,0:0:0:0:
281,148,193802,1,2,0:0:0:0:
401,368,194500,6,0,P|414:326|430:285,1,70,6|0,0:0|0:0,0:0:0:0:
499,231,194848,2,0,P|485:191|480:152,1,70,10|0,0:0|0:0,0:0:0:0:
372,88,195197,2,0,P|384:138|399:232,1,140,2|8,0:0|0:0,0:0:0:0:
281,148,195721,5,2,0:0:0:0:
281,148,195808,1,0,0:0:0:0:
281,148,195895,2,0,P|241:140|204:126,1,70,0|2,0:0|0:0,0:0:0:0:
132,108,196244,1,8,0:0:0:0:
151,201,196418,2,0,P|113:202|8:226,1,140,2|8,0:0|0:0,0:0:0:0:
109,300,196942,2,0,P|79:319|46:353,1,70,8|0,0:0|0:0,0:0:0:0:
204,337,197290,5,2,0:0:0:0:
278,296,197465,1,0,0:0:0:0:
343,243,197639,1,10,0:0:0:0:
407,188,197814,1,0,0:0:0:0:
407,188,197988,2,0,P|377:165|346:128,1,70,2|0,0:0|0:0,0:0:0:0:
334,49,198337,1,8,0:0:0:0:
254,128,198511,6,0,P|214:120|113:84,1,140,2|0,0:0|0:0,0:0:0:0:
22,96,199035,1,8,0:0:0:0:
63,179,199209,2,0,P|103:187|204:223,1,140,2|0,0:0|0:0,0:0:0:0:
211,316,199732,2,0,P|167:302|127:294,1,70,8|8,0:0|0:0,0:0:0:0:
283,207,200081,6,0,P|314:230|360:248,1,70,8|8,0:0|0:0,0:0:0:0:
452,193,200430,1,2,0:0:0:0:
452,193,200779,1,2,0:0:0:0:
328,87,201128,2,0,P|292:105|256:114,1,70,8|0,0:0|0:0,0:0:0:0:
169,105,201476,6,0,P|131:98|86:70,1,70,8|8,0:0|0:0,0:0:0:0:
16,142,201825,1,2,0:0:0:0:
16,142,202174,1,2,0:0:0:0:
100,173,202348,1,8,0:0:0:0:
100,173,202436,1,8,0:0:0:0:
100,173,202523,2,0,P|131:188|165:193,1,70,8|0,0:0|0:0,0:0:0:0:
285,233,202872,5,2,0:0:0:0:
219,299,203046,1,0,0:0:0:0:
310,326,203221,2,0,P|346:339|382:359,1,70,10|0,0:0|0:0,0:0:0:0:
439,251,203569,5,2,0:0:0:0:
422,144,203743,1,0,0:0:0:0:
348,205,203918,2,0,P|312:218|276:238,1,70,10|0,0:0|0:0,0:0:0:0:
214,143,204267,6,0,P|201:179|181:215,1,70,10|0,0:0|0:0,0:0:0:0:
284,232,204616,1,10,0:0:0:0:
235,305,204790,2,0,P|190:292|88:261,1,140,2|0,0:0|0:0,0:0:0:0:
41,348,205314,1,10,0:0:0:0:
15,249,205488,5,8,0:0:0:0:
15,249,205575,1,8,0:0:0:0:
15,249,205662,2,0,P|7:202|-7:165,1,70,6|0,0:0|0:0,0:0:0:0:
96,137,206011,2,0,P|78:106|49:72,1,70,10|0,0:0|0:0,0:0:0:0:
176,77,206360,2,0,P|224:63|315:21,1,140,2|8,0:0|0:0,0:0:0:0:
454,71,206883,6,0,P|412:82|319:138,1,140,2|2,0:0|0:0,0:0:0:0:
272,214,207407,1,8,0:0:0:0:
368,249,207581,2,0,P|434:227|493:190,1,140,2|8,0:0|0:0,0:0:0:0:
502,161,208017,1,8,0:0:0:0:
502,161,208104,1,8,0:0:0:0:
456,305,208453,6,0,P|419:320|386:345,1,70,2|0,0:0|0:0,0:0:0:0:
313,371,208802,2,0,P|308:332|293:297,1,70,10|0,0:0|0:0,0:0:0:0:
205,347,209151,2,0,P|176:322|144:305,1,70,2|0,0:0|0:0,0:0:0:0:
66,357,209500,1,8,0:0:0:0:
65,232,209674,5,2,0:0:0:0:
65,232,209761,1,0,0:0:0:0:
65,232,209848,2,0,P|109:209|141:178,1,70,0|2,0:0|0:0,0:0:0:0:
131,91,210197,1,8,0:0:0:0:
215,148,210372,2,0,P|253:124|344:80,1,140,2|8,0:0|0:0,0:0:0:0:
440,31,210895,2,0,P|425:75|424:111,1,70,8|8,0:0|0:0,0:0:0:0:
504,165,211244,6,0,P|453:175|356:211,1,140,6|0,0:0|0:0,0:0:0:0:
276,279,211767,2,0,P|287:224|288:197,1,70,2|0,0:0|0:0,0:0:0:0:
373,290,212116,1,2,0:0:0:0:
373,290,212290,2,0,P|354:324|338:363,1,70
206,332,212639,6,0,P|157:342|63:366,1,140,2|8,0:0|0:0,0:0:0:0:
0,288,213162,2,0,P|49:278|143:254,1,140,2|8,0:0|0:0,0:0:0:0:
166,157,213686,2,0,P|118:176|84:184,1,70,2|0,0:0|0:0,0:0:0:0:
190,65,214035,5,2,0:0:0:0:
324,191,214383,1,8,0:0:0:0:
324,191,214732,2,0,P|341:156|366:120,1,70,2|0,0:0|0:0,0:0:0:0:
455,152,215081,2,0,P|438:187|413:223,1,70,8|0,0:0|0:0,0:0:0:0:
470,308,215430,6,0,P|429:300|319:307,1,140,2|8,0:0|0:0,0:0:0:0:
256,364,215953,2,0,P|217:351|109:331,1,140,2|2,0:0|0:0,0:0:0:0:
36,279,216476,1,0,0:0:0:0:
128,144,216825,6,0,P|137:180|144:234,1,70,4|2,0:0|0:0,0:0:0:0:
198,82,217174,2,0,P|207:118|214:172,1,70,0|2,1:0|0:0,0:0:0:0:
275,42,217523,2,0,P|289:94|301:189,1,140,0|0,1:0|1:0,0:0:0:0:
302,275,218046,1,2,0:0:0:0:
389,236,218221,6,0,P|384:191|380:157,1,70,2|0,0:0|0:0,0:0:0:0:
471,220,218569,2,0,P|475:254|478:289,1,70,2|0,0:0|0:0,0:0:0:0:
120,355,219616,6,0,P|109:315|72:217,1,140,6|8,0:0|0:0,0:0:0:0:
133,83,220314,1,2,0:0:0:0:
162,161,220488,1,2,0:0:0:0:
189,240,220662,1,8,0:0:0:0:
279,159,220837,6,0,P|314:140|403:77,1,140,2|2,0:0|0:0,0:0:0:0:
508,38,221360,1,2,0:0:0:0:
479,116,221534,1,2,0:0:0:0:
452,195,221708,1,2,0:0:0:0:
421,273,221883,2,0,L|385:255,2,35,8|8|8,0:0|0:0|0:0,0:0:0:0:
309,346,222232,5,0,0:0:0:0:
309,346,222319,1,0,0:0:0:0:
309,346,222407,2,0,P|266:329|165:320,1,140,6|10,1:0|0:0,0:0:0:0:
11,356,223104,2,0,P|37:327|59:284,1,70,2|0,0:0|0:0,0:0:0:0:
53,188,223453,2,0,P|90:214|126:223,1,70,10|0,0:0|0:0,0:0:0:0:
155,112,223802,6,0,P|204:99|292:58,1,140,2|10,0:0|0:0,0:0:0:0:
340,159,224325,2,0,P|272:178|209:208,1,140,2|10,0:0|0:0,0:0:0:0:
188,225,224761,1,0,0:0:0:0:
188,225,224848,1,10,0:0:0:0:
321,263,225197,6,0,P|315:298|320:345,1,70,2|0,0:0|0:0,0:0:0:0:
417,304,225546,1,10,0:0:0:0:
417,304,225721,2,2,P|429:259|406:158,1,140,0|2,0:0|0:0,0:0:0:0:
380,63,226244,1,10,0:0:0:0:
306,129,226418,5,0,0:0:0:0:
306,129,226505,1,0,0:0:0:0:
306,129,226593,2,0,P|266:108|237:80,1,70,2|0,0:0|0:0,0:0:0:0:
141,124,226942,1,10,0:0:0:0:
141,124,227116,2,2,P|190:152|261:227,1,140,0|0,0:0|0:0,0:0:0:0:
171,326,227639,2,0,P|189:286|181:249,1,70,10|10,0:0|0:0,0:0:0:0:
262,199,227988,6,2,P|213:148|153:112,1,140,2|8,0:0|0:0,0:0:0:0:
50,68,228511,1,2,0:0:0:0:
50,68,228598,1,0,0:0:0:0:
50,68,228686,2,0,P|60:110|46:146,1,70,2|0,0:0|0:0,0:0:0:0:
25,216,229035,2,0,P|14:251|26:289,1,70,10|0,0:0|0:0,0:0:0:0:
41,379,229383,6,0,P|78:361|174:324,1,140,2|10,0:0|0:0,0:0:0:0:
264,364,229907,2,0,P|312:360|411:369,1,140,2|10,0:0|0:0,0:0:0:0:
437,375,230343,1,8,0:0:0:0:
437,375,230430,2,0,P|429:334|411:295,1,70,8|2,0:0|0:0,0:0:0:0:
419,191,230779,5,4,0:0:0:0:
336,244,230953,2,0,L|310:276,2,35,2|0|0,0:0|0:0|0:0,0:0:0:0:
336,140,231302,2,0,L|310:108,2,35,2|0|0,0:0|0:0|0:0,0:0:0:0:
243,192,231651,2,0,L|283:192,2,35,2|0|0,0:0|0:0|0:0,0:0:0:0:
138,145,232000,5,8,0:0:0:0:
138,145,232087,1,8,0:0:0:0:
138,145,232174,2,0,P|121:115|119:81,1,70,2|0,0:0|0:0,0:0:0:0:
94,225,232523,2,0,P|62:212|40:186,1,70,2|0,0:0|0:0,0:0:0:0:
158,298,232872,2,0,P|128:316|94:320,1,70,2|0,0:0|0:0,0:0:0:0:
258,276,233220,2,0,P|262:311|251:344,1,70,2|0,0:0|0:0,0:0:0:0:
174,206,233569,6,0,P|214:197|253:189,1,70,2|2,0:0|0:0,0:0:0:0:
276,270,233918,2,0,P|283:306|272:339,1,70,2|2,0:0|0:0,0:0:0:0:
166,310,234267,2,0,P|136:331|102:336,1,70,2|2,0:0|0:0,0:0:0:0:
91,233,234616,2,0,P|56:221|33:195,1,70,2|2,0:0|0:0,0:0:0:0:
133,82,234965,6,0,L|122:124,2,35,8|0|8,0:0|0:0|0:0,0:0:0:0:
228,63,235314,2,0,L|218:105,2,35,8|0|8,0:0|0:0|0:0,0:0:0:0:
317,56,235662,2,0,L|308:94,2,35,8|0|8,0:0|0:0|0:0,0:0:0:0:
406,44,236011,2,0,L|397:88,2,35,8|0|8,0:0|0:0|0:0,0:0:0:0:
508,24,236360,6,0,P|495:62|484:100,1,70,2|0,0:0|0:0,0:0:0:0:
429,224,236709,2,0,P|418:190|407:157,1,70,2|0,0:0|0:0,0:0:0:0:
324,254,237058,1,2,0:0:0:0:
174,346,237407,5,6,0:0:0:0:
167,235,237581,2,2,P|208:264|332:379,1,210,6|0,0:0|2:0,0:0:0:0:
