osu file format v14

[General]
AudioFilename: audio.mp3
AudioLeadIn: 0
PreviewTime: 118269
Countdown: 1
SampleSet: Soft
StackLeniency: 0.7
Mode: 3
LetterboxInBreaks: 0
SpecialStyle: 0
WidescreenStoryboard: 1

[Editor]
DistanceSpacing: 0.5
BeatDivisor: 4
GridSize: 4
TimelineZoom: 3.699998

[Metadata]
Title:Himitsu no Tobira Kara Ai ni Kite
TitleUnicode:秘密の扉から会いにきて
Artist:Tamura Yukari
ArtistUnicode:田村ゆかり
Creator:Niima
Version:ZenoCORE!
Source:のうりん!
Tags:Nourin Tamura Yukari Himitsu no Tobira Kara Ai ni Kite Niima
BeatmapID:1121651
BeatmapSetID:526800

[Difficulty]
HPDrainRate:8
CircleSize:7
OverallDifficulty:0
ApproachRate:5
SliderMultiplier:1.4
SliderTickRate:1

[Events]
//Background and Video events
0,0,"03.jpg",0,0
//Break Periods
//Storyboard Layer 0 (Background)
//Storyboard Layer 1 (Fail)
//Storyboard Layer 2 (Pass)
//Storyboard Layer 3 (Foreground)
//Storyboard Sound Samples

[TimingPoints]
-711,326.086956521739,4,2,1,0,1,0
12332,32.6086956521739,4,2,1,0,1,0
12352,434.782608695652,4,2,1,0,1,0
12373,652.173913043478,4,2,1,0,1,0
12393,1304.34782608696,4,2,1,0,1,0
12577,217.391304347826,4,2,1,0,1,0
12658,326.086956521739,4,2,1,0,1,0
42658,-33.3333333333333,4,2,1,0,0,0
42678,-133.333333333333,4,2,1,0,0,0
42821,-33.3333333333333,4,2,1,0,0,0
42841,-133.333333333333,4,2,1,0,0,0
42984,-33.3333333333333,4,2,1,0,0,0
43005,-133.333333333333,4,2,1,0,0,0
43147,-33.3333333333333,4,2,1,0,0,0
43168,-133.333333333333,4,2,1,0,0,0
43310,-33.3333333333333,4,2,1,0,0,0
43331,-133.333333333333,4,2,1,0,0,0
43351,-200,4,2,1,0,0,0
43371,-100,4,2,1,0,0,0
47875,-33.3333333333333,4,2,1,0,0,0
47896,-133.333333333333,4,2,1,0,0,0
48038,-33.3333333333333,4,2,1,0,0,0
48059,-133.333333333333,4,2,1,0,0,0
48202,-33.3333333333333,4,2,1,0,0,0
48222,-133.333333333333,4,2,1,0,0,0
48365,-33.3333333333333,4,2,1,0,0,0
48385,-133.333333333333,4,2,1,0,0,0
48405,-200,4,2,1,0,0,0
48426,-100,4,2,1,0,0,0
53093,-33.3333333333333,4,2,1,0,0,0
53113,-133.333333333333,4,2,1,0,0,0
53256,-33.3333333333333,4,2,1,0,0,0
53276,-133.333333333333,4,2,1,0,0,0
53419,-33.3333333333333,4,2,1,0,0,0
53439,-133.333333333333,4,2,1,0,0,0
53582,-33.3333333333333,4,2,1,0,0,0
53602,-133.333333333333,4,2,1,0,0,0
53623,-200,4,2,1,0,0,0
53643,-100,4,2,1,0,0,0
54071,-14.2857142857143,4,2,1,0,0,0
54091,-133.333333333333,4,2,1,0,0,0
54112,-200,4,2,1,0,0,0
54132,-100,4,2,1,0,0,0
57006,-10,4,2,1,0,0,0
57047,-133.333333333333,4,2,1,0,0,0
57067,-200,4,2,1,0,0,0
57332,-10,4,2,1,0,0,0
57373,-133.333333333333,4,2,1,0,0,0
57393,-200,4,2,1,0,0,0
57658,-10,4,2,1,0,0,0
57699,-133.333333333333,4,2,1,0,0,0
57719,-200,4,2,1,0,0,0
57984,-10,4,2,1,0,0,0
58025,-133.333333333333,4,2,1,0,0,0
58045,-200,4,2,1,0,0,0
58310,-20,4,2,1,0,0,0
58331,-100,4,2,1,0,0,0
58351,-133.333333333333,4,2,1,0,0,0
58371,-200,4,2,1,0,0,0
58473,-20,4,2,1,0,0,0
58494,-100,4,2,1,0,0,0
58514,-133.333333333333,4,2,1,0,0,0
58534,-200,4,2,1,0,0,0
58636,-20,4,2,1,0,0,0
58657,-100,4,2,1,0,0,0
58677,-133.333333333333,4,2,1,0,0,0
58697,-200,4,2,1,0,0,0
58820,-20,4,2,1,0,0,0
58840,-100,4,2,1,0,0,0
58861,-133.333333333333,4,2,1,0,0,0
58881,-200,4,2,1,0,0,0
59125,-100,4,2,1,0,0,0
62549,65.2173913043478,4,2,1,0,1,0
62590,434.782608695652,4,2,1,0,1,0
62631,652.173913043478,4,2,1,0,1,0
62794,326.086956521739,4,2,1,0,1,0
62875,326.086956521739,4,2,1,0,1,0
63202,65.2173913043478,4,2,1,0,1,0
63242,434.782608695652,4,2,1,0,1,0
63283,652.173913043478,4,2,1,0,1,0
63446,326.086956521739,4,2,1,0,1,0
63527,326.086956521739,4,2,1,0,1,0
72984,65.2173913043478,4,2,1,0,1,0
73025,434.782608695652,4,2,1,0,1,0
73066,652.173913043478,4,2,1,0,1,0
73229,326.086956521739,4,2,1,0,1,0
73310,326.086956521739,4,2,1,0,1,0
73636,65.2173913043478,4,2,1,0,1,0
73677,434.782608695652,4,2,1,0,1,0
73718,652.173913043478,4,2,1,0,1,0
73881,326.086956521739,4,2,1,0,1,0
73962,326.086956521739,4,2,1,0,1,0
76245,32.6086956521739,4,2,1,0,1,0
76265,434.782608695652,4,2,1,0,1,0
76286,652.173913043478,4,2,1,0,1,0
76306,1304.34782608696,4,2,1,0,1,0
76489,217.391304347826,4,2,1,0,1,0
76571,326.086956521739,4,2,1,0,1,0
106571,-33.3333333333333,4,2,1,0,0,0
106591,-133.333333333333,4,2,1,0,0,0
106734,-33.3333333333333,4,2,1,0,0,0
106755,-133.333333333333,4,2,1,0,0,0
106897,-33.3333333333333,4,2,1,0,0,0
106918,-133.333333333333,4,2,1,0,0,0
107060,-33.3333333333333,4,2,1,0,0,0
107081,-133.333333333333,4,2,1,0,0,0
107223,-33.3333333333333,4,2,1,0,0,0
107244,-133.333333333333,4,2,1,0,0,0
107264,-200,4,2,1,0,0,0
107284,-100,4,2,1,0,0,0
111788,-33.3333333333333,4,2,1,0,0,0
111809,-133.333333333333,4,2,1,0,0,0
111952,-33.3333333333333,4,2,1,0,0,0
111972,-133.333333333333,4,2,1,0,0,0
112115,-33.3333333333333,4,2,1,0,0,0
112135,-133.333333333333,4,2,1,0,0,0
112278,-33.3333333333333,4,2,1,0,0,0
112298,-133.333333333333,4,2,1,0,0,0
112318,-200,4,2,1,0,0,0
112339,-100,4,2,1,0,0,0
117006,-33.3333333333333,4,2,1,0,0,0
117026,-133.333333333333,4,2,1,0,0,0
117169,-33.3333333333333,4,2,1,0,0,0
117189,-133.333333333333,4,2,1,0,0,0
117332,-33.3333333333333,4,2,1,0,0,0
117352,-133.333333333333,4,2,1,0,0,0
117495,-33.3333333333333,4,2,1,0,0,0
117515,-133.333333333333,4,2,1,0,0,0
117658,-33.3333333333333,4,2,1,0,0,0
117678,-133.333333333333,4,2,1,0,0,0
117699,-200,4,2,1,0,0,0
117719,-400,4,2,1,0,0,0
117740,-33.3333333333333,4,2,1,0,0,0
117760,-133.333333333333,4,2,1,0,0,0
117984,-40,4,2,1,0,0,0
118005,-133.333333333333,4,2,1,0,0,0
118025,-200,4,2,1,0,0,0
118045,-400,4,2,1,0,0,0
118066,-40,4,2,1,0,0,0
118086,-133.333333333333,4,2,1,0,0,0
118106,-200,4,2,1,0,0,0
118127,-400,4,2,1,0,0,0
118147,-40,4,2,1,0,0,0
118168,-133.333333333333,4,2,1,0,0,0
118188,-200,4,2,1,0,0,0
118208,-400,4,2,1,0,0,0
118229,-40,4,2,1,0,0,0
118249,-133.333333333333,4,2,1,0,0,0
118269,-200,4,2,1,0,0,0
118290,-400,4,2,1,0,0,0
118310,-100,4,2,1,0,0,0
126462,65.2173913043478,4,2,1,0,1,0
126503,434.782608695652,4,2,1,0,1,0
126544,652.173913043478,4,2,1,0,1,0
126707,326.086956521739,4,2,1,0,1,0
126788,326.086956521739,4,2,1,0,1,0
127115,65.2173913043478,4,2,1,0,1,0
127155,434.782608695652,4,2,1,0,1,0
127196,652.173913043478,4,2,1,0,1,0
127359,326.086956521739,4,2,1,0,1,0
127440,326.086956521739,4,2,1,0,1,0
136897,65.2173913043478,4,2,1,0,1,0
136938,434.782608695652,4,2,1,0,1,0
136979,652.173913043478,4,2,1,0,1,0
137142,326.086956521739,4,2,1,0,1,0
137223,326.086956521739,4,2,1,0,1,0
137549,65.2173913043478,4,2,1,0,1,0
137590,434.782608695652,4,2,1,0,1,0
137631,652.173913043478,4,2,1,0,1,0
137794,326.086956521739,4,2,1,0,1,0
137875,326.086956521739,4,2,1,0,1,0
141299,-33.3333333333333,4,2,1,0,0,0
141320,-133.333333333333,4,2,1,0,0,0
141462,-100,4,2,1,0,0,0
141544,-33.3333333333333,4,2,1,0,0,0
141564,-133.333333333333,4,2,1,0,0,0
141707,-100,4,2,1,0,0,0
141788,-33.3333333333333,4,2,1,0,0,0
141809,-133.333333333333,4,2,1,0,0,0
141952,-100,4,2,1,0,0,0
143908,-33.3333333333333,4,2,1,0,0,0
143928,-133.333333333333,4,2,1,0,0,0
144071,-100,4,2,1,0,0,0
144153,-33.3333333333333,4,2,1,0,0,0
144173,-133.333333333333,4,2,1,0,0,0
144316,-100,4,2,1,0,0,0
144397,-33.3333333333333,4,2,1,0,0,0
144418,-133.333333333333,4,2,1,0,0,0
144560,-100,4,2,1,0,0,0
145702,-33.3333333333333,4,2,1,0,0,0
145722,-133.333333333333,4,2,1,0,0,0
145946,-100,4,2,1,0,0,0
147006,-33.3333333333333,4,2,1,0,0,0
147026,-133.333333333333,4,2,1,0,0,0
147250,-100,4,2,1,0,0,0
147332,-33.3333333333333,4,2,1,0,0,0
147352,-133.333333333333,4,2,1,0,0,0
147577,-100,4,2,1,0,0,0
148147,-10,4,2,1,0,0,0
148188,-133.333333333333,4,2,1,0,0,0
148310,-100,4,2,1,0,0,0
149288,-10,4,2,1,0,0,0
149370,-133.333333333333,4,2,1,0,0,0
149533,-66.6666666666667,4,2,1,0,0,0
149615,-100,4,2,1,0,0,0
155158,-20,4,2,1,0,0,0
155178,-133.333333333333,4,2,1,0,0,0
155199,-200,4,2,1,0,0,0
155321,-100,4,2,1,0,0,0
155810,-20,4,2,1,0,0,0
155831,-133.333333333333,4,2,1,0,0,0
155851,-200,4,2,1,0,0,0
155973,-100,4,2,1,0,0,0
156462,-20,4,2,1,0,0,0
156483,-133.333333333333,4,2,1,0,0,0
156503,-200,4,2,1,0,0,0
156625,-100,4,2,1,0,0,0
157115,-20,4,2,1,0,0,0
157135,-133.333333333333,4,2,1,0,0,0
157155,-200,4,2,1,0,0,0
157278,-100,4,2,1,0,0,0
160049,-33.3333333333333,4,2,1,0,0,0
160070,-133.333333333333,4,2,1,0,0,0
160090,-200,4,2,1,0,0,0
160212,-100,4,2,1,0,0,0
160375,-33.3333333333333,4,2,1,0,0,0
160396,-133.333333333333,4,2,1,0,0,0
160416,-200,4,2,1,0,0,0
160538,-100,4,2,1,0,0,0
160702,-33.3333333333333,4,2,1,0,0,0
160722,-133.333333333333,4,2,1,0,0,0
160742,-200,4,2,1,0,0,0
160865,-100,4,2,1,0,0,0
173093,362.31884057971,4,2,1,0,1,0
178310,326.086956521739,4,2,1,0,1,0
184506,32.6086956521739,4,2,1,0,1,0
184526,434.782608695652,4,2,1,0,1,0
184547,652.173913043478,4,2,1,0,1,0
184567,1304.34782608696,4,2,1,0,1,0
184750,217.391304347826,4,2,1,0,1,0
184832,326.086956521739,4,2,1,0,1,0
187441,32.6086956521739,4,2,1,0,1,0
187461,434.782608695652,4,2,1,0,1,0
187481,1304.34782608696,4,2,1,0,1,0
187685,217.391304347826,4,2,1,0,1,0
187767,32.6086956521739,4,2,1,0,1,0
187787,434.782608695652,4,2,1,0,1,0
187808,1304.34782608696,4,2,1,0,1,0
188011,217.391304347826,4,2,1,0,1,0
188093,32.6086956521739,4,2,1,0,1,0
188113,434.782608695652,4,2,1,0,1,0
188134,1304.34782608696,4,2,1,0,1,0
188337,217.391304347826,4,2,1,0,1,0
188419,32.6086956521739,4,2,1,0,1,0
188439,434.782608695652,4,2,1,0,1,0
188460,1304.34782608696,4,2,1,0,1,0
188663,217.391304347826,4,2,1,0,1,0
188745,46.583850931677,4,2,1,0,1,0
188765,434.782608695652,4,2,1,0,1,0
188786,1304.34782608696,4,2,1,0,1,0
188827,217.391304347826,4,2,1,0,1,0
188908,46.583850931677,4,2,1,0,1,0
188928,434.782608695652,4,2,1,0,1,0
188949,1304.34782608696,4,2,1,0,1,0
188990,217.391304347826,4,2,1,0,1,0
189071,46.583850931677,4,2,1,0,1,0
189091,434.782608695652,4,2,1,0,1,0
189112,1304.34782608696,4,2,1,0,1,0
189153,217.391304347826,4,2,1,0,1,0
189234,32.6086956521739,4,2,1,0,1,0
189255,434.782608695652,4,2,1,0,1,0
189275,1304.34782608696,4,2,1,0,1,0
189479,326.086956521739,4,2,1,0,1,0
189560,326.086956521739,4,2,1,0,1,0
190049,326.086956521739,4,2,1,0,1,0
192984,65.2173913043478,4,2,1,0,1,0
193025,434.782608695652,4,2,1,0,1,0
193066,652.173913043478,4,2,1,0,1,0
193229,326.086956521739,4,2,1,0,1,0
193310,326.086956521739,4,2,1,0,1,0
193636,65.2173913043478,4,2,1,100,1,0
193677,434.782608695652,4,2,1,0,1,0
193718,652.173913043478,4,2,1,0,1,0
193881,326.086956521739,4,2,1,0,1,0
193962,326.086956521739,4,2,1,0,1,0
196245,32.6086956521739,4,2,1,0,1,0
196265,434.782608695652,4,2,1,0,1,0
196286,652.173913043478,4,2,1,0,1,0
196306,1304.34782608696,4,2,1,0,1,0
196490,217.391304347826,4,2,1,0,1,0
196571,326.086956521739,4,2,1,0,1,0

[HitObjects]
182,192,430,5,0,0:0:0:0:
182,192,511,1,0,0:0:0:0:
448,192,593,128,0,919:0:0:0:0:
402,192,593,1,0,0:0:0:0:
256,192,593,1,0,0:0:0:0:
36,192,593,1,0,0:0:0:0:
109,192,593,1,0,0:0:0:0:
64,192,919,1,0,0:0:0:0:
329,192,919,1,0,0:0:0:0:
402,192,919,1,0,0:0:0:0:
256,192,1082,1,0,0:0:0:0:
448,192,1245,1,0,0:0:0:0:
182,192,1245,1,0,0:0:0:0:
256,192,1408,1,0,0:0:0:0:
329,192,1571,1,0,0:0:0:0:
64,192,1571,1,0,0:0:0:0:
182,192,1734,1,0,0:0:0:0:
402,192,1897,1,0,0:0:0:0:
109,192,1897,1,0,0:0:0:0:
329,192,2060,1,0,0:0:0:0:
475,192,2223,1,0,0:0:0:0:
256,192,2223,1,0,0:0:0:0:
36,192,2223,1,0,0:0:0:0:
109,192,2386,1,0,0:0:0:0:
192,192,2549,1,0,0:0:0:0:
448,192,2549,1,0,0:0:0:0:
320,192,2712,1,0,0:0:0:0:
64,192,2875,1,0,0:0:0:0:
256,192,2875,1,0,0:0:0:0:
448,192,3038,1,0,0:0:0:0:
402,192,3202,1,0,0:0:0:0:
192,192,3202,1,0,0:0:0:0:
64,192,3365,1,0,0:0:0:0:
320,192,3528,1,0,0:0:0:0:
448,192,3528,1,0,0:0:0:0:
256,192,3528,1,0,0:0:0:0:
192,192,3691,1,0,0:0:0:0:
320,192,3854,1,0,0:0:0:0:
64,192,3854,1,0,0:0:0:0:
256,192,4017,1,0,0:0:0:0:
475,192,4180,1,0,0:0:0:0:
192,192,4180,1,0,0:0:0:0:
320,192,4343,1,0,0:0:0:0:
109,192,4506,1,0,0:0:0:0:
256,192,4506,1,0,0:0:0:0:
320,192,4669,1,0,0:0:0:0:
192,192,4669,1,0,0:0:0:0:
256,192,4832,1,0,0:0:0:0:
36,192,4832,1,0,0:0:0:0:
402,192,4832,128,0,4995:0:0:0:0:
320,192,4995,128,0,5158:0:0:0:0:
256,192,5158,128,0,5321:0:0:0:0:
182,192,5321,128,0,5566:0:0:0:0:
36,192,5321,1,0,0:0:0:0:
448,192,5321,1,0,0:0:0:0:
402,192,5566,128,0,5647:0:0:0:0:
329,192,5647,128,0,5729:0:0:0:0:
256,192,5729,128,0,5810:0:0:0:0:
182,192,5810,128,0,5892:0:0:0:0:
109,192,5892,128,0,5973:0:0:0:0:
402,192,5973,1,0,0:0:0:0:
329,192,5973,1,0,0:0:0:0:
182,192,6055,1,0,0:0:0:0:
109,192,6055,1,0,0:0:0:0:
320,192,6136,1,0,0:0:0:0:
475,192,6136,1,0,0:0:0:0:
402,192,6136,1,0,0:0:0:0:
36,192,6218,1,0,0:0:0:0:
109,192,6218,1,0,0:0:0:0:
182,192,6299,1,0,0:0:0:0:
256,192,6299,1,0,0:0:0:0:
329,192,6381,1,0,0:0:0:0:
402,192,6381,1,0,0:0:0:0:
182,192,6462,1,0,0:0:0:0:
36,192,6462,1,0,0:0:0:0:
109,192,6462,1,0,0:0:0:0:
402,192,6544,1,0,0:0:0:0:
475,192,6544,1,0,0:0:0:0:
320,192,6625,1,0,0:0:0:0:
256,192,6625,1,0,0:0:0:0:
109,192,6707,1,0,0:0:0:0:
182,192,6707,1,0,0:0:0:0:
36,192,6788,1,0,0:0:0:0:
475,192,6788,1,0,0:0:0:0:
256,192,6788,1,0,0:0:0:0:
109,192,6870,1,0,0:0:0:0:
402,192,6870,1,0,0:0:0:0:
320,192,6952,1,0,0:0:0:0:
192,192,6952,1,0,0:0:0:0:
402,192,7033,1,0,0:0:0:0:
109,192,7033,1,0,0:0:0:0:
256,192,7115,1,0,0:0:0:0:
36,192,7115,1,0,0:0:0:0:
475,192,7115,1,0,0:0:0:0:
109,192,7196,1,0,0:0:0:0:
402,192,7196,1,0,0:0:0:0:
192,192,7278,1,0,0:0:0:0:
329,192,7278,1,0,0:0:0:0:
109,192,7359,1,0,0:0:0:0:
402,192,7359,1,0,0:0:0:0:
64,192,7441,1,0,0:0:0:0:
448,192,7441,1,0,0:0:0:0:
256,192,7441,1,0,0:0:0:0:
182,192,7522,1,0,0:0:0:0:
402,192,7522,1,0,0:0:0:0:
109,192,7604,1,0,0:0:0:0:
329,192,7604,1,0,0:0:0:0:
256,192,7685,1,0,0:0:0:0:
64,192,7685,1,0,0:0:0:0:
192,192,7767,1,0,0:0:0:0:
475,192,7767,1,0,0:0:0:0:
329,192,7767,1,0,0:0:0:0:
402,192,7848,1,0,0:0:0:0:
36,192,7848,1,0,0:0:0:0:
109,192,7930,1,0,0:0:0:0:
320,192,7930,1,0,0:0:0:0:
192,192,8011,1,0,0:0:0:0:
402,192,8011,1,0,0:0:0:0:
475,192,8093,1,0,0:0:0:0:
36,192,8093,1,0,0:0:0:0:
256,192,8093,1,0,0:0:0:0:
402,192,8174,1,0,0:0:0:0:
182,192,8174,1,0,0:0:0:0:
109,192,8256,1,0,0:0:0:0:
256,192,8256,1,0,0:0:0:0:
475,192,8337,1,0,0:0:0:0:
329,192,8337,1,0,0:0:0:0:
36,192,8419,1,0,0:0:0:0:
109,192,8419,1,0,0:0:0:0:
256,192,8419,1,0,0:0:0:0:
182,192,8500,1,0,0:0:0:0:
329,192,8500,1,0,0:0:0:0:
256,192,8582,1,0,0:0:0:0:
402,192,8582,1,0,0:0:0:0:
36,192,8582,1,0,0:0:0:0:
475,192,8663,1,0,0:0:0:0:
329,192,8663,1,0,0:0:0:0:
182,192,8745,1,0,0:0:0:0:
109,192,8745,1,0,0:0:0:0:
36,192,8745,1,0,0:0:0:0:
320,192,8827,1,0,0:0:0:0:
402,192,8827,1,0,0:0:0:0:
109,192,8908,1,0,0:0:0:0:
192,192,8908,1,0,0:0:0:0:
320,192,8990,1,0,0:0:0:0:
402,192,8990,1,0,0:0:0:0:
109,192,9071,1,0,0:0:0:0:
192,192,9071,1,0,0:0:0:0:
36,192,9071,1,0,0:0:0:0:
320,192,9153,1,0,0:0:0:0:
402,192,9153,1,0,0:0:0:0:
192,192,9234,1,0,0:0:0:0:
109,192,9234,1,0,0:0:0:0:
256,192,9234,1,0,0:0:0:0:
320,192,9316,1,0,0:0:0:0:
402,192,9316,1,0,0:0:0:0:
36,192,9397,1,0,0:0:0:0:
192,192,9397,1,0,0:0:0:0:
109,192,9397,1,0,0:0:0:0:
320,192,9479,1,0,0:0:0:0:
475,192,9479,1,0,0:0:0:0:
192,192,9560,1,0,0:0:0:0:
256,192,9560,1,0,0:0:0:0:
36,192,9560,1,0,0:0:0:0:
320,192,9642,1,0,0:0:0:0:
448,192,9642,1,0,0:0:0:0:
64,192,9723,1,0,0:0:0:0:
192,192,9723,1,0,0:0:0:0:
402,192,9723,1,0,0:0:0:0:
320,192,9805,1,0,0:0:0:0:
475,192,9805,1,0,0:0:0:0:
192,192,9886,1,0,0:0:0:0:
256,192,9886,1,0,0:0:0:0:
36,192,9886,1,0,0:0:0:0:
448,192,9968,1,0,0:0:0:0:
320,192,9968,1,0,0:0:0:0:
109,192,10049,1,0,0:0:0:0:
64,192,10049,1,0,0:0:0:0:
182,192,10049,1,0,0:0:0:0:
329,192,10131,1,0,0:0:0:0:
402,192,10131,1,0,0:0:0:0:
109,192,10212,1,0,0:0:0:0:
182,192,10212,1,0,0:0:0:0:
256,192,10212,1,0,0:0:0:0:
402,192,10294,1,0,0:0:0:0:
475,192,10294,1,0,0:0:0:0:
320,192,10375,1,0,0:0:0:0:
182,192,10375,1,0,0:0:0:0:
256,192,10375,1,0,0:0:0:0:
109,192,10457,1,0,0:0:0:0:
36,192,10457,1,0,0:0:0:0:
329,192,10538,1,0,0:0:0:0:
402,192,10538,1,0,0:0:0:0:
256,192,10538,128,0,10702:0:0:0:0:
64,192,10702,1,0,0:0:0:0:
192,192,10702,1,0,0:0:0:0:
109,192,10783,1,0,0:0:0:0:
256,192,10783,1,0,0:0:0:0:
320,192,10865,1,0,0:0:0:0:
182,192,10865,1,0,0:0:0:0:
402,192,10865,1,0,0:0:0:0:
256,192,10946,1,0,0:0:0:0:
109,192,10946,1,0,0:0:0:0:
182,192,11028,1,0,0:0:0:0:
329,192,11028,1,0,0:0:0:0:
475,192,11028,1,0,0:0:0:0:
402,192,11109,1,0,0:0:0:0:
256,192,11109,1,0,0:0:0:0:
320,192,11191,5,0,0:0:0:0:
109,192,11191,1,0,0:0:0:0:
182,192,11191,1,0,0:0:0:0:
475,192,11272,1,0,0:0:0:0:
256,192,11354,1,0,0:0:0:0:
36,192,11354,1,0,0:0:0:0:
402,192,11354,1,0,0:0:0:0:
109,192,11517,1,0,0:0:0:0:
192,192,11598,1,0,0:0:0:0:
256,192,11680,1,0,0:0:0:0:
109,192,11680,1,0,0:0:0:0:
402,192,11843,1,0,0:0:0:0:
320,192,11924,1,0,0:0:0:0:
109,192,12006,1,0,0:0:0:0:
402,192,12006,1,0,0:0:0:0:
192,192,12087,1,0,0:0:0:0:
320,192,12169,1,0,0:0:0:0:
448,192,12169,1,0,0:0:0:0:
256,192,12169,1,0,0:0:0:0:
192,192,12250,1,0,0:0:0:0:
64,192,12250,1,0,0:0:0:0:
448,192,12332,128,0,12658:0:0:0:0:
320,192,12332,1,0,0:0:0:0:
109,192,12332,1,0,0:0:0:0:
256,192,12332,1,0,0:0:0:0:
402,192,12332,1,0,0:0:0:0:
64,192,12658,128,0,12740:0:0:0:0:
109,192,12658,128,0,12740:0:0:0:0:
182,192,12658,128,0,12740:0:0:0:0:
402,192,12658,128,0,12740:0:0:0:0:
329,192,12740,128,0,12821:0:0:0:0:
256,192,12821,128,0,12903:0:0:0:0:
109,192,12821,128,0,12903:0:0:0:0:
475,192,12821,128,0,12903:0:0:0:0:
182,192,12903,128,0,12984:0:0:0:0:
256,192,12984,128,0,13066:0:0:0:0:
64,192,12984,128,0,13066:0:0:0:0:
475,192,12984,128,0,13066:0:0:0:0:
402,192,12984,128,0,13066:0:0:0:0:
329,192,13066,128,0,13147:0:0:0:0:
256,192,13147,128,0,13229:0:0:0:0:
402,192,13147,128,0,13229:0:0:0:0:
109,192,13147,128,0,13229:0:0:0:0:
182,192,13229,128,0,13310:0:0:0:0:
109,192,13310,128,0,13392:0:0:0:0:
64,192,13310,128,0,13392:0:0:0:0:
329,192,13310,128,0,13555:0:0:0:0:
475,192,13310,128,0,13392:0:0:0:0:
402,192,13310,128,0,13392:0:0:0:0:
192,192,13473,128,0,13718:0:0:0:0:
256,192,13473,128,0,13555:0:0:0:0:
109,192,13473,128,0,13555:0:0:0:0:
402,192,13473,128,0,13555:0:0:0:0:
64,192,13636,128,0,13881:0:0:0:0:
320,192,13636,128,0,13718:0:0:0:0:
448,192,13636,128,0,13718:0:0:0:0:
256,192,13636,128,0,13718:0:0:0:0:
402,192,13799,128,0,14044:0:0:0:0:
109,192,13799,128,0,13881:0:0:0:0:
329,192,13799,128,0,13881:0:0:0:0:
182,192,13799,128,0,13881:0:0:0:0:
109,192,13962,128,0,14044:0:0:0:0:
448,192,13962,128,0,14044:0:0:0:0:
36,192,13962,128,0,14044:0:0:0:0:
256,192,13962,128,0,14044:0:0:0:0:
182,192,14044,128,0,14125:0:0:0:0:
256,192,14125,128,0,14207:0:0:0:0:
36,192,14125,128,0,14207:0:0:0:0:
402,192,14125,128,0,14207:0:0:0:0:
329,192,14207,128,0,14288:0:0:0:0:
256,192,14288,128,0,14370:0:0:0:0:
475,192,14288,128,0,14370:0:0:0:0:
36,192,14288,128,0,14370:0:0:0:0:
109,192,14288,128,0,14370:0:0:0:0:
182,192,14370,128,0,14452:0:0:0:0:
109,192,14452,128,0,14533:0:0:0:0:
256,192,14452,128,0,14533:0:0:0:0:
402,192,14452,128,0,14533:0:0:0:0:
329,192,14533,128,0,14615:0:0:0:0:
182,192,14615,128,0,14859:0:0:0:0:
109,192,14615,128,0,14696:0:0:0:0:
36,192,14615,128,0,14696:0:0:0:0:
475,192,14615,128,0,14696:0:0:0:0:
402,192,14615,128,0,14696:0:0:0:0:
256,192,14778,128,0,14859:0:0:0:0:
329,192,14778,128,0,15022:0:0:0:0:
402,192,14778,128,0,14859:0:0:0:0:
109,192,14778,128,0,14859:0:0:0:0:
256,192,14941,128,0,15022:0:0:0:0:
36,192,14941,128,0,15022:0:0:0:0:
475,192,14941,128,0,15185:0:0:0:0:
182,192,14941,1,0,0:0:0:0:
329,192,15104,128,0,15185:0:0:0:0:
402,192,15104,128,0,15185:0:0:0:0:
109,192,15104,128,0,15348:0:0:0:0:
256,192,15104,1,0,0:0:0:0:
329,192,15267,1,0,0:0:0:0:
182,192,15267,128,0,15348:0:0:0:0:
36,192,15267,128,0,15348:0:0:0:0:
475,192,15267,128,0,15837:0:0:0:0:
256,192,15267,128,0,15348:0:0:0:0:
402,192,15348,128,0,15756:0:0:0:0:
329,192,15430,128,0,15674:0:0:0:0:
182,192,15430,1,0,0:0:0:0:
256,192,15511,128,0,15593:0:0:0:0:
192,192,15593,128,0,15674:0:0:0:0:
36,192,15593,1,0,0:0:0:0:
256,192,15674,128,0,15756:0:0:0:0:
329,192,15756,128,0,15837:0:0:0:0:
109,192,15756,1,0,0:0:0:0:
402,192,15837,128,0,15919:0:0:0:0:
448,192,15919,128,0,16000:0:0:0:0:
36,192,15919,128,0,16490:0:0:0:0:
329,192,15919,1,0,0:0:0:0:
256,192,15919,1,0,0:0:0:0:
109,192,16000,128,0,16408:0:0:0:0:
182,192,16082,128,0,16327:0:0:0:0:
402,192,16082,1,0,0:0:0:0:
256,192,16163,128,0,16245:0:0:0:0:
329,192,16245,128,0,16327:0:0:0:0:
475,192,16245,1,0,0:0:0:0:
256,192,16327,128,0,16408:0:0:0:0:
182,192,16408,128,0,16490:0:0:0:0:
402,192,16408,1,0,0:0:0:0:
109,192,16490,128,0,16571:0:0:0:0:
64,192,16571,128,0,16653:0:0:0:0:
256,192,16571,128,0,16816:0:0:0:0:
475,192,16571,128,0,16816:0:0:0:0:
182,192,16571,128,0,16653:0:0:0:0:
329,192,16571,1,0,0:0:0:0:
109,192,16734,128,0,16816:0:0:0:0:
182,192,16734,128,0,16816:0:0:0:0:
329,192,16734,128,0,16816:0:0:0:0:
402,192,16734,128,0,16816:0:0:0:0:
329,192,16897,128,0,17142:0:0:0:0:
402,192,16897,128,0,17142:0:0:0:0:
36,192,16897,128,0,16979:0:0:0:0:
109,192,16897,128,0,16979:0:0:0:0:
182,192,17060,128,0,17142:0:0:0:0:
109,192,17060,128,0,17142:0:0:0:0:
256,192,17060,128,0,17142:0:0:0:0:
475,192,17060,128,0,17142:0:0:0:0:
475,192,17223,128,0,17468:0:0:0:0:
256,192,17223,128,0,17468:0:0:0:0:
36,192,17223,128,0,17305:0:0:0:0:
109,192,17223,128,0,17305:0:0:0:0:
36,192,17386,1,0,0:0:0:0:
182,192,17386,1,0,0:0:0:0:
329,192,17386,128,0,17468:0:0:0:0:
402,192,17386,128,0,17468:0:0:0:0:
109,192,17468,1,0,0:0:0:0:
256,192,17549,1,0,0:0:0:0:
475,192,17549,1,0,0:0:0:0:
182,192,17549,1,0,0:0:0:0:
402,192,17549,1,0,0:0:0:0:
36,192,17631,1,0,0:0:0:0:
109,192,17631,1,0,0:0:0:0:
329,192,17631,1,0,0:0:0:0:
182,192,17712,1,0,0:0:0:0:
256,192,17712,1,0,0:0:0:0:
475,192,17712,1,0,0:0:0:0:
402,192,17794,1,0,0:0:0:0:
109,192,17794,1,0,0:0:0:0:
36,192,17875,1,0,0:0:0:0:
329,192,17875,128,0,17998:0:0:0:0:
256,192,17875,128,0,17957:0:0:0:0:
182,192,17875,128,0,17916:0:0:0:0:
402,192,17957,128,0,18038:0:0:0:0:
475,192,17957,128,0,17998:0:0:0:0:
36,192,18038,128,0,18161:0:0:0:0:
109,192,18038,128,0,18120:0:0:0:0:
182,192,18038,128,0,18079:0:0:0:0:
329,192,18120,128,0,18202:0:0:0:0:
256,192,18120,128,0,18161:0:0:0:0:
109,192,18202,128,0,18324:0:0:0:0:
182,192,18202,128,0,18283:0:0:0:0:
475,192,18202,128,0,18242:0:0:0:0:
402,192,18283,128,0,18365:0:0:0:0:
329,192,18283,128,0,18324:0:0:0:0:
256,192,18365,128,0,18405:0:0:0:0:
182,192,18365,128,0,18446:0:0:0:0:
36,192,18365,128,0,18487:0:0:0:0:
329,192,18446,128,0,18487:0:0:0:0:
475,192,18446,128,0,18528:0:0:0:0:
256,192,18528,128,0,18691:0:0:0:0:
182,192,18528,128,0,18650:0:0:0:0:
109,192,18528,128,0,18609:0:0:0:0:
36,192,18528,128,0,18568:0:0:0:0:
402,192,18528,128,0,18609:0:0:0:0:
329,192,18691,128,0,18813:0:0:0:0:
402,192,18691,128,0,18772:0:0:0:0:
475,192,18691,128,0,18731:0:0:0:0:
36,192,18691,128,0,18854:0:0:0:0:
109,192,18691,128,0,18772:0:0:0:0:
109,192,18854,128,0,19017:0:0:0:0:
182,192,18854,128,0,18976:0:0:0:0:
256,192,18854,128,0,18935:0:0:0:0:
329,192,18854,128,0,18894:0:0:0:0:
475,192,18854,128,0,18935:0:0:0:0:
256,192,19017,128,0,19058:0:0:0:0:
329,192,19017,128,0,19098:0:0:0:0:
402,192,19017,128,0,19139:0:0:0:0:
475,192,19017,128,0,19180:0:0:0:0:
36,192,19017,128,0,19098:0:0:0:0:
329,192,19180,128,0,19221:0:0:0:0:
256,192,19180,128,0,19261:0:0:0:0:
182,192,19180,128,0,19302:0:0:0:0:
36,192,19261,128,0,19302:0:0:0:0:
109,192,19261,128,0,19343:0:0:0:0:
329,192,19343,128,0,19384:0:0:0:0:
475,192,19343,128,0,19465:0:0:0:0:
402,192,19343,128,0,19424:0:0:0:0:
256,192,19424,128,0,19465:0:0:0:0:
182,192,19424,128,0,19506:0:0:0:0:
402,192,19506,128,0,19628:0:0:0:0:
329,192,19506,128,0,19587:0:0:0:0:
36,192,19506,128,0,19547:0:0:0:0:
109,192,19587,128,0,19669:0:0:0:0:
182,192,19587,128,0,19628:0:0:0:0:
256,192,19669,128,0,19710:0:0:0:0:
329,192,19669,128,0,19750:0:0:0:0:
475,192,19669,128,0,19791:0:0:0:0:
36,192,19750,128,0,19832:0:0:0:0:
182,192,19750,128,0,19791:0:0:0:0:
109,192,19832,1,0,0:0:0:0:
256,192,19832,128,0,19913:0:0:0:0:
329,192,19832,128,0,19913:0:0:0:0:
402,192,19832,128,0,19913:0:0:0:0:
475,192,19832,128,0,19913:0:0:0:0:
402,192,19995,1,0,0:0:0:0:
475,192,19995,128,0,20077:0:0:0:0:
182,192,19995,128,0,20077:0:0:0:0:
109,192,19995,128,0,20077:0:0:0:0:
36,192,19995,128,0,20077:0:0:0:0:
329,192,20077,1,0,0:0:0:0:
36,192,20158,128,0,20240:0:0:0:0:
109,192,20158,128,0,20240:0:0:0:0:
475,192,20158,128,0,20240:0:0:0:0:
402,192,20158,128,0,20240:0:0:0:0:
256,192,20158,1,0,0:0:0:0:
182,192,20240,1,0,0:0:0:0:
475,192,20321,128,0,20403:0:0:0:0:
402,192,20321,128,0,20403:0:0:0:0:
329,192,20321,128,0,20403:0:0:0:0:
256,192,20321,128,0,20403:0:0:0:0:
36,192,20321,128,0,20403:0:0:0:0:
109,192,20321,1,0,0:0:0:0:
182,192,20403,1,0,0:0:0:0:
475,192,20484,1,0,0:0:0:0:
256,192,20484,1,0,0:0:0:0:
320,192,20566,1,0,0:0:0:0:
182,192,20647,1,0,0:0:0:0:
182,192,20729,1,0,0:0:0:0:
64,192,20810,128,0,21136:0:0:0:0:
448,192,20810,1,0,0:0:0:0:
320,192,20810,1,0,0:0:0:0:
402,192,20810,1,0,0:0:0:0:
109,192,20810,1,0,0:0:0:0:
256,192,20810,1,0,0:0:0:0:
320,192,20973,1,0,0:0:0:0:
475,192,21136,1,0,0:0:0:0:
256,192,21136,1,0,0:0:0:0:
329,192,21299,1,0,0:0:0:0:
329,192,21381,1,0,0:0:0:0:
448,192,21462,128,0,21788:0:0:0:0:
192,192,21462,1,0,0:0:0:0:
402,192,21462,1,0,0:0:0:0:
256,192,21462,1,0,0:0:0:0:
109,192,21462,1,0,0:0:0:0:
36,192,21462,1,0,0:0:0:0:
64,192,21625,1,0,0:0:0:0:
109,192,21625,1,0,0:0:0:0:
192,192,21707,1,0,0:0:0:0:
64,192,21788,128,0,21952:0:0:0:0:
320,192,21788,1,0,0:0:0:0:
109,192,21788,1,0,0:0:0:0:
256,192,21788,1,0,0:0:0:0:
402,192,21788,1,0,0:0:0:0:
402,192,21952,1,0,0:0:0:0:
329,192,21952,1,0,0:0:0:0:
256,192,21952,1,0,0:0:0:0:
109,192,21952,1,0,0:0:0:0:
182,192,21952,128,0,22115:0:0:0:0:
448,192,21952,1,0,0:0:0:0:
36,192,22115,1,0,0:0:0:0:
109,192,22115,1,0,0:0:0:0:
402,192,22115,1,0,0:0:0:0:
256,192,22115,1,0,0:0:0:0:
448,192,22115,1,0,0:0:0:0:
320,192,22115,128,0,22278:0:0:0:0:
192,192,22278,1,0,0:0:0:0:
64,192,22278,128,0,22767:0:0:0:0:
109,192,22278,1,0,0:0:0:0:
256,192,22278,1,0,0:0:0:0:
402,192,22278,1,0,0:0:0:0:
475,192,22278,1,0,0:0:0:0:
402,192,22604,1,0,0:0:0:0:
320,192,22685,1,0,0:0:0:0:
109,192,22767,1,0,0:0:0:0:
256,192,22767,128,0,22889:0:0:0:0:
320,192,22848,128,0,22971:0:0:0:0:
182,192,22848,1,0,0:0:0:0:
64,192,22930,1,0,0:0:0:0:
402,192,22930,128,0,23052:0:0:0:0:
475,192,23011,128,0,23134:0:0:0:0:
109,192,23011,1,0,0:0:0:0:
320,192,23093,1,0,0:0:0:0:
64,192,23093,128,0,23419:0:0:0:0:
182,192,23093,1,0,0:0:0:0:
256,192,23093,1,0,0:0:0:0:
402,192,23256,1,0,0:0:0:0:
256,192,23419,1,0,0:0:0:0:
64,192,23582,1,0,0:0:0:0:
402,192,23582,1,0,0:0:0:0:
448,192,23745,1,0,0:0:0:0:
256,192,23745,1,0,0:0:0:0:
36,192,23745,128,0,24071:0:0:0:0:
329,192,23827,1,0,0:0:0:0:
182,192,23908,1,0,0:0:0:0:
448,192,24071,1,0,0:0:0:0:
256,192,24071,1,0,0:0:0:0:
109,192,24071,1,0,0:0:0:0:
448,192,24234,128,0,24397:0:0:0:0:
182,192,24234,1,0,0:0:0:0:
256,192,24397,1,0,0:0:0:0:
448,192,24560,128,0,24723:0:0:0:0:
109,192,24560,1,0,0:0:0:0:
256,192,24723,1,0,0:0:0:0:
109,192,24886,1,0,0:0:0:0:
475,192,24886,128,0,24968:0:0:0:0:
320,192,25049,1,0,0:0:0:0:
36,192,25049,1,0,0:0:0:0:
475,192,25049,128,0,25375:0:0:0:0:
256,192,25212,1,0,0:0:0:0:
182,192,25375,1,0,0:0:0:0:
109,192,25375,1,0,0:0:0:0:
256,192,25538,1,0,0:0:0:0:
192,192,25620,1,0,0:0:0:0:
320,192,25702,128,0,26028:0:0:0:0:
448,192,25702,1,0,0:0:0:0:
109,192,25702,1,0,0:0:0:0:
64,192,25865,1,0,0:0:0:0:
192,192,26028,1,0,0:0:0:0:
448,192,26028,1,0,0:0:0:0:
256,192,26191,1,0,0:0:0:0:
64,192,26191,1,0,0:0:0:0:
64,192,26354,128,0,26680:0:0:0:0:
329,192,26354,1,0,0:0:0:0:
192,192,26517,1,0,0:0:0:0:
320,192,26680,1,0,0:0:0:0:
448,192,26680,1,0,0:0:0:0:
109,192,26843,1,0,0:0:0:0:
36,192,26843,1,0,0:0:0:0:
192,192,26924,1,0,0:0:0:0:
256,192,27006,1,0,0:0:0:0:
402,192,27006,128,0,27332:0:0:0:0:
36,192,27169,1,0,0:0:0:0:
109,192,27169,1,0,0:0:0:0:
256,192,27332,128,0,27658:0:0:0:0:
36,192,27495,1,0,0:0:0:0:
109,192,27495,1,0,0:0:0:0:
109,192,27658,128,0,27984:0:0:0:0:
36,192,27658,1,0,0:0:0:0:
448,192,27658,1,0,0:0:0:0:
329,192,27658,1,0,0:0:0:0:
402,192,27740,1,0,0:0:0:0:
320,192,27821,1,0,0:0:0:0:
64,192,27984,1,0,0:0:0:0:
448,192,27984,1,0,0:0:0:0:
256,192,27984,1,0,0:0:0:0:
192,192,28147,1,0,0:0:0:0:
320,192,28147,1,0,0:0:0:0:
448,192,28310,128,0,28636:0:0:0:0:
64,192,28310,1,0,0:0:0:0:
109,192,28310,1,0,0:0:0:0:
402,192,28310,1,0,0:0:0:0:
320,192,28473,1,0,0:0:0:0:
109,192,28636,1,0,0:0:0:0:
192,192,28799,1,0,0:0:0:0:
402,192,28799,1,0,0:0:0:0:
475,192,28799,1,0,0:0:0:0:
320,192,28962,128,0,29288:0:0:0:0:
109,192,28962,1,0,0:0:0:0:
448,192,28962,1,0,0:0:0:0:
402,192,28962,1,0,0:0:0:0:
192,192,29125,1,0,0:0:0:0:
448,192,29288,1,0,0:0:0:0:
64,192,29288,1,0,0:0:0:0:
256,192,29288,1,0,0:0:0:0:
64,192,29452,128,0,29615:0:0:0:0:
192,192,29452,1,0,0:0:0:0:
109,192,29452,1,0,0:0:0:0:
448,192,29615,1,0,0:0:0:0:
256,192,29615,1,0,0:0:0:0:
64,192,29778,128,0,29941:0:0:0:0:
192,192,29778,1,0,0:0:0:0:
109,192,29778,1,0,0:0:0:0:
448,192,29941,1,0,0:0:0:0:
256,192,29941,1,0,0:0:0:0:
320,192,30104,1,0,0:0:0:0:
192,192,30104,1,0,0:0:0:0:
109,192,30104,1,0,0:0:0:0:
402,192,30267,128,0,30593:0:0:0:0:
109,192,30267,1,0,0:0:0:0:
192,192,30267,1,0,0:0:0:0:
64,192,30430,1,0,0:0:0:0:
256,192,30593,128,0,30756:0:0:0:0:
192,192,30593,1,0,0:0:0:0:
109,192,30756,1,0,0:0:0:0:
329,192,30756,128,0,30919:0:0:0:0:
182,192,30837,1,0,0:0:0:0:
256,192,30919,1,0,0:0:0:0:
64,192,30919,128,0,31082:0:0:0:0:
475,192,30919,1,0,0:0:0:0:
448,192,31082,1,0,0:0:0:0:
64,192,31245,1,0,0:0:0:0:
182,192,31245,1,0,0:0:0:0:
402,192,31408,1,0,0:0:0:0:
109,192,31408,1,0,0:0:0:0:
256,192,31408,1,0,0:0:0:0:
192,192,31571,1,0,0:0:0:0:
329,192,31571,1,0,0:0:0:0:
402,192,31571,1,0,0:0:0:0:
475,192,31734,1,0,0:0:0:0:
256,192,31734,128,0,31897:0:0:0:0:
64,192,31897,1,0,0:0:0:0:
109,192,31897,128,0,32060:0:0:0:0:
448,192,32060,1,0,0:0:0:0:
320,192,32142,1,0,0:0:0:0:
192,192,32223,1,0,0:0:0:0:
64,192,32223,128,0,32386:0:0:0:0:
402,192,32223,1,0,0:0:0:0:
192,192,32386,128,0,32549:0:0:0:0:
320,192,32549,128,0,32712:0:0:0:0:
448,192,32712,128,0,33038:0:0:0:0:
64,192,33038,1,0,0:0:0:0:
192,192,33038,1,0,0:0:0:0:
109,192,33038,1,0,0:0:0:0:
320,192,33120,1,0,0:0:0:0:
448,192,33120,1,0,0:0:0:0:
402,192,33120,1,0,0:0:0:0:
192,192,33202,1,0,0:0:0:0:
64,192,33202,1,0,0:0:0:0:
109,192,33202,1,0,0:0:0:0:
448,192,33365,1,0,0:0:0:0:
329,192,33365,1,0,0:0:0:0:
182,192,33365,1,0,0:0:0:0:
402,192,33446,1,0,0:0:0:0:
109,192,33446,1,0,0:0:0:0:
256,192,33446,1,0,0:0:0:0:
320,192,33528,1,0,0:0:0:0:
475,192,33528,1,0,0:0:0:0:
182,192,33528,1,0,0:0:0:0:
36,192,33528,128,0,33691:0:0:0:0:
256,192,33609,1,0,0:0:0:0:
329,192,33691,1,0,0:0:0:0:
109,192,33691,1,0,0:0:0:0:
402,192,33772,1,0,0:0:0:0:
475,192,33854,128,0,34017:0:0:0:0:
64,192,33854,1,0,0:0:0:0:
109,192,33854,1,0,0:0:0:0:
329,192,33854,1,0,0:0:0:0:
182,192,33935,1,0,0:0:0:0:
256,192,34017,1,0,0:0:0:0:
36,192,34017,1,0,0:0:0:0:
329,192,34098,1,0,0:0:0:0:
182,192,34180,1,0,0:0:0:0:
256,192,34180,128,0,34343:0:0:0:0:
402,192,34180,1,0,0:0:0:0:
109,192,34261,1,0,0:0:0:0:
448,192,34343,1,0,0:0:0:0:
36,192,34343,1,0,0:0:0:0:
402,192,34424,1,0,0:0:0:0:
475,192,34506,128,0,34669:0:0:0:0:
64,192,34506,1,0,0:0:0:0:
329,192,34506,1,0,0:0:0:0:
182,192,34506,1,0,0:0:0:0:
256,192,34587,1,0,0:0:0:0:
320,192,34669,1,0,0:0:0:0:
109,192,34669,1,0,0:0:0:0:
182,192,34750,1,0,0:0:0:0:
109,192,34832,128,0,34995:0:0:0:0:
448,192,34832,1,0,0:0:0:0:
256,192,34832,1,0,0:0:0:0:
402,192,34913,1,0,0:0:0:0:
192,192,34995,1,0,0:0:0:0:
329,192,34995,1,0,0:0:0:0:
402,192,35077,1,0,0:0:0:0:
256,192,35158,128,0,35321:0:0:0:0:
109,192,35158,1,0,0:0:0:0:
448,192,35158,1,0,0:0:0:0:
36,192,35158,1,0,0:0:0:0:
329,192,35240,1,0,0:0:0:0:
192,192,35321,1,0,0:0:0:0:
109,192,35321,1,0,0:0:0:0:
329,192,35403,1,0,0:0:0:0:
192,192,35484,128,0,35647:0:0:0:0:
64,192,35484,1,0,0:0:0:0:
256,192,35484,1,0,0:0:0:0:
448,192,35484,128,0,35606:0:0:0:0:
402,192,35484,128,0,35525:0:0:0:0:
329,192,35647,128,0,35769:0:0:0:0:
402,192,35647,128,0,35688:0:0:0:0:
109,192,35647,1,0,0:0:0:0:
402,192,35810,128,0,35973:0:0:0:0:
64,192,35810,1,0,0:0:0:0:
448,192,35810,1,0,0:0:0:0:
256,192,35810,128,0,35933:0:0:0:0:
182,192,35810,128,0,35851:0:0:0:0:
109,192,35973,128,0,36096:0:0:0:0:
182,192,35973,128,0,36014:0:0:0:0:
329,192,35973,1,0,0:0:0:0:
448,192,36136,128,0,36299:0:0:0:0:
64,192,36136,1,0,0:0:0:0:
320,192,36136,1,0,0:0:0:0:
109,192,36218,1,0,0:0:0:0:
256,192,36299,1,0,0:0:0:0:
402,192,36299,1,0,0:0:0:0:
182,192,36381,1,0,0:0:0:0:
64,192,36462,128,0,36625:0:0:0:0:
448,192,36462,1,0,0:0:0:0:
320,192,36462,1,0,0:0:0:0:
109,192,36462,1,0,0:0:0:0:
402,192,36544,1,0,0:0:0:0:
192,192,36625,1,0,0:0:0:0:
109,192,36625,1,0,0:0:0:0:
256,192,36707,1,0,0:0:0:0:
320,192,36788,128,0,36952:0:0:0:0:
64,192,36788,1,0,0:0:0:0:
448,192,36788,1,0,0:0:0:0:
182,192,36870,1,0,0:0:0:0:
109,192,36952,1,0,0:0:0:0:
402,192,36952,1,0,0:0:0:0:
256,192,37033,1,0,0:0:0:0:
448,192,37115,128,0,37278:0:0:0:0:
64,192,37115,1,0,0:0:0:0:
329,192,37115,1,0,0:0:0:0:
402,192,37115,1,0,0:0:0:0:
182,192,37196,1,0,0:0:0:0:
320,192,37278,1,0,0:0:0:0:
109,192,37278,1,0,0:0:0:0:
192,192,37359,1,0,0:0:0:0:
64,192,37441,128,0,37767:0:0:0:0:
448,192,37441,1,0,0:0:0:0:
402,192,37441,1,0,0:0:0:0:
256,192,37441,1,0,0:0:0:0:
329,192,37522,1,0,0:0:0:0:
192,192,37604,1,0,0:0:0:0:
109,192,37604,1,0,0:0:0:0:
402,192,37685,1,0,0:0:0:0:
320,192,37767,1,0,0:0:0:0:
256,192,37767,128,0,38093:0:0:0:0:
475,192,37767,1,0,0:0:0:0:
109,192,37767,1,0,0:0:0:0:
182,192,37848,1,0,0:0:0:0:
36,192,37930,1,0,0:0:0:0:
329,192,37930,1,0,0:0:0:0:
402,192,38011,1,0,0:0:0:0:
320,192,38093,1,0,0:0:0:0:
475,192,38093,128,0,38419:0:0:0:0:
109,192,38093,1,0,0:0:0:0:
36,192,38093,1,0,0:0:0:0:
182,192,38174,1,0,0:0:0:0:
36,192,38256,1,0,0:0:0:0:
256,192,38337,1,0,0:0:0:0:
36,192,38419,1,0,0:0:0:0:
320,192,38419,1,0,0:0:0:0:
402,192,38419,128,0,38745:0:0:0:0:
109,192,38419,128,0,38745:0:0:0:0:
182,192,38419,1,0,0:0:0:0:
192,192,38582,1,0,0:0:0:0:
320,192,38582,1,0,0:0:0:0:
256,192,38582,1,0,0:0:0:0:
64,192,38745,1,0,0:0:0:0:
256,192,38745,1,0,0:0:0:0:
182,192,38745,128,0,40049:0:0:0:0:
448,192,38745,128,0,38827:0:0:0:0:
329,192,38827,128,0,38908:0:0:0:0:
402,192,38908,128,0,38990:0:0:0:0:
109,192,38908,1,0,0:0:0:0:
256,192,38990,128,0,39071:0:0:0:0:
448,192,39071,1,0,0:0:0:0:
64,192,39071,1,0,0:0:0:0:
320,192,39071,128,0,39153:0:0:0:0:
109,192,39153,128,0,39234:0:0:0:0:
402,192,39234,1,0,0:0:0:0:
256,192,39234,128,0,39316:0:0:0:0:
36,192,39316,128,0,39397:0:0:0:0:
329,192,39397,1,0,0:0:0:0:
448,192,39397,1,0,0:0:0:0:
256,192,39397,128,0,39479:0:0:0:0:
109,192,39479,128,0,39560:0:0:0:0:
329,192,39560,128,0,39642:0:0:0:0:
402,192,39560,1,0,0:0:0:0:
256,192,39642,128,0,39723:0:0:0:0:
64,192,39723,1,0,0:0:0:0:
475,192,39723,1,0,0:0:0:0:
402,192,39723,128,0,39805:0:0:0:0:
329,192,39805,128,0,39886:0:0:0:0:
109,192,39886,1,0,0:0:0:0:
448,192,39886,128,0,39968:0:0:0:0:
402,192,39968,128,0,40049:0:0:0:0:
64,192,40049,1,0,0:0:0:0:
256,192,40049,1,0,0:0:0:0:
448,192,40049,1,0,0:0:0:0:
320,192,40049,128,0,40702:0:0:0:0:
182,192,40131,1,0,0:0:0:0:
109,192,40212,1,0,0:0:0:0:
402,192,40212,1,0,0:0:0:0:
36,192,40294,1,0,0:0:0:0:
192,192,40375,1,0,0:0:0:0:
448,192,40375,1,0,0:0:0:0:
109,192,40375,1,0,0:0:0:0:
256,192,40457,1,0,0:0:0:0:
109,192,40538,1,0,0:0:0:0:
402,192,40538,1,0,0:0:0:0:
182,192,40620,1,0,0:0:0:0:
109,192,40702,128,0,41354:0:0:0:0:
448,192,40702,1,0,0:0:0:0:
64,192,40702,1,0,0:0:0:0:
402,192,40702,1,0,0:0:0:0:
256,192,40865,1,0,0:0:0:0:
320,192,41028,1,0,0:0:0:0:
448,192,41028,1,0,0:0:0:0:
182,192,41191,1,0,0:0:0:0:
402,192,41354,128,0,41680:0:0:0:0:
320,192,41354,1,0,0:0:0:0:
448,192,41354,1,0,0:0:0:0:
256,192,41354,1,0,0:0:0:0:
36,192,41354,1,0,0:0:0:0:
448,192,41517,1,0,0:0:0:0:
320,192,41598,1,0,0:0:0:0:
192,192,41680,1,0,0:0:0:0:
256,192,41680,128,0,42006:0:0:0:0:
109,192,41843,1,0,0:0:0:0:
36,192,41843,1,0,0:0:0:0:
182,192,41924,1,0,0:0:0:0:
329,192,42006,1,0,0:0:0:0:
109,192,42006,128,0,42332:0:0:0:0:
402,192,42006,1,0,0:0:0:0:
36,192,42006,1,0,0:0:0:0:
475,192,42006,1,0,0:0:0:0:
320,192,42169,1,0,0:0:0:0:
182,192,42169,1,0,0:0:0:0:
402,192,42169,1,0,0:0:0:0:
256,192,42169,1,0,0:0:0:0:
182,192,42332,1,0,0:0:0:0:
36,192,42332,1,0,0:0:0:0:
402,192,42332,1,0,0:0:0:0:
329,192,42332,128,0,43147:0:0:0:0:
256,192,42332,1,0,0:0:0:0:
475,192,42495,1,0,0:0:0:0:
109,192,42495,1,0,0:0:0:0:
402,192,42495,1,0,0:0:0:0:
182,192,42577,1,0,0:0:0:0:
256,192,42658,1,0,0:0:0:0:
475,192,42658,1,0,0:0:0:0:
64,192,42658,1,0,0:0:0:0:
109,192,42658,1,0,0:0:0:0:
402,192,42658,1,0,0:0:0:0:
256,192,42821,1,0,0:0:0:0:
475,192,42821,1,0,0:0:0:0:
109,192,42821,1,0,0:0:0:0:
36,192,42821,1,0,0:0:0:0:
402,192,42821,1,0,0:0:0:0:
64,192,42984,1,0,0:0:0:0:
475,192,42984,1,0,0:0:0:0:
256,192,42984,1,0,0:0:0:0:
109,192,42984,1,0,0:0:0:0:
402,192,42984,1,0,0:0:0:0:
64,192,43147,1,0,0:0:0:0:
475,192,43147,1,0,0:0:0:0:
256,192,43147,1,0,0:0:0:0:
109,192,43147,1,0,0:0:0:0:
402,192,43147,1,0,0:0:0:0:
192,192,43310,1,0,0:0:0:0:
64,192,43310,1,0,0:0:0:0:
109,192,43310,1,0,0:0:0:0:
475,192,43310,1,0,0:0:0:0:
329,192,43310,1,0,0:0:0:0:
402,192,43310,1,0,0:0:0:0:
64,192,43473,1,0,0:0:0:0:
256,192,43473,1,0,0:0:0:0:
109,192,43636,1,0,0:0:0:0:
329,192,43636,1,0,0:0:0:0:
182,192,43799,1,0,0:0:0:0:
402,192,43799,1,0,0:0:0:0:
256,192,43881,1,0,0:0:0:0:
64,192,43962,1,0,0:0:0:0:
320,192,43962,1,0,0:0:0:0:
448,192,43962,128,0,44288:0:0:0:0:
109,192,43962,1,0,0:0:0:0:
64,192,44288,128,0,44370:0:0:0:0:
402,192,44288,128,0,44615:0:0:0:0:
109,192,44370,128,0,44452:0:0:0:0:
182,192,44452,128,0,44533:0:0:0:0:
329,192,44452,1,0,0:0:0:0:
109,192,44533,128,0,44615:0:0:0:0:
64,192,44615,128,0,44696:0:0:0:0:
448,192,44615,128,0,44696:0:0:0:0:
256,192,44615,128,0,44941:0:0:0:0:
329,192,44615,1,0,0:0:0:0:
182,192,44615,1,0,0:0:0:0:
402,192,44696,128,0,44778:0:0:0:0:
329,192,44778,128,0,44859:0:0:0:0:
402,192,44859,128,0,44941:0:0:0:0:
448,192,44941,128,0,45022:0:0:0:0:
109,192,44941,128,0,45267:0:0:0:0:
192,192,44941,128,0,45022:0:0:0:0:
329,192,45022,128,0,45104:0:0:0:0:
256,192,45104,128,0,45267:0:0:0:0:
448,192,45104,128,0,45185:0:0:0:0:
36,192,45104,1,0,0:0:0:0:
320,192,45185,128,0,45267:0:0:0:0:
402,192,45267,128,0,45430:0:0:0:0:
192,192,45267,128,0,45348:0:0:0:0:
64,192,45430,1,0,0:0:0:0:
109,192,45430,1,0,0:0:0:0:
192,192,45593,128,0,45756:0:0:0:0:
64,192,45593,1,0,0:0:0:0:
109,192,45593,1,0,0:0:0:0:
448,192,45756,1,0,0:0:0:0:
109,192,45756,1,0,0:0:0:0:
36,192,45756,1,0,0:0:0:0:
320,192,45919,1,0,0:0:0:0:
448,192,45919,1,0,0:0:0:0:
64,192,45919,128,0,46082:0:0:0:0:
109,192,45919,1,0,0:0:0:0:
256,192,45919,1,0,0:0:0:0:
320,192,46082,1,0,0:0:0:0:
448,192,46245,128,0,46571:0:0:0:0:
182,192,46245,128,0,46327:0:0:0:0:
402,192,46245,1,0,0:0:0:0:
256,192,46327,128,0,46408:0:0:0:0:
36,192,46327,1,0,0:0:0:0:
320,192,46408,128,0,46490:0:0:0:0:
109,192,46408,1,0,0:0:0:0:
256,192,46490,128,0,46571:0:0:0:0:
182,192,46571,128,0,46897:0:0:0:0:
36,192,46571,1,0,0:0:0:0:
329,192,46734,1,0,0:0:0:0:
402,192,46897,128,0,46979:0:0:0:0:
36,192,46897,1,0,0:0:0:0:
320,192,46979,128,0,47060:0:0:0:0:
256,192,47060,128,0,47142:0:0:0:0:
182,192,47060,1,0,0:0:0:0:
109,192,47060,1,0,0:0:0:0:
320,192,47142,128,0,47223:0:0:0:0:
402,192,47223,128,0,47305:0:0:0:0:
109,192,47223,128,0,47305:0:0:0:0:
36,192,47223,1,0,0:0:0:0:
475,192,47223,1,0,0:0:0:0:
192,192,47305,128,0,47386:0:0:0:0:
256,192,47386,128,0,47468:0:0:0:0:
402,192,47386,1,0,0:0:0:0:
192,192,47468,128,0,47549:0:0:0:0:
109,192,47549,128,0,47631:0:0:0:0:
475,192,47549,128,0,47631:0:0:0:0:
329,192,47549,1,0,0:0:0:0:
402,192,47631,128,0,47712:0:0:0:0:
329,192,47712,128,0,47794:0:0:0:0:
109,192,47712,1,0,0:0:0:0:
256,192,47794,128,0,47875:0:0:0:0:
475,192,47875,1,0,0:0:0:0:
402,192,47875,1,0,0:0:0:0:
182,192,47875,128,0,47957:0:0:0:0:
36,192,47875,128,0,47957:0:0:0:0:
402,192,48038,1,0,0:0:0:0:
448,192,48038,1,0,0:0:0:0:
109,192,48038,128,0,48120:0:0:0:0:
256,192,48038,128,0,48120:0:0:0:0:
402,192,48202,1,0,0:0:0:0:
448,192,48202,1,0,0:0:0:0:
329,192,48202,128,0,48283:0:0:0:0:
182,192,48202,128,0,48283:0:0:0:0:
402,192,48365,1,0,0:0:0:0:
448,192,48365,1,0,0:0:0:0:
192,192,48365,128,0,48691:0:0:0:0:
256,192,48365,128,0,48446:0:0:0:0:
109,192,48365,128,0,48446:0:0:0:0:
64,192,48691,1,0,0:0:0:0:
448,192,48691,1,0,0:0:0:0:
402,192,48691,1,0,0:0:0:0:
320,192,48772,1,0,0:0:0:0:
256,192,48772,1,0,0:0:0:0:
192,192,48854,1,0,0:0:0:0:
109,192,48854,1,0,0:0:0:0:
329,192,48935,1,0,0:0:0:0:
64,192,49017,1,0,0:0:0:0:
109,192,49017,1,0,0:0:0:0:
192,192,49098,1,0,0:0:0:0:
256,192,49098,1,0,0:0:0:0:
475,192,49180,1,0,0:0:0:0:
64,192,49180,128,0,49424:0:0:0:0:
329,192,49180,128,0,49506:0:0:0:0:
402,192,49180,1,0,0:0:0:0:
109,192,49261,128,0,49424:0:0:0:0:
182,192,49343,128,0,49424:0:0:0:0:
402,192,49343,1,0,0:0:0:0:
256,192,49424,1,0,0:0:0:0:
36,192,49506,1,0,0:0:0:0:
475,192,49506,128,0,49750:0:0:0:0:
182,192,49506,128,0,49832:0:0:0:0:
109,192,49506,1,0,0:0:0:0:
402,192,49587,128,0,49750:0:0:0:0:
329,192,49669,128,0,49750:0:0:0:0:
109,192,49669,1,0,0:0:0:0:
256,192,49750,1,0,0:0:0:0:
448,192,49832,1,0,0:0:0:0:
64,192,49832,128,0,50158:0:0:0:0:
329,192,49832,128,0,50077:0:0:0:0:
256,192,49913,128,0,50077:0:0:0:0:
109,192,49995,1,0,0:0:0:0:
182,192,49995,128,0,50077:0:0:0:0:
475,192,49995,1,0,0:0:0:0:
402,192,50077,1,0,0:0:0:0:
475,192,50158,1,0,0:0:0:0:
329,192,50158,128,0,50484:0:0:0:0:
256,192,50158,1,0,0:0:0:0:
109,192,50158,1,0,0:0:0:0:
182,192,50240,1,0,0:0:0:0:
448,192,50321,128,0,50647:0:0:0:0:
36,192,50321,1,0,0:0:0:0:
256,192,50403,1,0,0:0:0:0:
182,192,50484,1,0,0:0:0:0:
109,192,50484,128,0,50810:0:0:0:0:
329,192,50566,1,0,0:0:0:0:
402,192,50647,1,0,0:0:0:0:
256,192,50647,128,0,50892:0:0:0:0:
448,192,50729,1,0,0:0:0:0:
64,192,50810,1,0,0:0:0:0:
402,192,50810,128,0,51136:0:0:0:0:
109,192,50892,1,0,0:0:0:0:
182,192,50973,1,0,0:0:0:0:
256,192,50973,128,0,51218:0:0:0:0:
329,192,51055,1,0,0:0:0:0:
64,192,51136,1,0,0:0:0:0:
182,192,51136,1,0,0:0:0:0:
448,192,51136,1,0,0:0:0:0:
109,192,51136,128,0,51381:0:0:0:0:
402,192,51299,1,0,0:0:0:0:
256,192,51299,1,0,0:0:0:0:
475,192,51299,1,0,0:0:0:0:
109,192,51462,1,0,0:0:0:0:
36,192,51462,1,0,0:0:0:0:
256,192,51462,128,0,51788:0:0:0:0:
402,192,51462,128,0,51544:0:0:0:0:
475,192,51462,128,0,51544:0:0:0:0:
329,192,51544,128,0,51625:0:0:0:0:
182,192,51544,128,0,51625:0:0:0:0:
109,192,51625,128,0,51707:0:0:0:0:
36,192,51625,128,0,51707:0:0:0:0:
182,192,51707,128,0,51788:0:0:0:0:
475,192,51707,128,0,51788:0:0:0:0:
109,192,51788,1,0,0:0:0:0:
402,192,51788,128,0,51870:0:0:0:0:
36,192,51788,1,0,0:0:0:0:
36,192,51870,128,0,51952:0:0:0:0:
329,192,51870,128,0,51952:0:0:0:0:
182,192,51952,128,0,52033:0:0:0:0:
475,192,51952,1,0,0:0:0:0:
329,192,52033,128,0,52115:0:0:0:0:
109,192,52033,128,0,52115:0:0:0:0:
256,192,52033,1,0,0:0:0:0:
402,192,52115,128,0,52196:0:0:0:0:
36,192,52115,1,0,0:0:0:0:
182,192,52196,128,0,52278:0:0:0:0:
329,192,52196,128,0,52278:0:0:0:0:
475,192,52278,1,0,0:0:0:0:
109,192,52278,128,0,52359:0:0:0:0:
402,192,52278,1,0,0:0:0:0:
402,192,52359,128,0,52441:0:0:0:0:
182,192,52359,128,0,52441:0:0:0:0:
36,192,52441,1,0,0:0:0:0:
329,192,52441,128,0,52522:0:0:0:0:
256,192,52522,1,0,0:0:0:0:
109,192,52522,128,0,52604:0:0:0:0:
402,192,52522,128,0,52604:0:0:0:0:
475,192,52604,1,0,0:0:0:0:
182,192,52604,128,0,52685:0:0:0:0:
402,192,52685,128,0,52767:0:0:0:0:
256,192,52685,128,0,52767:0:0:0:0:
329,192,52767,1,0,0:0:0:0:
36,192,52767,1,0,0:0:0:0:
475,192,52767,1,0,0:0:0:0:
109,192,52767,1,0,0:0:0:0:
402,192,52930,1,0,0:0:0:0:
256,192,52930,1,0,0:0:0:0:
109,192,52930,1,0,0:0:0:0:
329,192,53011,1,0,0:0:0:0:
182,192,53011,1,0,0:0:0:0:
402,192,53093,1,0,0:0:0:0:
256,192,53093,1,0,0:0:0:0:
36,192,53093,128,0,53174:0:0:0:0:
109,192,53093,128,0,53134:0:0:0:0:
329,192,53256,1,0,0:0:0:0:
475,192,53256,1,0,0:0:0:0:
109,192,53256,128,0,53337:0:0:0:0:
182,192,53256,128,0,53297:0:0:0:0:
402,192,53419,1,0,0:0:0:0:
36,192,53419,1,0,0:0:0:0:
182,192,53419,128,0,53500:0:0:0:0:
256,192,53419,128,0,53460:0:0:0:0:
256,192,53582,128,0,53663:0:0:0:0:
329,192,53582,128,0,53623:0:0:0:0:
109,192,53582,128,0,53663:0:0:0:0:
475,192,53582,128,0,53663:0:0:0:0:
182,192,53745,128,0,53786:0:0:0:0:
36,192,53745,128,0,53827:0:0:0:0:
475,192,53827,128,0,53908:0:0:0:0:
256,192,53827,128,0,53867:0:0:0:0:
329,192,53908,128,0,53949:0:0:0:0:
109,192,53908,128,0,53990:0:0:0:0:
402,192,53990,128,0,54030:0:0:0:0:
256,192,53990,128,0,54071:0:0:0:0:
64,192,54071,128,0,54397:0:0:0:0:
109,192,54071,1,0,0:0:0:0:
475,192,54071,128,0,54112:0:0:0:0:
475,192,54234,1,0,0:0:0:0:
402,192,54316,1,0,0:0:0:0:
475,192,54397,128,0,54601:0:0:0:0:
109,192,54397,128,0,54438:0:0:0:0:
182,192,54397,128,0,54438:0:0:0:0:
329,192,54397,128,0,54438:0:0:0:0:
256,192,54479,128,0,54519:0:0:0:0:
329,192,54560,128,0,54601:0:0:0:0:
36,192,54560,128,0,54601:0:0:0:0:
109,192,54560,128,0,54601:0:0:0:0:
402,192,54642,128,0,54683:0:0:0:0:
36,192,54723,128,0,54927:0:0:0:0:
182,192,54723,128,0,54764:0:0:0:0:
109,192,54723,128,0,54764:0:0:0:0:
256,192,54723,128,0,54764:0:0:0:0:
329,192,54805,128,0,54846:0:0:0:0:
402,192,54886,128,0,54927:0:0:0:0:
475,192,54886,128,0,54927:0:0:0:0:
109,192,54886,128,0,54927:0:0:0:0:
256,192,54968,128,0,55009:0:0:0:0:
182,192,55049,128,0,55212:0:0:0:0:
475,192,55049,128,0,55090:0:0:0:0:
402,192,55049,128,0,55090:0:0:0:0:
36,192,55049,128,0,55090:0:0:0:0:
329,192,55131,128,0,55172:0:0:0:0:
256,192,55212,128,0,55375:0:0:0:0:
36,192,55212,128,0,55253:0:0:0:0:
109,192,55212,128,0,55253:0:0:0:0:
182,192,55294,128,0,55335:0:0:0:0:
329,192,55375,128,0,55538:0:0:0:0:
402,192,55375,128,0,55416:0:0:0:0:
109,192,55375,128,0,55416:0:0:0:0:
475,192,55375,128,0,55416:0:0:0:0:
182,192,55457,128,0,55498:0:0:0:0:
36,192,55538,128,0,55579:0:0:0:0:
256,192,55538,128,0,55579:0:0:0:0:
329,192,55620,128,0,55661:0:0:0:0:
402,192,55702,128,0,55742:0:0:0:0:
182,192,55702,128,0,55905:0:0:0:0:
256,192,55702,128,0,55742:0:0:0:0:
36,192,55702,128,0,55742:0:0:0:0:
109,192,55783,128,0,55824:0:0:0:0:
36,192,55865,128,0,55905:0:0:0:0:
329,192,55865,128,0,56068:0:0:0:0:
256,192,55865,128,0,55905:0:0:0:0:
402,192,55865,128,0,55905:0:0:0:0:
475,192,55865,128,0,55905:0:0:0:0:
182,192,55946,128,0,55987:0:0:0:0:
256,192,56028,128,0,56231:0:0:0:0:
36,192,56028,128,0,56068:0:0:0:0:
109,192,56028,128,0,56068:0:0:0:0:
475,192,56028,128,0,56068:0:0:0:0:
402,192,56028,128,0,56068:0:0:0:0:
329,192,56109,128,0,56150:0:0:0:0:
475,192,56191,128,0,56231:0:0:0:0:
182,192,56191,128,0,56394:0:0:0:0:
402,192,56191,128,0,56231:0:0:0:0:
36,192,56191,128,0,56231:0:0:0:0:
109,192,56191,128,0,56231:0:0:0:0:
329,192,56272,128,0,56313:0:0:0:0:
256,192,56354,128,0,56394:0:0:0:0:
475,192,56354,128,0,56394:0:0:0:0:
36,192,56354,128,0,56394:0:0:0:0:
182,192,56435,128,0,56476:0:0:0:0:
329,192,56517,128,0,56680:0:0:0:0:
109,192,56517,128,0,56558:0:0:0:0:
36,192,56517,128,0,56558:0:0:0:0:
475,192,56517,128,0,56558:0:0:0:0:
256,192,56598,128,0,56639:0:0:0:0:
182,192,56680,128,0,56843:0:0:0:0:
475,192,56680,128,0,56721:0:0:0:0:
402,192,56680,128,0,56721:0:0:0:0:
36,192,56680,128,0,56721:0:0:0:0:
256,192,56761,128,0,56802:0:0:0:0:
36,192,56843,128,0,56884:0:0:0:0:
109,192,56843,128,0,56884:0:0:0:0:
475,192,56843,128,0,56884:0:0:0:0:
182,192,56924,128,0,56965:0:0:0:0:
475,192,57006,1,0,0:0:0:0:
402,192,57006,1,0,0:0:0:0:
329,192,57006,1,0,0:0:0:0:
256,192,57006,1,0,0:0:0:0:
109,192,57006,1,0,0:0:0:0:
36,192,57006,1,0,0:0:0:0:
475,192,57332,1,0,0:0:0:0:
402,192,57332,1,0,0:0:0:0:
256,192,57332,1,0,0:0:0:0:
109,192,57332,1,0,0:0:0:0:
36,192,57332,1,0,0:0:0:0:
475,192,57658,1,0,0:0:0:0:
402,192,57658,1,0,0:0:0:0:
329,192,57658,1,0,0:0:0:0:
182,192,57658,1,0,0:0:0:0:
109,192,57658,1,0,0:0:0:0:
402,192,57984,1,0,0:0:0:0:
329,192,57984,1,0,0:0:0:0:
182,192,57984,1,0,0:0:0:0:
109,192,57984,1,0,0:0:0:0:
36,192,57984,1,0,0:0:0:0:
475,192,58310,128,0,58473:0:0:0:0:
402,192,58310,1,0,0:0:0:0:
329,192,58310,1,0,0:0:0:0:
256,192,58310,1,0,0:0:0:0:
36,192,58473,128,0,58636:0:0:0:0:
109,192,58473,1,0,0:0:0:0:
182,192,58473,1,0,0:0:0:0:
256,192,58473,1,0,0:0:0:0:
475,192,58636,128,0,58799:0:0:0:0:
402,192,58636,1,0,0:0:0:0:
329,192,58636,1,0,0:0:0:0:
256,192,58636,1,0,0:0:0:0:
192,192,58799,1,0,0:0:0:0:
64,192,58799,128,0,59125:0:0:0:0:
109,192,58799,1,0,0:0:0:0:
256,192,58799,1,0,0:0:0:0:
329,192,58799,1,0,0:0:0:0:
402,192,58799,1,0,0:0:0:0:
448,192,59125,1,0,0:0:0:0:
182,192,59125,1,0,0:0:0:0:
109,192,59125,1,0,0:0:0:0:
320,192,59207,1,0,0:0:0:0:
402,192,59207,1,0,0:0:0:0:
64,192,59288,1,0,0:0:0:0:
192,192,59288,1,0,0:0:0:0:
109,192,59288,1,0,0:0:0:0:
320,192,59370,1,0,0:0:0:0:
256,192,59370,1,0,0:0:0:0:
448,192,59452,1,0,0:0:0:0:
36,192,59452,1,0,0:0:0:0:
402,192,59452,1,0,0:0:0:0:
192,192,59533,1,0,0:0:0:0:
256,192,59533,1,0,0:0:0:0:
402,192,59615,128,0,59859:0:0:0:0:
475,192,59615,128,0,59859:0:0:0:0:
36,192,59615,128,0,59696:0:0:0:0:
329,192,59615,128,0,59696:0:0:0:0:
109,192,59655,128,0,59737:0:0:0:0:
182,192,59696,128,0,59778:0:0:0:0:
256,192,59737,128,0,59818:0:0:0:0:
329,192,59778,128,0,59859:0:0:0:0:
109,192,59941,128,0,60185:0:0:0:0:
475,192,59941,128,0,60022:0:0:0:0:
182,192,59941,128,0,60022:0:0:0:0:
36,192,59941,128,0,60185:0:0:0:0:
402,192,59981,128,0,60063:0:0:0:0:
329,192,60022,128,0,60104:0:0:0:0:
256,192,60063,128,0,60144:0:0:0:0:
182,192,60104,128,0,60185:0:0:0:0:
475,192,60267,128,0,60430:0:0:0:0:
256,192,60267,128,0,60348:0:0:0:0:
182,192,60267,128,0,60308:0:0:0:0:
109,192,60267,1,0,0:0:0:0:
329,192,60308,128,0,60389:0:0:0:0:
402,192,60348,128,0,60430:0:0:0:0:
182,192,60389,128,0,60471:0:0:0:0:
36,192,60430,128,0,60593:0:0:0:0:
256,192,60430,128,0,60511:0:0:0:0:
329,192,60471,128,0,60552:0:0:0:0:
109,192,60511,128,0,60593:0:0:0:0:
182,192,60552,128,0,60634:0:0:0:0:
475,192,60593,128,0,60919:0:0:0:0:
256,192,60593,128,0,60674:0:0:0:0:
329,192,60634,128,0,60715:0:0:0:0:
402,192,60674,128,0,60756:0:0:0:0:
36,192,60756,1,0,0:0:0:0:
109,192,60756,1,0,0:0:0:0:
109,192,60919,128,0,61163:0:0:0:0:
182,192,60919,128,0,61163:0:0:0:0:
402,192,60919,1,0,0:0:0:0:
329,192,60919,1,0,0:0:0:0:
329,192,61082,128,0,61327:0:0:0:0:
402,192,61082,128,0,61327:0:0:0:0:
182,192,61245,128,0,61490:0:0:0:0:
109,192,61245,128,0,61490:0:0:0:0:
256,192,61245,1,0,0:0:0:0:
36,192,61245,1,0,0:0:0:0:
329,192,61408,128,0,61490:0:0:0:0:
402,192,61408,128,0,61490:0:0:0:0:
109,192,61571,128,0,61734:0:0:0:0:
182,192,61571,128,0,61653:0:0:0:0:
329,192,61571,128,0,61653:0:0:0:0:
402,192,61571,128,0,61734:0:0:0:0:
182,192,61734,128,0,61897:0:0:0:0:
256,192,61734,128,0,61816:0:0:0:0:
329,192,61734,128,0,61897:0:0:0:0:
475,192,61897,128,0,61979:0:0:0:0:
36,192,61897,128,0,61979:0:0:0:0:
109,192,61897,128,0,61979:0:0:0:0:
402,192,61897,128,0,61979:0:0:0:0:
475,192,62060,1,0,0:0:0:0:
256,192,62060,1,0,0:0:0:0:
36,192,62060,1,0,0:0:0:0:
402,192,62142,1,0,0:0:0:0:
182,192,62142,1,0,0:0:0:0:
329,192,62223,1,0,0:0:0:0:
109,192,62223,1,0,0:0:0:0:
256,192,62305,1,0,0:0:0:0:
36,192,62305,1,0,0:0:0:0:
109,192,62386,1,0,0:0:0:0:
329,192,62386,1,0,0:0:0:0:
182,192,62468,1,0,0:0:0:0:
402,192,62468,1,0,0:0:0:0:
448,192,62549,128,0,62794:0:0:0:0:
320,192,62549,128,0,62794:0:0:0:0:
256,192,62549,128,0,62794:0:0:0:0:
109,192,62549,128,0,62794:0:0:0:0:
36,192,62549,128,0,62794:0:0:0:0:
36,192,62875,1,0,0:0:0:0:
182,192,62875,1,0,0:0:0:0:
402,192,62875,1,0,0:0:0:0:
109,192,62957,1,0,0:0:0:0:
256,192,62957,1,0,0:0:0:0:
329,192,63038,1,0,0:0:0:0:
182,192,63038,1,0,0:0:0:0:
256,192,63120,1,0,0:0:0:0:
402,192,63120,1,0,0:0:0:0:
448,192,63202,128,0,63446:0:0:0:0:
192,192,63202,128,0,63446:0:0:0:0:
64,192,63202,128,0,63446:0:0:0:0:
320,192,63202,128,0,63446:0:0:0:0:
109,192,63202,128,0,63446:0:0:0:0:
64,192,63528,128,0,63691:0:0:0:0:
182,192,63528,1,0,0:0:0:0:
109,192,63528,128,0,63691:0:0:0:0:
329,192,63528,1,0,0:0:0:0:
192,192,63691,128,0,63854:0:0:0:0:
320,192,63691,1,0,0:0:0:0:
256,192,63691,128,0,63854:0:0:0:0:
475,192,63691,1,0,0:0:0:0:
320,192,63854,128,0,64017:0:0:0:0:
36,192,63854,1,0,0:0:0:0:
402,192,63854,128,0,64017:0:0:0:0:
64,192,64017,128,0,64343:0:0:0:0:
192,192,64017,1,0,0:0:0:0:
475,192,64017,128,0,64343:0:0:0:0:
329,192,64343,128,0,64506:0:0:0:0:
109,192,64343,1,0,0:0:0:0:
402,192,64343,1,0,0:0:0:0:
192,192,64424,1,0,0:0:0:0:
256,192,64506,1,0,0:0:0:0:
402,192,64506,128,0,64669:0:0:0:0:
36,192,64506,1,0,0:0:0:0:
182,192,64587,1,0,0:0:0:0:
329,192,64669,1,0,0:0:0:0:
109,192,64669,1,0,0:0:0:0:
475,192,64669,1,0,0:0:0:0:
36,192,64750,1,0,0:0:0:0:
256,192,64750,1,0,0:0:0:0:
475,192,64832,1,0,0:0:0:0:
182,192,64832,1,0,0:0:0:0:
402,192,64832,1,0,0:0:0:0:
329,192,64832,1,0,0:0:0:0:
109,192,64832,1,0,0:0:0:0:
256,192,64913,1,0,0:0:0:0:
109,192,64995,1,0,0:0:0:0:
329,192,64995,1,0,0:0:0:0:
475,192,64995,1,0,0:0:0:0:
192,192,65077,1,0,0:0:0:0:
109,192,65158,1,0,0:0:0:0:
402,192,65158,1,0,0:0:0:0:
475,192,65158,1,0,0:0:0:0:
256,192,65158,1,0,0:0:0:0:
36,192,65158,1,0,0:0:0:0:
192,192,65240,1,0,0:0:0:0:
402,192,65321,1,0,0:0:0:0:
320,192,65321,1,0,0:0:0:0:
36,192,65321,1,0,0:0:0:0:
192,192,65403,1,0,0:0:0:0:
320,192,65484,1,0,0:0:0:0:
256,192,65484,1,0,0:0:0:0:
475,192,65484,1,0,0:0:0:0:
36,192,65484,1,0,0:0:0:0:
192,192,65566,1,0,0:0:0:0:
36,192,65647,1,0,0:0:0:0:
109,192,65647,1,0,0:0:0:0:
402,192,65647,1,0,0:0:0:0:
329,192,65647,1,0,0:0:0:0:
192,192,65729,1,0,0:0:0:0:
256,192,65810,1,0,0:0:0:0:
475,192,65810,1,0,0:0:0:0:
36,192,65810,1,0,0:0:0:0:
402,192,65810,1,0,0:0:0:0:
329,192,65892,1,0,0:0:0:0:
109,192,65973,1,0,0:0:0:0:
402,192,65973,1,0,0:0:0:0:
182,192,65973,1,0,0:0:0:0:
320,192,66055,1,0,0:0:0:0:
256,192,66136,1,0,0:0:0:0:
36,192,66136,1,0,0:0:0:0:
475,192,66136,1,0,0:0:0:0:
182,192,66136,1,0,0:0:0:0:
320,192,66218,1,0,0:0:0:0:
402,192,66299,1,0,0:0:0:0:
109,192,66299,1,0,0:0:0:0:
36,192,66299,1,0,0:0:0:0:
475,192,66299,1,0,0:0:0:0:
192,192,66381,1,0,0:0:0:0:
36,192,66462,1,0,0:0:0:0:
256,192,66462,1,0,0:0:0:0:
329,192,66462,1,0,0:0:0:0:
475,192,66462,1,0,0:0:0:0:
192,192,66544,1,0,0:0:0:0:
109,192,66625,1,0,0:0:0:0:
320,192,66625,1,0,0:0:0:0:
402,192,66625,1,0,0:0:0:0:
36,192,66625,1,0,0:0:0:0:
256,192,66707,1,0,0:0:0:0:
192,192,66788,1,0,0:0:0:0:
36,192,66788,1,0,0:0:0:0:
475,192,66788,1,0,0:0:0:0:
320,192,66870,1,0,0:0:0:0:
192,192,66952,1,0,0:0:0:0:
402,192,66952,1,0,0:0:0:0:
109,192,66952,1,0,0:0:0:0:
36,192,66952,1,0,0:0:0:0:
475,192,66952,1,0,0:0:0:0:
256,192,67033,1,0,0:0:0:0:
320,192,67115,1,0,0:0:0:0:
402,192,67115,1,0,0:0:0:0:
36,192,67115,1,0,0:0:0:0:
109,192,67115,1,0,0:0:0:0:
475,192,67115,1,0,0:0:0:0:
192,192,67196,1,0,0:0:0:0:
109,192,67278,1,0,0:0:0:0:
320,192,67278,1,0,0:0:0:0:
256,192,67278,1,0,0:0:0:0:
36,192,67278,1,0,0:0:0:0:
475,192,67278,1,0,0:0:0:0:
402,192,67359,1,0,0:0:0:0:
475,192,67441,1,0,0:0:0:0:
36,192,67441,1,0,0:0:0:0:
320,192,67441,1,0,0:0:0:0:
256,192,67441,1,0,0:0:0:0:
182,192,67441,1,0,0:0:0:0:
109,192,67522,1,0,0:0:0:0:
182,192,67604,1,0,0:0:0:0:
402,192,67604,1,0,0:0:0:0:
475,192,67685,1,0,0:0:0:0:
256,192,67685,1,0,0:0:0:0:
320,192,67767,1,0,0:0:0:0:
402,192,67767,1,0,0:0:0:0:
36,192,67767,1,0,0:0:0:0:
109,192,67767,1,0,0:0:0:0:
182,192,67767,1,0,0:0:0:0:
256,192,67848,1,0,0:0:0:0:
192,192,67930,1,0,0:0:0:0:
109,192,68011,1,0,0:0:0:0:
320,192,68011,1,0,0:0:0:0:
36,192,68093,1,0,0:0:0:0:
402,192,68093,1,0,0:0:0:0:
256,192,68093,1,0,0:0:0:0:
475,192,68093,1,0,0:0:0:0:
182,192,68174,1,0,0:0:0:0:
320,192,68256,1,0,0:0:0:0:
109,192,68256,1,0,0:0:0:0:
256,192,68337,1,0,0:0:0:0:
402,192,68419,1,0,0:0:0:0:
320,192,68419,1,0,0:0:0:0:
36,192,68419,1,0,0:0:0:0:
182,192,68419,1,0,0:0:0:0:
475,192,68419,1,0,0:0:0:0:
109,192,68500,1,0,0:0:0:0:
320,192,68582,1,0,0:0:0:0:
192,192,68582,1,0,0:0:0:0:
475,192,68582,1,0,0:0:0:0:
256,192,68663,1,0,0:0:0:0:
192,192,68745,1,0,0:0:0:0:
109,192,68745,128,0,68827:0:0:0:0:
402,192,68745,1,0,0:0:0:0:
36,192,68745,1,0,0:0:0:0:
475,192,68745,1,0,0:0:0:0:
320,192,68827,1,0,0:0:0:0:
402,192,68908,1,0,0:0:0:0:
192,192,68908,128,0,68990:0:0:0:0:
256,192,68908,1,0,0:0:0:0:
36,192,68908,1,0,0:0:0:0:
109,192,68990,1,0,0:0:0:0:
192,192,69071,1,0,0:0:0:0:
320,192,69071,128,0,69153:0:0:0:0:
402,192,69071,1,0,0:0:0:0:
475,192,69071,1,0,0:0:0:0:
36,192,69071,1,0,0:0:0:0:
256,192,69071,1,0,0:0:0:0:
109,192,69153,1,0,0:0:0:0:
320,192,69234,1,0,0:0:0:0:
402,192,69234,128,0,69560:0:0:0:0:
192,192,69234,1,0,0:0:0:0:
36,192,69234,1,0,0:0:0:0:
256,192,69234,1,0,0:0:0:0:
475,192,69234,1,0,0:0:0:0:
109,192,69560,1,0,0:0:0:0:
475,192,69560,1,0,0:0:0:0:
36,192,69560,1,0,0:0:0:0:
192,192,69642,1,0,0:0:0:0:
320,192,69642,1,0,0:0:0:0:
256,192,69642,1,0,0:0:0:0:
402,192,69723,1,0,0:0:0:0:
109,192,69723,1,0,0:0:0:0:
475,192,69723,1,0,0:0:0:0:
36,192,69723,1,0,0:0:0:0:
192,192,69805,1,0,0:0:0:0:
320,192,69805,1,0,0:0:0:0:
256,192,69805,1,0,0:0:0:0:
109,192,69886,1,0,0:0:0:0:
402,192,69886,1,0,0:0:0:0:
36,192,69886,1,0,0:0:0:0:
475,192,69886,1,0,0:0:0:0:
192,192,69968,1,0,0:0:0:0:
256,192,69968,1,0,0:0:0:0:
329,192,69968,1,0,0:0:0:0:
475,192,70049,128,0,70131:0:0:0:0:
402,192,70049,128,0,70131:0:0:0:0:
109,192,70049,128,0,70131:0:0:0:0:
36,192,70049,128,0,70131:0:0:0:0:
256,192,70131,128,0,70212:0:0:0:0:
402,192,70212,128,0,70294:0:0:0:0:
109,192,70212,128,0,70294:0:0:0:0:
182,192,70212,128,0,70294:0:0:0:0:
329,192,70294,128,0,70375:0:0:0:0:
182,192,70375,128,0,70457:0:0:0:0:
256,192,70375,128,0,70457:0:0:0:0:
475,192,70375,128,0,70457:0:0:0:0:
329,192,70457,128,0,70538:0:0:0:0:
109,192,70538,128,0,70620:0:0:0:0:
256,192,70538,128,0,70620:0:0:0:0:
36,192,70538,128,0,70620:0:0:0:0:
182,192,70620,128,0,70702:0:0:0:0:
109,192,70702,128,0,70783:0:0:0:0:
402,192,70702,128,0,70783:0:0:0:0:
475,192,70702,128,0,70783:0:0:0:0:
329,192,70783,128,0,70865:0:0:0:0:
256,192,70865,128,0,70946:0:0:0:0:
36,192,70865,128,0,70946:0:0:0:0:
475,192,70865,128,0,70946:0:0:0:0:
182,192,70946,128,0,71028:0:0:0:0:
402,192,71028,128,0,71109:0:0:0:0:
329,192,71028,128,0,71109:0:0:0:0:
109,192,71028,128,0,71109:0:0:0:0:
182,192,71109,128,0,71191:0:0:0:0:
256,192,71191,128,0,71272:0:0:0:0:
475,192,71191,128,0,71272:0:0:0:0:
36,192,71191,128,0,71272:0:0:0:0:
182,192,71272,128,0,71354:0:0:0:0:
109,192,71354,128,0,71435:0:0:0:0:
402,192,71354,128,0,71435:0:0:0:0:
475,192,71354,128,0,71435:0:0:0:0:
36,192,71354,128,0,71435:0:0:0:0:
329,192,71435,128,0,71517:0:0:0:0:
475,192,71517,128,0,71598:0:0:0:0:
256,192,71517,128,0,71598:0:0:0:0:
182,192,71517,128,0,71598:0:0:0:0:
36,192,71517,128,0,71598:0:0:0:0:
329,192,71598,128,0,71680:0:0:0:0:
402,192,71680,128,0,71761:0:0:0:0:
109,192,71680,128,0,71761:0:0:0:0:
182,192,71680,128,0,71761:0:0:0:0:
475,192,71680,128,0,71761:0:0:0:0:
256,192,71761,128,0,71843:0:0:0:0:
329,192,71843,128,0,71924:0:0:0:0:
475,192,71843,128,0,71924:0:0:0:0:
36,192,71843,128,0,71924:0:0:0:0:
182,192,71924,128,0,72006:0:0:0:0:
109,192,72006,128,0,72087:0:0:0:0:
329,192,72006,128,0,72087:0:0:0:0:
402,192,72006,128,0,72087:0:0:0:0:
256,192,72087,128,0,72169:0:0:0:0:
109,192,72169,128,0,72250:0:0:0:0:
182,192,72169,128,0,72250:0:0:0:0:
475,192,72169,128,0,72250:0:0:0:0:
329,192,72250,128,0,72332:0:0:0:0:
36,192,72332,128,0,72413:0:0:0:0:
109,192,72332,128,0,72413:0:0:0:0:
402,192,72332,128,0,72413:0:0:0:0:
256,192,72495,128,0,72577:0:0:0:0:
182,192,72495,128,0,72577:0:0:0:0:
475,192,72495,128,0,72577:0:0:0:0:
475,192,72658,1,0,0:0:0:0:
109,192,72658,128,0,72740:0:0:0:0:
182,192,72658,128,0,72740:0:0:0:0:
329,192,72658,1,0,0:0:0:0:
256,192,72740,1,0,0:0:0:0:
402,192,72740,1,0,0:0:0:0:
329,192,72821,1,0,0:0:0:0:
182,192,72821,1,0,0:0:0:0:
256,192,72903,1,0,0:0:0:0:
109,192,72903,1,0,0:0:0:0:
402,192,72984,128,0,73229:0:0:0:0:
475,192,72984,128,0,73229:0:0:0:0:
36,192,72984,1,0,0:0:0:0:
182,192,72984,1,0,0:0:0:0:
329,192,72984,128,0,73229:0:0:0:0:
109,192,73310,1,0,0:0:0:0:
36,192,73310,1,0,0:0:0:0:
256,192,73310,1,0,0:0:0:0:
475,192,73392,1,0,0:0:0:0:
402,192,73392,1,0,0:0:0:0:
109,192,73473,1,0,0:0:0:0:
36,192,73473,1,0,0:0:0:0:
256,192,73473,1,0,0:0:0:0:
475,192,73555,1,0,0:0:0:0:
402,192,73555,1,0,0:0:0:0:
256,192,73636,128,0,73881:0:0:0:0:
192,192,73636,128,0,73881:0:0:0:0:
329,192,73636,128,0,73881:0:0:0:0:
256,192,73962,1,0,0:0:0:0:
402,192,73962,128,0,74125:0:0:0:0:
109,192,73962,1,0,0:0:0:0:
36,192,73962,1,0,0:0:0:0:
192,192,74125,1,0,0:0:0:0:
320,192,74125,128,0,74288:0:0:0:0:
36,192,74125,1,0,0:0:0:0:
475,192,74125,1,0,0:0:0:0:
109,192,74288,1,0,0:0:0:0:
256,192,74288,128,0,74452:0:0:0:0:
402,192,74288,1,0,0:0:0:0:
36,192,74288,1,0,0:0:0:0:
320,192,74452,1,0,0:0:0:0:
182,192,74452,128,0,74941:0:0:0:0:
36,192,74452,1,0,0:0:0:0:
475,192,74452,1,0,0:0:0:0:
256,192,74778,1,0,0:0:0:0:
329,192,74859,1,0,0:0:0:0:
402,192,74941,1,0,0:0:0:0:
475,192,74941,1,0,0:0:0:0:
192,192,75022,1,0,0:0:0:0:
256,192,75022,1,0,0:0:0:0:
402,192,75104,1,0,0:0:0:0:
109,192,75104,1,0,0:0:0:0:
36,192,75104,1,0,0:0:0:0:
320,192,75185,1,0,0:0:0:0:
256,192,75185,1,0,0:0:0:0:
402,192,75267,1,0,0:0:0:0:
109,192,75267,1,0,0:0:0:0:
192,192,75267,1,0,0:0:0:0:
475,192,75267,1,0,0:0:0:0:
320,192,75430,1,0,0:0:0:0:
36,192,75430,1,0,0:0:0:0:
192,192,75511,1,0,0:0:0:0:
256,192,75511,1,0,0:0:0:0:
320,192,75593,1,0,0:0:0:0:
402,192,75593,1,0,0:0:0:0:
475,192,75593,1,0,0:0:0:0:
109,192,75756,1,0,0:0:0:0:
402,192,75756,1,0,0:0:0:0:
36,192,75756,1,0,0:0:0:0:
320,192,75837,1,0,0:0:0:0:
256,192,75837,1,0,0:0:0:0:
109,192,75919,1,0,0:0:0:0:
192,192,75919,1,0,0:0:0:0:
475,192,75919,1,0,0:0:0:0:
320,192,76000,1,0,0:0:0:0:
256,192,76000,1,0,0:0:0:0:
402,192,76082,1,0,0:0:0:0:
109,192,76082,1,0,0:0:0:0:
36,192,76082,1,0,0:0:0:0:
192,192,76163,1,0,0:0:0:0:
256,192,76163,1,0,0:0:0:0:
320,192,76245,1,0,0:0:0:0:
402,192,76245,1,0,0:0:0:0:
475,192,76245,1,0,0:0:0:0:
36,192,76245,128,0,76571:0:0:0:0:
109,192,76571,128,0,76612:0:0:0:0:
402,192,76571,128,0,76612:0:0:0:0:
475,192,76571,128,0,76612:0:0:0:0:
329,192,76571,128,0,76612:0:0:0:0:
182,192,76653,128,0,76693:0:0:0:0:
36,192,76734,128,0,76775:0:0:0:0:
402,192,76734,128,0,76775:0:0:0:0:
256,192,76734,128,0,76775:0:0:0:0:
329,192,76816,128,0,76856:0:0:0:0:
256,192,76897,128,0,76938:0:0:0:0:
109,192,76897,128,0,76938:0:0:0:0:
36,192,76897,128,0,76938:0:0:0:0:
475,192,76897,128,0,76938:0:0:0:0:
182,192,76979,128,0,77019:0:0:0:0:
256,192,77060,128,0,77101:0:0:0:0:
402,192,77060,128,0,77101:0:0:0:0:
109,192,77060,128,0,77101:0:0:0:0:
329,192,77142,128,0,77183:0:0:0:0:
402,192,77223,128,0,77264:0:0:0:0:
475,192,77223,128,0,77264:0:0:0:0:
182,192,77223,128,0,77427:0:0:0:0:
109,192,77223,128,0,77264:0:0:0:0:
36,192,77223,128,0,77264:0:0:0:0:
402,192,77386,128,0,77427:0:0:0:0:
329,192,77386,128,0,77590:0:0:0:0:
109,192,77386,128,0,77427:0:0:0:0:
256,192,77386,128,0,77427:0:0:0:0:
182,192,77549,128,0,77590:0:0:0:0:
475,192,77549,128,0,77753:0:0:0:0:
256,192,77549,128,0,77590:0:0:0:0:
36,192,77549,128,0,77590:0:0:0:0:
402,192,77712,128,0,77753:0:0:0:0:
109,192,77712,128,0,77916:0:0:0:0:
182,192,77712,128,0,77753:0:0:0:0:
329,192,77712,128,0,77753:0:0:0:0:
475,192,77794,128,0,77835:0:0:0:0:
402,192,77875,128,0,77916:0:0:0:0:
256,192,77875,128,0,77916:0:0:0:0:
36,192,77875,128,0,77916:0:0:0:0:
329,192,77957,128,0,77998:0:0:0:0:
256,192,78038,128,0,78079:0:0:0:0:
109,192,78038,128,0,78079:0:0:0:0:
475,192,78038,128,0,78079:0:0:0:0:
182,192,78120,128,0,78161:0:0:0:0:
36,192,78202,128,0,78242:0:0:0:0:
475,192,78202,128,0,78242:0:0:0:0:
402,192,78202,128,0,78242:0:0:0:0:
256,192,78202,128,0,78242:0:0:0:0:
329,192,78283,128,0,78324:0:0:0:0:
109,192,78365,128,0,78405:0:0:0:0:
402,192,78365,128,0,78405:0:0:0:0:
256,192,78365,128,0,78405:0:0:0:0:
182,192,78446,128,0,78487:0:0:0:0:
36,192,78528,128,0,78568:0:0:0:0:
109,192,78528,128,0,78568:0:0:0:0:
475,192,78528,128,0,78568:0:0:0:0:
402,192,78528,128,0,78568:0:0:0:0:
329,192,78528,128,0,78731:0:0:0:0:
109,192,78691,128,0,78731:0:0:0:0:
256,192,78691,128,0,78731:0:0:0:0:
182,192,78691,128,0,78894:0:0:0:0:
402,192,78691,128,0,78731:0:0:0:0:
256,192,78854,128,0,78894:0:0:0:0:
475,192,78854,128,0,78894:0:0:0:0:
329,192,78854,1,0,0:0:0:0:
36,192,78854,128,0,79058:0:0:0:0:
182,192,79017,128,0,79058:0:0:0:0:
109,192,79017,128,0,79058:0:0:0:0:
402,192,79017,128,0,79221:0:0:0:0:
256,192,79017,1,0,0:0:0:0:
329,192,79180,128,0,79221:0:0:0:0:
475,192,79180,128,0,79221:0:0:0:0:
36,192,79180,128,0,79343:0:0:0:0:
182,192,79180,128,0,79261:0:0:0:0:
109,192,79261,128,0,79343:0:0:0:0:
256,192,79261,128,0,79424:0:0:0:0:
475,192,79343,128,0,79506:0:0:0:0:
329,192,79343,128,0,79424:0:0:0:0:
109,192,79424,128,0,79587:0:0:0:0:
402,192,79424,128,0,79506:0:0:0:0:
256,192,79506,128,0,79669:0:0:0:0:
36,192,79506,128,0,79587:0:0:0:0:
402,192,79587,128,0,79750:0:0:0:0:
475,192,79587,128,0,79669:0:0:0:0:
182,192,79669,128,0,79832:0:0:0:0:
109,192,79669,128,0,79750:0:0:0:0:
256,192,79750,128,0,79913:0:0:0:0:
475,192,79750,128,0,79832:0:0:0:0:
329,192,79832,128,0,79995:0:0:0:0:
36,192,79832,128,0,79913:0:0:0:0:
109,192,79913,128,0,80077:0:0:0:0:
402,192,79913,128,0,79995:0:0:0:0:
256,192,79995,128,0,80158:0:0:0:0:
182,192,79995,128,0,80077:0:0:0:0:
402,192,80077,128,0,80240:0:0:0:0:
475,192,80077,128,0,80158:0:0:0:0:
182,192,80158,128,0,80240:0:0:0:0:
36,192,80158,128,0,80240:0:0:0:0:
256,192,80240,128,0,80321:0:0:0:0:
109,192,80240,128,0,80321:0:0:0:0:
329,192,80321,128,0,80403:0:0:0:0:
402,192,80321,128,0,80403:0:0:0:0:
109,192,80403,128,0,80484:0:0:0:0:
182,192,80403,128,0,80484:0:0:0:0:
36,192,80484,128,0,80729:0:0:0:0:
475,192,80484,128,0,80566:0:0:0:0:
402,192,80484,128,0,80566:0:0:0:0:
256,192,80484,128,0,80729:0:0:0:0:
402,192,80647,128,0,80729:0:0:0:0:
329,192,80647,128,0,80729:0:0:0:0:
109,192,80647,128,0,80729:0:0:0:0:
182,192,80647,128,0,80729:0:0:0:0:
109,192,80810,128,0,81055:0:0:0:0:
475,192,80810,128,0,80892:0:0:0:0:
182,192,80810,128,0,81055:0:0:0:0:
402,192,80810,128,0,80892:0:0:0:0:
256,192,80810,1,0,0:0:0:0:
36,192,80810,1,0,0:0:0:0:
36,192,80973,128,0,81055:0:0:0:0:
256,192,80973,128,0,81055:0:0:0:0:
402,192,80973,128,0,81055:0:0:0:0:
329,192,80973,128,0,81055:0:0:0:0:
402,192,81136,128,0,81218:0:0:0:0:
182,192,81136,128,0,81381:0:0:0:0:
36,192,81136,128,0,81381:0:0:0:0:
475,192,81136,128,0,81218:0:0:0:0:
256,192,81136,1,0,0:0:0:0:
109,192,81136,1,0,0:0:0:0:
475,192,81299,1,0,0:0:0:0:
329,192,81299,1,0,0:0:0:0:
109,192,81299,128,0,81381:0:0:0:0:
256,192,81299,128,0,81381:0:0:0:0:
402,192,81381,1,0,0:0:0:0:
182,192,81462,1,0,0:0:0:0:
36,192,81462,1,0,0:0:0:0:
329,192,81462,1,0,0:0:0:0:
109,192,81544,1,0,0:0:0:0:
402,192,81544,1,0,0:0:0:0:
329,192,81625,1,0,0:0:0:0:
36,192,81625,1,0,0:0:0:0:
256,192,81625,1,0,0:0:0:0:
182,192,81625,1,0,0:0:0:0:
402,192,81707,1,0,0:0:0:0:
109,192,81707,1,0,0:0:0:0:
182,192,81788,128,0,81911:0:0:0:0:
475,192,81788,1,0,0:0:0:0:
329,192,81788,128,0,81829:0:0:0:0:
256,192,81788,128,0,81870:0:0:0:0:
109,192,81870,128,0,81952:0:0:0:0:
36,192,81870,128,0,81911:0:0:0:0:
329,192,81952,128,0,81992:0:0:0:0:
475,192,81952,128,0,82074:0:0:0:0:
402,192,81952,128,0,82033:0:0:0:0:
256,192,82033,128,0,82074:0:0:0:0:
182,192,82033,128,0,82115:0:0:0:0:
36,192,82115,128,0,82155:0:0:0:0:
402,192,82115,128,0,82237:0:0:0:0:
329,192,82115,128,0,82196:0:0:0:0:
109,192,82196,128,0,82278:0:0:0:0:
182,192,82196,128,0,82237:0:0:0:0:
256,192,82278,128,0,82318:0:0:0:0:
329,192,82278,128,0,82359:0:0:0:0:
475,192,82278,128,0,82400:0:0:0:0:
182,192,82359,128,0,82400:0:0:0:0:
36,192,82359,128,0,82441:0:0:0:0:
475,192,82441,128,0,82481:0:0:0:0:
109,192,82441,128,0,82522:0:0:0:0:
402,192,82441,128,0,82522:0:0:0:0:
329,192,82441,128,0,82563:0:0:0:0:
256,192,82441,128,0,82604:0:0:0:0:
109,192,82604,128,0,82685:0:0:0:0:
182,192,82604,128,0,82726:0:0:0:0:
475,192,82604,128,0,82767:0:0:0:0:
36,192,82604,128,0,82644:0:0:0:0:
402,192,82604,128,0,82685:0:0:0:0:
182,192,82767,128,0,82808:0:0:0:0:
36,192,82767,128,0,82848:0:0:0:0:
402,192,82767,128,0,82930:0:0:0:0:
329,192,82767,128,0,82889:0:0:0:0:
256,192,82767,128,0,82848:0:0:0:0:
256,192,82930,128,0,82971:0:0:0:0:
475,192,82930,128,0,83011:0:0:0:0:
109,192,82930,128,0,83052:0:0:0:0:
182,192,82930,128,0,83011:0:0:0:0:
36,192,82930,128,0,83093:0:0:0:0:
329,192,83093,128,0,83215:0:0:0:0:
182,192,83093,128,0,83134:0:0:0:0:
256,192,83093,128,0,83174:0:0:0:0:
475,192,83174,128,0,83215:0:0:0:0:
402,192,83174,128,0,83256:0:0:0:0:
182,192,83256,128,0,83297:0:0:0:0:
109,192,83256,128,0,83337:0:0:0:0:
36,192,83256,128,0,83378:0:0:0:0:
329,192,83337,128,0,83419:0:0:0:0:
256,192,83337,128,0,83378:0:0:0:0:
182,192,83419,128,0,83500:0:0:0:0:
475,192,83419,128,0,83460:0:0:0:0:
109,192,83419,128,0,83541:0:0:0:0:
329,192,83500,128,0,83541:0:0:0:0:
402,192,83500,128,0,83582:0:0:0:0:
182,192,83582,128,0,83663:0:0:0:0:
256,192,83582,128,0,83623:0:0:0:0:
36,192,83582,128,0,83704:0:0:0:0:
329,192,83663,128,0,83704:0:0:0:0:
475,192,83663,128,0,83745:0:0:0:0:
256,192,83745,128,0,83827:0:0:0:0:
182,192,83745,128,0,83827:0:0:0:0:
402,192,83745,1,0,0:0:0:0:
109,192,83745,128,0,83827:0:0:0:0:
36,192,83745,128,0,83827:0:0:0:0:
475,192,83908,128,0,83990:0:0:0:0:
402,192,83908,128,0,83990:0:0:0:0:
329,192,83908,128,0,83990:0:0:0:0:
256,192,83908,1,0,0:0:0:0:
36,192,83908,128,0,83990:0:0:0:0:
182,192,83990,1,0,0:0:0:0:
256,192,84071,128,0,84153:0:0:0:0:
475,192,84071,128,0,84153:0:0:0:0:
329,192,84071,1,0,0:0:0:0:
36,192,84071,128,0,84153:0:0:0:0:
109,192,84071,128,0,84153:0:0:0:0:
402,192,84153,1,0,0:0:0:0:
182,192,84234,1,0,0:0:0:0:
256,192,84234,128,0,84316:0:0:0:0:
475,192,84234,128,0,84316:0:0:0:0:
36,192,84234,128,0,84316:0:0:0:0:
329,192,84234,128,0,84316:0:0:0:0:
109,192,84316,1,0,0:0:0:0:
36,192,84397,1,0,0:0:0:0:
329,192,84397,1,0,0:0:0:0:
256,192,84479,1,0,0:0:0:0:
182,192,84560,1,0,0:0:0:0:
182,192,84642,1,0,0:0:0:0:
329,192,84723,1,0,0:0:0:0:
402,192,84723,1,0,0:0:0:0:
109,192,84723,1,0,0:0:0:0:
36,192,84723,1,0,0:0:0:0:
475,192,84723,128,0,85049:0:0:0:0:
256,192,84723,1,0,0:0:0:0:
182,192,84886,1,0,0:0:0:0:
36,192,85049,1,0,0:0:0:0:
329,192,85049,1,0,0:0:0:0:
256,192,85212,1,0,0:0:0:0:
256,192,85294,1,0,0:0:0:0:
475,192,85375,1,0,0:0:0:0:
182,192,85375,1,0,0:0:0:0:
402,192,85375,1,0,0:0:0:0:
109,192,85375,1,0,0:0:0:0:
329,192,85375,1,0,0:0:0:0:
36,192,85375,128,0,85702:0:0:0:0:
475,192,85538,1,0,0:0:0:0:
402,192,85538,1,0,0:0:0:0:
329,192,85620,1,0,0:0:0:0:
182,192,85702,1,0,0:0:0:0:
256,192,85702,1,0,0:0:0:0:
475,192,85702,128,0,85865:0:0:0:0:
109,192,85702,1,0,0:0:0:0:
402,192,85702,1,0,0:0:0:0:
109,192,85865,1,0,0:0:0:0:
256,192,85865,1,0,0:0:0:0:
182,192,85865,1,0,0:0:0:0:
36,192,85865,1,0,0:0:0:0:
402,192,85865,1,0,0:0:0:0:
329,192,85865,128,0,86028:0:0:0:0:
402,192,86028,1,0,0:0:0:0:
256,192,86028,1,0,0:0:0:0:
182,192,86028,128,0,86191:0:0:0:0:
109,192,86028,1,0,0:0:0:0:
36,192,86028,1,0,0:0:0:0:
475,192,86028,1,0,0:0:0:0:
475,192,86191,128,0,86272:0:0:0:0:
402,192,86211,128,0,86293:0:0:0:0:
329,192,86231,128,0,86313:0:0:0:0:
256,192,86252,128,0,86333:0:0:0:0:
182,192,86272,128,0,86354:0:0:0:0:
109,192,86293,128,0,86374:0:0:0:0:
36,192,86313,128,0,86394:0:0:0:0:
320,192,86517,1,0,0:0:0:0:
402,192,86517,1,0,0:0:0:0:
475,192,86517,1,0,0:0:0:0:
109,192,86598,1,0,0:0:0:0:
256,192,86598,1,0,0:0:0:0:
320,192,86680,1,0,0:0:0:0:
402,192,86680,1,0,0:0:0:0:
475,192,86680,1,0,0:0:0:0:
192,192,86761,1,0,0:0:0:0:
256,192,86761,1,0,0:0:0:0:
109,192,86843,1,0,0:0:0:0:
402,192,86843,1,0,0:0:0:0:
36,192,86843,1,0,0:0:0:0:
320,192,86924,1,0,0:0:0:0:
256,192,86924,1,0,0:0:0:0:
36,192,87006,128,0,87577:0:0:0:0:
402,192,87006,128,0,87087:0:0:0:0:
475,192,87006,128,0,87250:0:0:0:0:
109,192,87087,128,0,87250:0:0:0:0:
182,192,87169,128,0,87413:0:0:0:0:
402,192,87169,128,0,87413:0:0:0:0:
256,192,87250,128,0,87332:0:0:0:0:
109,192,87332,128,0,87495:0:0:0:0:
329,192,87332,128,0,87495:0:0:0:0:
475,192,87332,128,0,87577:0:0:0:0:
256,192,87413,128,0,87577:0:0:0:0:
402,192,87495,128,0,87658:0:0:0:0:
182,192,87495,128,0,87658:0:0:0:0:
109,192,87577,128,0,87740:0:0:0:0:
36,192,87658,128,0,87740:0:0:0:0:
256,192,87658,128,0,87821:0:0:0:0:
475,192,87658,128,0,88229:0:0:0:0:
402,192,87740,128,0,87903:0:0:0:0:
36,192,87821,128,0,88392:0:0:0:0:
109,192,87821,128,0,88066:0:0:0:0:
329,192,87821,128,0,88066:0:0:0:0:
256,192,87903,128,0,87984:0:0:0:0:
402,192,87984,128,0,88147:0:0:0:0:
182,192,87984,128,0,88066:0:0:0:0:
256,192,88066,128,0,88473:0:0:0:0:
182,192,88147,128,0,88718:0:0:0:0:
329,192,88147,128,0,88392:0:0:0:0:
109,192,88147,128,0,88229:0:0:0:0:
402,192,88229,128,0,88310:0:0:0:0:
475,192,88310,128,0,88555:0:0:0:0:
109,192,88310,128,0,88555:0:0:0:0:
402,192,88392,128,0,88636:0:0:0:0:
36,192,88473,128,0,88555:0:0:0:0:
329,192,88473,128,0,88555:0:0:0:0:
256,192,88555,128,0,88636:0:0:0:0:
36,192,88636,1,0,0:0:0:0:
109,192,88636,1,0,0:0:0:0:
329,192,88636,128,0,88718:0:0:0:0:
475,192,88636,128,0,88718:0:0:0:0:
256,192,88718,128,0,88799:0:0:0:0:
402,192,88718,128,0,88799:0:0:0:0:
182,192,88799,128,0,88881:0:0:0:0:
329,192,88799,128,0,88881:0:0:0:0:
109,192,88881,128,0,88962:0:0:0:0:
256,192,88881,128,0,88962:0:0:0:0:
475,192,88962,1,0,0:0:0:0:
402,192,88962,1,0,0:0:0:0:
36,192,88962,128,0,89044:0:0:0:0:
182,192,88962,128,0,89044:0:0:0:0:
109,192,89125,128,0,89207:0:0:0:0:
256,192,89125,128,0,89207:0:0:0:0:
475,192,89125,1,0,0:0:0:0:
402,192,89125,1,0,0:0:0:0:
182,192,89288,128,0,89370:0:0:0:0:
329,192,89288,128,0,89370:0:0:0:0:
36,192,89288,1,0,0:0:0:0:
475,192,89288,1,0,0:0:0:0:
256,192,89452,128,0,89533:0:0:0:0:
402,192,89452,128,0,89533:0:0:0:0:
329,192,89615,128,0,89696:0:0:0:0:
475,192,89615,128,0,89696:0:0:0:0:
36,192,89615,128,0,89941:0:0:0:0:
109,192,89696,128,0,89941:0:0:0:0:
182,192,89778,128,0,89941:0:0:0:0:
256,192,89859,128,0,89941:0:0:0:0:
402,192,89941,128,0,90104:0:0:0:0:
329,192,89941,128,0,90104:0:0:0:0:
475,192,89941,1,0,0:0:0:0:
109,192,90022,128,0,90185:0:0:0:0:
36,192,90022,128,0,90185:0:0:0:0:
182,192,90104,128,0,90267:0:0:0:0:
256,192,90104,128,0,90267:0:0:0:0:
402,192,90185,128,0,90348:0:0:0:0:
475,192,90185,128,0,90348:0:0:0:0:
36,192,90267,128,0,90430:0:0:0:0:
329,192,90267,128,0,90430:0:0:0:0:
109,192,90348,128,0,90511:0:0:0:0:
182,192,90430,128,0,90593:0:0:0:0:
475,192,90430,1,0,0:0:0:0:
402,192,90430,1,0,0:0:0:0:
256,192,90511,128,0,90674:0:0:0:0:
329,192,90593,128,0,90756:0:0:0:0:
402,192,90674,128,0,90837:0:0:0:0:
475,192,90756,128,0,90919:0:0:0:0:
109,192,90756,128,0,90797:0:0:0:0:
36,192,90756,1,0,0:0:0:0:
182,192,90837,128,0,90878:0:0:0:0:
256,192,90919,128,0,91245:0:0:0:0:
329,192,90919,128,0,91000:0:0:0:0:
36,192,90919,128,0,91000:0:0:0:0:
402,192,91000,128,0,91082:0:0:0:0:
109,192,91000,128,0,91082:0:0:0:0:
475,192,91082,128,0,91163:0:0:0:0:
182,192,91082,128,0,91163:0:0:0:0:
109,192,91163,128,0,91245:0:0:0:0:
402,192,91163,128,0,91245:0:0:0:0:
182,192,91245,128,0,91571:0:0:0:0:
36,192,91245,128,0,91327:0:0:0:0:
329,192,91245,128,0,91327:0:0:0:0:
256,192,91327,128,0,91408:0:0:0:0:
475,192,91327,128,0,91408:0:0:0:0:
109,192,91408,128,0,91490:0:0:0:0:
402,192,91408,128,0,91490:0:0:0:0:
329,192,91490,128,0,91571:0:0:0:0:
36,192,91490,128,0,91571:0:0:0:0:
109,192,91571,128,0,91897:0:0:0:0:
475,192,91571,128,0,91653:0:0:0:0:
402,192,91571,128,0,91653:0:0:0:0:
256,192,91571,1,0,0:0:0:0:
182,192,91653,128,0,91734:0:0:0:0:
329,192,91653,128,0,91734:0:0:0:0:
36,192,91653,1,0,0:0:0:0:
402,192,91734,128,0,91816:0:0:0:0:
256,192,91734,128,0,91816:0:0:0:0:
475,192,91734,1,0,0:0:0:0:
329,192,91816,128,0,91897:0:0:0:0:
182,192,91816,128,0,91897:0:0:0:0:
475,192,91897,1,0,0:0:0:0:
402,192,91897,128,0,92060:0:0:0:0:
36,192,91897,128,0,92060:0:0:0:0:
329,192,91979,128,0,92142:0:0:0:0:
256,192,92060,128,0,92223:0:0:0:0:
182,192,92142,128,0,92305:0:0:0:0:
109,192,92223,128,0,92386:0:0:0:0:
402,192,92223,128,0,92509:0:0:0:0:
36,192,92223,128,0,92386:0:0:0:0:
475,192,92223,128,0,92386:0:0:0:0:
329,192,92305,128,0,92590:0:0:0:0:
256,192,92386,128,0,92672:0:0:0:0:
182,192,92468,128,0,92753:0:0:0:0:
475,192,92468,1,0,0:0:0:0:
109,192,92549,128,0,92835:0:0:0:0:
402,192,92549,1,0,0:0:0:0:
36,192,92549,1,0,0:0:0:0:
329,192,92631,1,0,0:0:0:0:
475,192,92631,1,0,0:0:0:0:
256,192,92712,1,0,0:0:0:0:
402,192,92712,1,0,0:0:0:0:
182,192,92794,1,0,0:0:0:0:
329,192,92794,1,0,0:0:0:0:
109,192,92875,1,0,0:0:0:0:
256,192,92875,1,0,0:0:0:0:
402,192,92957,1,0,0:0:0:0:
36,192,93038,128,0,93120:0:0:0:0:
109,192,93038,128,0,93120:0:0:0:0:
182,192,93038,128,0,93120:0:0:0:0:
256,192,93038,128,0,93120:0:0:0:0:
329,192,93038,1,0,0:0:0:0:
475,192,93038,1,0,0:0:0:0:
402,192,93120,1,0,0:0:0:0:
256,192,93202,1,0,0:0:0:0:
329,192,93202,1,0,0:0:0:0:
36,192,93202,1,0,0:0:0:0:
109,192,93202,1,0,0:0:0:0:
182,192,93283,1,0,0:0:0:0:
256,192,93365,128,0,93528:0:0:0:0:
329,192,93365,128,0,93528:0:0:0:0:
402,192,93365,128,0,93528:0:0:0:0:
475,192,93365,128,0,93528:0:0:0:0:
36,192,93365,1,0,0:0:0:0:
109,192,93365,1,0,0:0:0:0:
182,192,93446,1,0,0:0:0:0:
36,192,93528,1,0,0:0:0:0:
475,192,93609,1,0,0:0:0:0:
402,192,93609,1,0,0:0:0:0:
329,192,93691,1,0,0:0:0:0:
256,192,93691,1,0,0:0:0:0:
109,192,93772,1,0,0:0:0:0:
182,192,93854,1,0,0:0:0:0:
36,192,93854,1,0,0:0:0:0:
256,192,93854,1,0,0:0:0:0:
402,192,93854,1,0,0:0:0:0:
329,192,93854,1,0,0:0:0:0:
475,192,93854,1,0,0:0:0:0:
36,192,94017,1,0,0:0:0:0:
256,192,94017,1,0,0:0:0:0:
402,192,94017,1,0,0:0:0:0:
182,192,94098,1,0,0:0:0:0:
329,192,94098,1,0,0:0:0:0:
109,192,94180,1,0,0:0:0:0:
256,192,94180,1,0,0:0:0:0:
475,192,94180,1,0,0:0:0:0:
182,192,94261,1,0,0:0:0:0:
329,192,94261,1,0,0:0:0:0:
256,192,94343,1,0,0:0:0:0:
402,192,94343,1,0,0:0:0:0:
36,192,94343,1,0,0:0:0:0:
182,192,94424,1,0,0:0:0:0:
329,192,94424,1,0,0:0:0:0:
109,192,94506,1,0,0:0:0:0:
256,192,94506,1,0,0:0:0:0:
475,192,94506,1,0,0:0:0:0:
182,192,94587,1,0,0:0:0:0:
329,192,94587,1,0,0:0:0:0:
256,192,94669,1,0,0:0:0:0:
402,192,94669,1,0,0:0:0:0:
36,192,94669,1,0,0:0:0:0:
329,192,94750,1,0,0:0:0:0:
475,192,94750,1,0,0:0:0:0:
256,192,94832,128,0,95117:0:0:0:0:
109,192,94832,128,0,95158:0:0:0:0:
36,192,94832,128,0,94873:0:0:0:0:
329,192,94913,128,0,95117:0:0:0:0:
182,192,94913,128,0,94954:0:0:0:0:
402,192,94995,128,0,95117:0:0:0:0:
36,192,94995,128,0,95036:0:0:0:0:
475,192,95077,128,0,95117:0:0:0:0:
182,192,95077,128,0,95117:0:0:0:0:
182,192,95158,128,0,95443:0:0:0:0:
36,192,95158,128,0,95484:0:0:0:0:
329,192,95158,128,0,95199:0:0:0:0:
256,192,95240,128,0,95443:0:0:0:0:
402,192,95240,128,0,95280:0:0:0:0:
329,192,95321,128,0,95443:0:0:0:0:
475,192,95321,128,0,95362:0:0:0:0:
402,192,95403,128,0,95443:0:0:0:0:
109,192,95403,128,0,95443:0:0:0:0:
109,192,95484,128,0,95769:0:0:0:0:
475,192,95484,128,0,95810:0:0:0:0:
256,192,95484,128,0,95525:0:0:0:0:
182,192,95566,128,0,95769:0:0:0:0:
329,192,95566,128,0,95606:0:0:0:0:
256,192,95647,128,0,95769:0:0:0:0:
402,192,95647,128,0,95688:0:0:0:0:
329,192,95729,128,0,95769:0:0:0:0:
36,192,95729,128,0,95769:0:0:0:0:
36,192,95810,128,0,96096:0:0:0:0:
402,192,95810,128,0,96136:0:0:0:0:
182,192,95810,1,0,0:0:0:0:
256,192,95892,1,0,0:0:0:0:
109,192,95892,128,0,96096:0:0:0:0:
329,192,95973,1,0,0:0:0:0:
182,192,95973,128,0,96096:0:0:0:0:
256,192,96055,128,0,96096:0:0:0:0:
475,192,96055,1,0,0:0:0:0:
109,192,96136,1,0,0:0:0:0:
182,192,96136,1,0,0:0:0:0:
36,192,96136,1,0,0:0:0:0:
256,192,96136,1,0,0:0:0:0:
329,192,96136,128,0,96299:0:0:0:0:
256,192,96299,128,0,96462:0:0:0:0:
182,192,96462,128,0,96625:0:0:0:0:
109,192,96625,128,0,96870:0:0:0:0:
109,192,96952,1,0,0:0:0:0:
402,192,96952,1,0,0:0:0:0:
182,192,97033,1,0,0:0:0:0:
256,192,97033,1,0,0:0:0:0:
329,192,97033,1,0,0:0:0:0:
109,192,97115,128,0,97196:0:0:0:0:
402,192,97115,1,0,0:0:0:0:
402,192,97196,128,0,97278:0:0:0:0:
109,192,97278,1,0,0:0:0:0:
36,192,97278,1,0,0:0:0:0:
256,192,97278,1,0,0:0:0:0:
475,192,97359,1,0,0:0:0:0:
402,192,97359,1,0,0:0:0:0:
36,192,97441,128,0,97644:0:0:0:0:
182,192,97441,128,0,97563:0:0:0:0:
256,192,97441,128,0,97522:0:0:0:0:
329,192,97441,128,0,97481:0:0:0:0:
109,192,97441,128,0,97604:0:0:0:0:
475,192,97604,128,0,97808:0:0:0:0:
329,192,97604,128,0,97644:0:0:0:0:
402,192,97604,128,0,97644:0:0:0:0:
256,192,97604,128,0,97644:0:0:0:0:
182,192,97767,128,0,97930:0:0:0:0:
256,192,97767,128,0,97889:0:0:0:0:
329,192,97767,128,0,97848:0:0:0:0:
402,192,97767,128,0,97808:0:0:0:0:
109,192,97767,128,0,97971:0:0:0:0:
36,192,97930,128,0,97971:0:0:0:0:
402,192,97930,128,0,97971:0:0:0:0:
329,192,97930,128,0,98134:0:0:0:0:
475,192,97930,128,0,97971:0:0:0:0:
36,192,98093,128,0,98256:0:0:0:0:
109,192,98093,128,0,98215:0:0:0:0:
182,192,98093,128,0,98174:0:0:0:0:
256,192,98093,128,0,98134:0:0:0:0:
475,192,98093,128,0,98297:0:0:0:0:
256,192,98256,128,0,98541:0:0:0:0:
182,192,98256,128,0,98297:0:0:0:0:
329,192,98256,128,0,98297:0:0:0:0:
402,192,98256,128,0,98297:0:0:0:0:
109,192,98419,128,0,98623:0:0:0:0:
182,192,98419,128,0,98582:0:0:0:0:
329,192,98419,128,0,98500:0:0:0:0:
402,192,98419,128,0,98460:0:0:0:0:
36,192,98419,128,0,98460:0:0:0:0:
402,192,98582,128,0,98623:0:0:0:0:
475,192,98582,128,0,98623:0:0:0:0:
329,192,98582,128,0,98827:0:0:0:0:
36,192,98745,1,0,0:0:0:0:
256,192,98745,128,0,98990:0:0:0:0:
402,192,98745,128,0,98827:0:0:0:0:
475,192,98745,128,0,98827:0:0:0:0:
109,192,98745,128,0,98827:0:0:0:0:
182,192,98827,1,0,0:0:0:0:
36,192,98908,1,0,0:0:0:0:
109,192,98908,128,0,98990:0:0:0:0:
475,192,98908,128,0,99153:0:0:0:0:
329,192,98908,128,0,98990:0:0:0:0:
182,192,98990,1,0,0:0:0:0:
329,192,99071,1,0,0:0:0:0:
36,192,99071,128,0,99316:0:0:0:0:
402,192,99071,128,0,99153:0:0:0:0:
256,192,99071,128,0,99153:0:0:0:0:
109,192,99071,128,0,99153:0:0:0:0:
182,192,99153,1,0,0:0:0:0:
329,192,99234,1,0,0:0:0:0:
256,192,99234,128,0,99316:0:0:0:0:
109,192,99234,128,0,99316:0:0:0:0:
402,192,99234,128,0,99479:0:0:0:0:
182,192,99316,1,0,0:0:0:0:
256,192,99397,128,0,99642:0:0:0:0:
36,192,99397,128,0,99479:0:0:0:0:
109,192,99397,128,0,99479:0:0:0:0:
329,192,99397,128,0,99479:0:0:0:0:
475,192,99397,128,0,99479:0:0:0:0:
182,192,99560,128,0,99642:0:0:0:0:
109,192,99560,128,0,99642:0:0:0:0:
402,192,99560,128,0,99805:0:0:0:0:
329,192,99560,128,0,99642:0:0:0:0:
475,192,99560,128,0,99642:0:0:0:0:
182,192,99723,128,0,99968:0:0:0:0:
36,192,99723,128,0,99805:0:0:0:0:
109,192,99723,128,0,99805:0:0:0:0:
329,192,99723,128,0,99805:0:0:0:0:
256,192,99723,128,0,99805:0:0:0:0:
402,192,99886,128,0,99968:0:0:0:0:
256,192,99886,128,0,99968:0:0:0:0:
329,192,99886,128,0,99968:0:0:0:0:
36,192,99886,128,0,100131:0:0:0:0:
109,192,100049,128,0,100131:0:0:0:0:
256,192,100049,128,0,100131:0:0:0:0:
475,192,100049,1,0,0:0:0:0:
182,192,100131,128,0,100212:0:0:0:0:
329,192,100131,128,0,100212:0:0:0:0:
256,192,100212,128,0,100294:0:0:0:0:
402,192,100212,128,0,100294:0:0:0:0:
329,192,100294,128,0,100375:0:0:0:0:
475,192,100294,128,0,100375:0:0:0:0:
109,192,100375,128,0,100416:0:0:0:0:
182,192,100375,128,0,100416:0:0:0:0:
36,192,100375,1,0,0:0:0:0:
402,192,100375,1,0,0:0:0:0:
329,192,100457,128,0,100498:0:0:0:0:
256,192,100457,128,0,100498:0:0:0:0:
109,192,100538,128,0,100579:0:0:0:0:
182,192,100538,128,0,100579:0:0:0:0:
256,192,100620,128,0,100661:0:0:0:0:
329,192,100620,128,0,100661:0:0:0:0:
475,192,100702,128,0,100783:0:0:0:0:
109,192,100702,128,0,100783:0:0:0:0:
36,192,100702,1,0,0:0:0:0:
182,192,100783,128,0,100865:0:0:0:0:
402,192,100783,128,0,100865:0:0:0:0:
109,192,100865,128,0,100946:0:0:0:0:
329,192,100865,128,0,100946:0:0:0:0:
256,192,100946,128,0,101028:0:0:0:0:
36,192,100946,128,0,101028:0:0:0:0:
402,192,101028,128,0,101068:0:0:0:0:
329,192,101028,128,0,101068:0:0:0:0:
109,192,101028,1,0,0:0:0:0:
475,192,101028,1,0,0:0:0:0:
256,192,101109,128,0,101150:0:0:0:0:
182,192,101109,128,0,101150:0:0:0:0:
402,192,101191,128,0,101231:0:0:0:0:
329,192,101191,128,0,101231:0:0:0:0:
256,192,101272,128,0,101313:0:0:0:0:
182,192,101272,128,0,101313:0:0:0:0:
109,192,101354,128,0,101598:0:0:0:0:
36,192,101354,128,0,101680:0:0:0:0:
475,192,101354,1,0,0:0:0:0:
329,192,101354,1,0,0:0:0:0:
182,192,101435,1,0,0:0:0:0:
402,192,101435,1,0,0:0:0:0:
256,192,101517,1,0,0:0:0:0:
475,192,101517,1,0,0:0:0:0:
329,192,101598,1,0,0:0:0:0:
182,192,101680,128,0,101924:0:0:0:0:
109,192,101680,128,0,102006:0:0:0:0:
256,192,101680,1,0,0:0:0:0:
475,192,101680,1,0,0:0:0:0:
402,192,101761,1,0,0:0:0:0:
329,192,101761,1,0,0:0:0:0:
256,192,101843,1,0,0:0:0:0:
475,192,101843,1,0,0:0:0:0:
402,192,101924,1,0,0:0:0:0:
329,192,101924,1,0,0:0:0:0:
182,192,102006,128,0,102332:0:0:0:0:
256,192,102006,128,0,102250:0:0:0:0:
475,192,102006,1,0,0:0:0:0:
36,192,102006,1,0,0:0:0:0:
109,192,102087,1,0,0:0:0:0:
329,192,102087,1,0,0:0:0:0:
475,192,102169,1,0,0:0:0:0:
402,192,102169,1,0,0:0:0:0:
329,192,102250,1,0,0:0:0:0:
109,192,102250,1,0,0:0:0:0:
256,192,102332,1,0,0:0:0:0:
36,192,102332,128,0,102495:0:0:0:0:
402,192,102332,128,0,102658:0:0:0:0:
475,192,102332,1,0,0:0:0:0:
109,192,102495,1,0,0:0:0:0:
182,192,102495,1,0,0:0:0:0:
475,192,102495,1,0,0:0:0:0:
256,192,102495,128,0,102658:0:0:0:0:
329,192,102495,1,0,0:0:0:0:
36,192,102658,1,0,0:0:0:0:
109,192,102658,1,0,0:0:0:0:
448,192,102658,128,0,102821:0:0:0:0:
182,192,102658,1,0,0:0:0:0:
329,192,102658,1,0,0:0:0:0:
256,192,102740,1,0,0:0:0:0:
402,192,102740,128,0,102903:0:0:0:0:
329,192,102821,128,0,102984:0:0:0:0:
182,192,102821,1,0,0:0:0:0:
256,192,102903,128,0,103066:0:0:0:0:
109,192,102903,1,0,0:0:0:0:
182,192,102984,128,0,103147:0:0:0:0:
36,192,102984,128,0,103066:0:0:0:0:
402,192,103066,128,0,103147:0:0:0:0:
475,192,103066,128,0,103147:0:0:0:0:
256,192,103147,128,0,103229:0:0:0:0:
109,192,103147,128,0,103229:0:0:0:0:
475,192,103229,128,0,103310:0:0:0:0:
329,192,103229,128,0,103310:0:0:0:0:
182,192,103310,1,0,0:0:0:0:
36,192,103310,128,0,103473:0:0:0:0:
109,192,103392,128,0,103555:0:0:0:0:
256,192,103392,1,0,0:0:0:0:
182,192,103473,128,0,103636:0:0:0:0:
329,192,103473,1,0,0:0:0:0:
256,192,103555,128,0,103718:0:0:0:0:
402,192,103555,1,0,0:0:0:0:
448,192,103636,128,0,103718:0:0:0:0:
329,192,103636,128,0,103799:0:0:0:0:
36,192,103718,128,0,103799:0:0:0:0:
109,192,103718,128,0,103799:0:0:0:0:
402,192,103799,128,0,103881:0:0:0:0:
256,192,103799,128,0,103881:0:0:0:0:
182,192,103881,128,0,103962:0:0:0:0:
64,192,103881,128,0,103962:0:0:0:0:
256,192,103962,128,0,104615:0:0:0:0:
402,192,103962,1,0,0:0:0:0:
448,192,103962,1,0,0:0:0:0:
320,192,103962,1,0,0:0:0:0:
329,192,104125,1,0,0:0:0:0:
402,192,104125,1,0,0:0:0:0:
109,192,104125,1,0,0:0:0:0:
182,192,104125,1,0,0:0:0:0:
320,192,104288,1,0,0:0:0:0:
402,192,104288,1,0,0:0:0:0:
475,192,104288,1,0,0:0:0:0:
64,192,104288,1,0,0:0:0:0:
109,192,104288,1,0,0:0:0:0:
109,192,104452,1,0,0:0:0:0:
402,192,104452,1,0,0:0:0:0:
182,192,104452,1,0,0:0:0:0:
448,192,104452,1,0,0:0:0:0:
448,192,104615,1,0,0:0:0:0:
320,192,104615,128,0,105267:0:0:0:0:
64,192,104615,1,0,0:0:0:0:
109,192,104615,1,0,0:0:0:0:
182,192,104615,1,0,0:0:0:0:
192,192,104778,1,0,0:0:0:0:
256,192,104778,1,0,0:0:0:0:
402,192,104778,1,0,0:0:0:0:
256,192,104941,1,0,0:0:0:0:
192,192,104941,1,0,0:0:0:0:
475,192,104941,1,0,0:0:0:0:
64,192,104941,1,0,0:0:0:0:
402,192,104941,1,0,0:0:0:0:
448,192,105104,1,0,0:0:0:0:
256,192,105104,1,0,0:0:0:0:
109,192,105104,1,0,0:0:0:0:
402,192,105267,1,0,0:0:0:0:
109,192,105267,1,0,0:0:0:0:
256,192,105267,1,0,0:0:0:0:
64,192,105267,1,0,0:0:0:0:
192,192,105267,1,0,0:0:0:0:
448,192,105267,128,0,105593:0:0:0:0:
109,192,105430,1,0,0:0:0:0:
256,192,105430,1,0,0:0:0:0:
182,192,105593,1,0,0:0:0:0:
320,192,105593,1,0,0:0:0:0:
64,192,105593,128,0,105919:0:0:0:0:
256,192,105756,1,0,0:0:0:0:
402,192,105756,1,0,0:0:0:0:
109,192,105919,1,0,0:0:0:0:
256,192,105919,1,0,0:0:0:0:
320,192,105919,1,0,0:0:0:0:
448,192,105919,1,0,0:0:0:0:
182,192,105919,1,0,0:0:0:0:
109,192,106082,1,0,0:0:0:0:
256,192,106082,1,0,0:0:0:0:
192,192,106082,1,0,0:0:0:0:
64,192,106082,1,0,0:0:0:0:
109,192,106245,1,0,0:0:0:0:
256,192,106245,1,0,0:0:0:0:
320,192,106245,1,0,0:0:0:0:
182,192,106245,1,0,0:0:0:0:
448,192,106245,1,0,0:0:0:0:
64,192,106408,128,0,107223:0:0:0:0:
475,192,106408,1,0,0:0:0:0:
320,192,106408,1,0,0:0:0:0:
402,192,106408,1,0,0:0:0:0:
256,192,106490,1,0,0:0:0:0:
192,192,106490,1,0,0:0:0:0:
109,192,106490,1,0,0:0:0:0:
320,192,106571,128,0,106653:0:0:0:0:
448,192,106571,128,0,106653:0:0:0:0:
402,192,106571,128,0,106653:0:0:0:0:
329,192,106734,128,0,106816:0:0:0:0:
182,192,106734,128,0,106816:0:0:0:0:
256,192,106734,128,0,106816:0:0:0:0:
109,192,106734,128,0,106816:0:0:0:0:
182,192,106897,128,0,106979:0:0:0:0:
256,192,106897,128,0,106979:0:0:0:0:
402,192,106897,128,0,106979:0:0:0:0:
320,192,106897,128,0,106979:0:0:0:0:
256,192,107060,128,0,107142:0:0:0:0:
329,192,107060,128,0,107142:0:0:0:0:
475,192,107060,128,0,107142:0:0:0:0:
402,192,107060,128,0,107142:0:0:0:0:
402,192,107223,1,0,0:0:0:0:
320,192,107223,1,0,0:0:0:0:
448,192,107223,1,0,0:0:0:0:
109,192,107223,1,0,0:0:0:0:
256,192,107223,1,0,0:0:0:0:
182,192,107223,1,0,0:0:0:0:
402,192,107386,1,0,0:0:0:0:
109,192,107549,1,0,0:0:0:0:
256,192,107712,1,0,0:0:0:0:
320,192,107794,1,0,0:0:0:0:
448,192,107875,1,0,0:0:0:0:
182,192,107875,128,0,108202:0:0:0:0:
109,192,107875,1,0,0:0:0:0:
402,192,107875,1,0,0:0:0:0:
36,192,107875,1,0,0:0:0:0:
475,192,108202,128,0,108528:0:0:0:0:
329,192,108202,128,0,108324:0:0:0:0:
402,192,108202,128,0,108324:0:0:0:0:
256,192,108283,128,0,108405:0:0:0:0:
182,192,108365,128,0,108487:0:0:0:0:
36,192,108365,128,0,108487:0:0:0:0:
256,192,108446,128,0,108568:0:0:0:0:
36,192,108528,128,0,108854:0:0:0:0:
329,192,108528,128,0,108650:0:0:0:0:
402,192,108528,128,0,108650:0:0:0:0:
109,192,108528,128,0,108650:0:0:0:0:
182,192,108609,128,0,108731:0:0:0:0:
256,192,108691,128,0,108813:0:0:0:0:
402,192,108691,128,0,108813:0:0:0:0:
182,192,108772,128,0,108894:0:0:0:0:
256,192,108854,128,0,109180:0:0:0:0:
109,192,108854,128,0,108976:0:0:0:0:
475,192,108854,128,0,108976:0:0:0:0:
320,192,108935,128,0,109058:0:0:0:0:
402,192,109017,128,0,109180:0:0:0:0:
109,192,109017,128,0,109139:0:0:0:0:
36,192,109017,128,0,109139:0:0:0:0:
192,192,109098,128,0,109221:0:0:0:0:
475,192,109180,128,0,109669:0:0:0:0:
109,192,109180,128,0,109343:0:0:0:0:
320,192,109180,128,0,109302:0:0:0:0:
192,192,109261,128,0,109384:0:0:0:0:
320,192,109343,128,0,109465:0:0:0:0:
402,192,109343,128,0,109465:0:0:0:0:
36,192,109343,128,0,109465:0:0:0:0:
256,192,109424,128,0,109547:0:0:0:0:
320,192,109506,128,0,109669:0:0:0:0:
109,192,109506,128,0,109628:0:0:0:0:
402,192,109506,128,0,109628:0:0:0:0:
192,192,109587,128,0,109710:0:0:0:0:
256,192,109669,128,0,110484:0:0:0:0:
36,192,109669,128,0,109791:0:0:0:0:
109,192,109669,128,0,109791:0:0:0:0:
320,192,109750,128,0,109873:0:0:0:0:
402,192,109832,128,0,109995:0:0:0:0:
475,192,109832,128,0,109954:0:0:0:0:
192,192,109832,128,0,109954:0:0:0:0:
109,192,109832,128,0,109954:0:0:0:0:
36,192,109995,128,0,110117:0:0:0:0:
320,192,109995,128,0,110117:0:0:0:0:
192,192,110077,128,0,110199:0:0:0:0:
109,192,110158,128,0,110484:0:0:0:0:
402,192,110158,128,0,110280:0:0:0:0:
475,192,110158,128,0,110280:0:0:0:0:
320,192,110240,128,0,110362:0:0:0:0:
192,192,110321,128,0,110443:0:0:0:0:
36,192,110321,128,0,110443:0:0:0:0:
320,192,110403,128,0,110525:0:0:0:0:
402,192,110484,128,0,110810:0:0:0:0:
192,192,110484,128,0,110606:0:0:0:0:
475,192,110484,128,0,110606:0:0:0:0:
256,192,110566,128,0,110688:0:0:0:0:
329,192,110647,128,0,110769:0:0:0:0:
256,192,110729,128,0,110851:0:0:0:0:
36,192,110810,128,0,111136:0:0:0:0:
182,192,110810,128,0,110892:0:0:0:0:
475,192,110810,128,0,110892:0:0:0:0:
256,192,110892,128,0,110973:0:0:0:0:
402,192,110973,128,0,111055:0:0:0:0:
109,192,110973,128,0,111055:0:0:0:0:
182,192,111055,128,0,111136:0:0:0:0:
256,192,111136,128,0,111462:0:0:0:0:
109,192,111136,128,0,111218:0:0:0:0:
402,192,111136,128,0,111218:0:0:0:0:
475,192,111136,128,0,111218:0:0:0:0:
320,192,111218,128,0,111299:0:0:0:0:
36,192,111299,128,0,111381:0:0:0:0:
192,192,111299,128,0,111381:0:0:0:0:
320,192,111381,128,0,111462:0:0:0:0:
475,192,111462,128,0,111625:0:0:0:0:
402,192,111462,128,0,111544:0:0:0:0:
109,192,111462,128,0,111544:0:0:0:0:
192,192,111544,128,0,111625:0:0:0:0:
36,192,111625,128,0,111788:0:0:0:0:
402,192,111625,128,0,111707:0:0:0:0:
320,192,111707,128,0,111788:0:0:0:0:
256,192,111788,128,0,111870:0:0:0:0:
402,192,111788,128,0,111870:0:0:0:0:
109,192,111788,128,0,111870:0:0:0:0:
192,192,111788,128,0,111870:0:0:0:0:
329,192,111952,128,0,112033:0:0:0:0:
475,192,111952,128,0,112033:0:0:0:0:
192,192,111952,128,0,112033:0:0:0:0:
109,192,111952,128,0,112033:0:0:0:0:
402,192,112115,128,0,112196:0:0:0:0:
256,192,112115,128,0,112196:0:0:0:0:
109,192,112115,128,0,112196:0:0:0:0:
192,192,112115,128,0,112196:0:0:0:0:
320,192,112278,128,0,112604:0:0:0:0:
36,192,112278,128,0,112359:0:0:0:0:
109,192,112278,1,0,0:0:0:0:
475,192,112278,128,0,112359:0:0:0:0:
192,192,112278,1,0,0:0:0:0:
109,192,112604,1,0,0:0:0:0:
402,192,112604,1,0,0:0:0:0:
475,192,112604,1,0,0:0:0:0:
36,192,112604,1,0,0:0:0:0:
192,192,112685,1,0,0:0:0:0:
320,192,112767,1,0,0:0:0:0:
256,192,112767,1,0,0:0:0:0:
475,192,112767,1,0,0:0:0:0:
36,192,112767,1,0,0:0:0:0:
109,192,112848,1,0,0:0:0:0:
320,192,112930,1,0,0:0:0:0:
402,192,112930,1,0,0:0:0:0:
256,192,112930,1,0,0:0:0:0:
192,192,113011,1,0,0:0:0:0:
475,192,113093,128,0,113256:0:0:0:0:
329,192,113093,128,0,113174:0:0:0:0:
109,192,113093,128,0,113174:0:0:0:0:
36,192,113093,128,0,113174:0:0:0:0:
402,192,113174,128,0,113256:0:0:0:0:
256,192,113174,128,0,113337:0:0:0:0:
182,192,113256,128,0,113337:0:0:0:0:
36,192,113256,128,0,113419:0:0:0:0:
402,192,113337,128,0,113500:0:0:0:0:
109,192,113337,128,0,113419:0:0:0:0:
475,192,113419,128,0,113500:0:0:0:0:
256,192,113419,128,0,113582:0:0:0:0:
109,192,113500,128,0,113663:0:0:0:0:
36,192,113500,128,0,113582:0:0:0:0:
329,192,113582,128,0,113745:0:0:0:0:
402,192,113582,128,0,113663:0:0:0:0:
256,192,113663,128,0,113827:0:0:0:0:
36,192,113663,128,0,113745:0:0:0:0:
182,192,113745,128,0,113908:0:0:0:0:
475,192,113745,128,0,113827:0:0:0:0:
402,192,113827,128,0,113990:0:0:0:0:
109,192,113827,128,0,113908:0:0:0:0:
329,192,113908,128,0,113990:0:0:0:0:
256,192,113908,128,0,114071:0:0:0:0:
36,192,113990,128,0,114071:0:0:0:0:
109,192,113990,128,0,114153:0:0:0:0:
475,192,114071,128,0,114153:0:0:0:0:
329,192,114071,128,0,114153:0:0:0:0:
402,192,114153,128,0,114234:0:0:0:0:
256,192,114153,128,0,114234:0:0:0:0:
182,192,114234,128,0,114316:0:0:0:0:
109,192,114234,128,0,114316:0:0:0:0:
329,192,114316,128,0,114397:0:0:0:0:
402,192,114316,128,0,114397:0:0:0:0:
36,192,114397,128,0,114560:0:0:0:0:
475,192,114397,128,0,114479:0:0:0:0:
182,192,114397,128,0,114479:0:0:0:0:
256,192,114397,128,0,114642:0:0:0:0:
109,192,114479,128,0,114560:0:0:0:0:
402,192,114479,128,0,114560:0:0:0:0:
475,192,114560,128,0,114723:0:0:0:0:
329,192,114560,128,0,114642:0:0:0:0:
402,192,114642,128,0,114723:0:0:0:0:
182,192,114642,128,0,114805:0:0:0:0:
36,192,114723,128,0,114805:0:0:0:0:
256,192,114723,128,0,114968:0:0:0:0:
475,192,114805,128,0,114886:0:0:0:0:
329,192,114805,128,0,114968:0:0:0:0:
109,192,114886,128,0,114968:0:0:0:0:
182,192,114886,128,0,115049:0:0:0:0:
402,192,114968,128,0,115049:0:0:0:0:
256,192,115049,128,0,115294:0:0:0:0:
36,192,115049,128,0,115131:0:0:0:0:
329,192,115049,128,0,115212:0:0:0:0:
109,192,115131,128,0,115294:0:0:0:0:
475,192,115131,128,0,115212:0:0:0:0:
182,192,115212,128,0,115294:0:0:0:0:
402,192,115294,128,0,115375:0:0:0:0:
329,192,115294,128,0,115457:0:0:0:0:
36,192,115375,128,0,115620:0:0:0:0:
182,192,115375,128,0,115538:0:0:0:0:
256,192,115375,128,0,115620:0:0:0:0:
109,192,115457,128,0,115538:0:0:0:0:
475,192,115457,128,0,115702:0:0:0:0:
402,192,115538,128,0,115620:0:0:0:0:
329,192,115538,128,0,115620:0:0:0:0:
109,192,115620,128,0,115702:0:0:0:0:
182,192,115620,128,0,115702:0:0:0:0:
36,192,115702,128,0,115783:0:0:0:0:
329,192,115702,128,0,115946:0:0:0:0:
182,192,115783,128,0,115865:0:0:0:0:
256,192,115783,128,0,115865:0:0:0:0:
36,192,115865,1,0,0:0:0:0:
109,192,115865,1,0,0:0:0:0:
402,192,115865,128,0,115946:0:0:0:0:
475,192,115865,128,0,116028:0:0:0:0:
182,192,115946,1,0,0:0:0:0:
256,192,115946,1,0,0:0:0:0:
329,192,116028,1,0,0:0:0:0:
402,192,116028,1,0,0:0:0:0:
36,192,116028,128,0,116109:0:0:0:0:
109,192,116028,128,0,116272:0:0:0:0:
256,192,116109,128,0,116191:0:0:0:0:
182,192,116109,128,0,116272:0:0:0:0:
475,192,116191,1,0,0:0:0:0:
402,192,116191,1,0,0:0:0:0:
36,192,116191,128,0,116354:0:0:0:0:
329,192,116272,1,0,0:0:0:0:
256,192,116272,1,0,0:0:0:0:
182,192,116354,1,0,0:0:0:0:
109,192,116354,1,0,0:0:0:0:
475,192,116354,128,0,116435:0:0:0:0:
402,192,116354,128,0,116517:0:0:0:0:
256,192,116435,1,0,0:0:0:0:
36,192,116435,128,0,116517:0:0:0:0:
329,192,116517,1,0,0:0:0:0:
109,192,116517,128,0,116598:0:0:0:0:
256,192,116598,1,0,0:0:0:0:
182,192,116598,128,0,116680:0:0:0:0:
402,192,116598,128,0,116680:0:0:0:0:
475,192,116680,1,0,0:0:0:0:
109,192,116680,128,0,116761:0:0:0:0:
402,192,116721,1,0,0:0:0:0:
329,192,116761,1,0,0:0:0:0:
36,192,116802,1,0,0:0:0:0:
256,192,116802,1,0,0:0:0:0:
109,192,116843,1,0,0:0:0:0:
182,192,116884,1,0,0:0:0:0:
475,192,116924,1,0,0:0:0:0:
256,192,116924,1,0,0:0:0:0:
402,192,116965,1,0,0:0:0:0:
329,192,117006,1,0,0:0:0:0:
36,192,117006,1,0,0:0:0:0:
109,192,117006,1,0,0:0:0:0:
182,192,117006,1,0,0:0:0:0:
109,192,117169,1,0,0:0:0:0:
182,192,117169,1,0,0:0:0:0:
256,192,117169,1,0,0:0:0:0:
402,192,117169,1,0,0:0:0:0:
182,192,117332,1,0,0:0:0:0:
256,192,117332,1,0,0:0:0:0:
329,192,117332,1,0,0:0:0:0:
475,192,117332,1,0,0:0:0:0:
109,192,117495,1,0,0:0:0:0:
36,192,117495,1,0,0:0:0:0:
256,192,117495,1,0,0:0:0:0:
402,192,117495,1,0,0:0:0:0:
329,192,117495,1,0,0:0:0:0:
182,192,117495,1,0,0:0:0:0:
256,192,117740,1,0,0:0:0:0:
182,192,117740,1,0,0:0:0:0:
475,192,117740,1,0,0:0:0:0:
109,192,117740,1,0,0:0:0:0:
329,192,117740,1,0,0:0:0:0:
402,192,117740,1,0,0:0:0:0:
182,192,117984,1,0,0:0:0:0:
109,192,117984,1,0,0:0:0:0:
36,192,117984,1,0,0:0:0:0:
329,192,118066,1,0,0:0:0:0:
475,192,118066,1,0,0:0:0:0:
402,192,118066,1,0,0:0:0:0:
182,192,118147,1,0,0:0:0:0:
109,192,118147,1,0,0:0:0:0:
36,192,118147,1,0,0:0:0:0:
329,192,118229,1,0,0:0:0:0:
475,192,118229,1,0,0:0:0:0:
402,192,118229,1,0,0:0:0:0:
182,192,118310,128,0,118636:0:0:0:0:
36,192,118310,128,0,118392:0:0:0:0:
256,192,118310,128,0,118392:0:0:0:0:
109,192,118310,1,0,0:0:0:0:
475,192,118392,128,0,118473:0:0:0:0:
329,192,118392,128,0,118473:0:0:0:0:
109,192,118473,128,0,118555:0:0:0:0:
402,192,118473,128,0,118555:0:0:0:0:
329,192,118555,128,0,118636:0:0:0:0:
36,192,118555,128,0,118636:0:0:0:0:
402,192,118636,128,0,118962:0:0:0:0:
109,192,118636,128,0,118718:0:0:0:0:
256,192,118636,128,0,118718:0:0:0:0:
475,192,118636,1,0,0:0:0:0:
182,192,118718,128,0,118799:0:0:0:0:
329,192,118718,128,0,118799:0:0:0:0:
256,192,118799,128,0,118881:0:0:0:0:
109,192,118799,128,0,118881:0:0:0:0:
36,192,118881,128,0,118962:0:0:0:0:
329,192,118881,128,0,118962:0:0:0:0:
109,192,118962,128,0,119288:0:0:0:0:
182,192,118962,128,0,119044:0:0:0:0:
475,192,118962,128,0,119044:0:0:0:0:
256,192,118962,1,0,0:0:0:0:
329,192,119044,128,0,119125:0:0:0:0:
402,192,119044,128,0,119125:0:0:0:0:
256,192,119125,128,0,119207:0:0:0:0:
182,192,119125,128,0,119207:0:0:0:0:
475,192,119207,128,0,119288:0:0:0:0:
402,192,119207,128,0,119288:0:0:0:0:
256,192,119288,128,0,119615:0:0:0:0:
329,192,119288,128,0,119370:0:0:0:0:
36,192,119288,1,0,0:0:0:0:
182,192,119288,128,0,119370:0:0:0:0:
109,192,119370,128,0,119452:0:0:0:0:
475,192,119370,128,0,119452:0:0:0:0:
182,192,119452,128,0,119533:0:0:0:0:
402,192,119452,128,0,119533:0:0:0:0:
109,192,119533,128,0,119615:0:0:0:0:
329,192,119533,128,0,119615:0:0:0:0:
36,192,119615,128,0,119941:0:0:0:0:
475,192,119615,128,0,119737:0:0:0:0:
402,192,119615,128,0,119737:0:0:0:0:
182,192,119615,128,0,119737:0:0:0:0:
256,192,119696,128,0,119737:0:0:0:0:
109,192,119696,128,0,119737:0:0:0:0:
329,192,119778,128,0,119900:0:0:0:0:
402,192,119778,128,0,119900:0:0:0:0:
475,192,119778,128,0,119900:0:0:0:0:
109,192,119859,128,0,119900:0:0:0:0:
182,192,119859,128,0,119900:0:0:0:0:
475,192,119941,128,0,120267:0:0:0:0:
256,192,119941,128,0,120063:0:0:0:0:
329,192,119941,128,0,120063:0:0:0:0:
402,192,119941,128,0,120063:0:0:0:0:
36,192,120022,128,0,120063:0:0:0:0:
109,192,120022,128,0,120063:0:0:0:0:
182,192,120104,128,0,120226:0:0:0:0:
256,192,120104,128,0,120226:0:0:0:0:
329,192,120104,128,0,120226:0:0:0:0:
36,192,120185,128,0,120226:0:0:0:0:
402,192,120185,128,0,120226:0:0:0:0:
182,192,120267,128,0,120552:0:0:0:0:
109,192,120267,1,0,0:0:0:0:
329,192,120267,1,0,0:0:0:0:
256,192,120348,1,0,0:0:0:0:
475,192,120430,128,0,120552:0:0:0:0:
402,192,120430,128,0,120552:0:0:0:0:
36,192,120430,128,0,120552:0:0:0:0:
109,192,120430,128,0,120552:0:0:0:0:
329,192,120511,128,0,120552:0:0:0:0:
256,192,120593,128,0,120878:0:0:0:0:
109,192,120593,128,0,120715:0:0:0:0:
475,192,120593,128,0,120715:0:0:0:0:
402,192,120593,128,0,120715:0:0:0:0:
36,192,120593,128,0,120715:0:0:0:0:
329,192,120634,128,0,120756:0:0:0:0:
182,192,120674,128,0,120715:0:0:0:0:
109,192,120756,128,0,120878:0:0:0:0:
36,192,120756,128,0,120878:0:0:0:0:
402,192,120756,128,0,120878:0:0:0:0:
475,192,120756,128,0,120797:0:0:0:0:
329,192,120837,128,0,120878:0:0:0:0:
109,192,120919,128,0,121327:0:0:0:0:
256,192,120919,1,0,0:0:0:0:
475,192,120919,1,0,0:0:0:0:
402,192,120919,1,0,0:0:0:0:
182,192,121000,128,0,121245:0:0:0:0:
329,192,121000,1,0,0:0:0:0:
256,192,121082,128,0,121163:0:0:0:0:
402,192,121082,1,0,0:0:0:0:
475,192,121082,128,0,121245:0:0:0:0:
329,192,121163,1,0,0:0:0:0:
256,192,121245,1,0,0:0:0:0:
402,192,121245,128,0,121653:0:0:0:0:
36,192,121245,1,0,0:0:0:0:
182,192,121327,1,0,0:0:0:0:
329,192,121327,128,0,121571:0:0:0:0:
256,192,121408,128,0,121490:0:0:0:0:
109,192,121408,1,0,0:0:0:0:
36,192,121408,128,0,121571:0:0:0:0:
182,192,121490,1,0,0:0:0:0:
256,192,121571,1,0,0:0:0:0:
109,192,121571,128,0,121979:0:0:0:0:
475,192,121571,1,0,0:0:0:0:
329,192,121653,1,0,0:0:0:0:
182,192,121653,128,0,121897:0:0:0:0:
402,192,121734,1,0,0:0:0:0:
256,192,121734,128,0,121816:0:0:0:0:
475,192,121734,128,0,121897:0:0:0:0:
329,192,121816,1,0,0:0:0:0:
256,192,121897,1,0,0:0:0:0:
402,192,121897,128,0,122223:0:0:0:0:
36,192,121897,1,0,0:0:0:0:
182,192,121979,1,0,0:0:0:0:
329,192,121979,128,0,122223:0:0:0:0:
109,192,122060,1,0,0:0:0:0:
256,192,122060,128,0,122142:0:0:0:0:
36,192,122060,128,0,122223:0:0:0:0:
182,192,122142,1,0,0:0:0:0:
256,192,122223,1,0,0:0:0:0:
109,192,122223,1,0,0:0:0:0:
475,192,122223,128,0,122386:0:0:0:0:
182,192,122386,1,0,0:0:0:0:
329,192,122386,1,0,0:0:0:0:
402,192,122386,1,0,0:0:0:0:
36,192,122386,1,0,0:0:0:0:
256,192,122386,1,0,0:0:0:0:
109,192,122386,128,0,122549:0:0:0:0:
402,192,122549,128,0,122712:0:0:0:0:
36,192,122549,1,0,0:0:0:0:
182,192,122549,1,0,0:0:0:0:
329,192,122549,1,0,0:0:0:0:
256,192,122549,1,0,0:0:0:0:
475,192,122549,1,0,0:0:0:0:
182,192,122712,128,0,123038:0:0:0:0:
475,192,122712,1,0,0:0:0:0:
329,192,122712,1,0,0:0:0:0:
256,192,122712,1,0,0:0:0:0:
109,192,122712,1,0,0:0:0:0:
36,192,122712,1,0,0:0:0:0:
256,192,123038,1,0,0:0:0:0:
329,192,123038,1,0,0:0:0:0:
402,192,123038,1,0,0:0:0:0:
475,192,123038,1,0,0:0:0:0:
36,192,123120,1,0,0:0:0:0:
109,192,123120,1,0,0:0:0:0:
182,192,123202,1,0,0:0:0:0:
256,192,123202,1,0,0:0:0:0:
329,192,123202,1,0,0:0:0:0:
402,192,123202,1,0,0:0:0:0:
475,192,123283,1,0,0:0:0:0:
36,192,123283,1,0,0:0:0:0:
109,192,123365,1,0,0:0:0:0:
182,192,123365,1,0,0:0:0:0:
256,192,123365,1,0,0:0:0:0:
329,192,123365,1,0,0:0:0:0:
475,192,123446,1,0,0:0:0:0:
402,192,123446,1,0,0:0:0:0:
109,192,123528,1,0,0:0:0:0:
182,192,123528,1,0,0:0:0:0:
256,192,123528,1,0,0:0:0:0:
36,192,123528,128,0,123854:0:0:0:0:
329,192,123568,1,0,0:0:0:0:
402,192,123609,1,0,0:0:0:0:
475,192,123650,1,0,0:0:0:0:
182,192,123691,1,0,0:0:0:0:
256,192,123731,1,0,0:0:0:0:
329,192,123772,1,0,0:0:0:0:
402,192,123813,1,0,0:0:0:0:
475,192,123854,128,0,124180:0:0:0:0:
109,192,123854,1,0,0:0:0:0:
182,192,123894,1,0,0:0:0:0:
256,192,123935,1,0,0:0:0:0:
329,192,123976,1,0,0:0:0:0:
402,192,124017,1,0,0:0:0:0:
256,192,124058,1,0,0:0:0:0:
182,192,124098,1,0,0:0:0:0:
109,192,124139,1,0,0:0:0:0:
36,192,124180,128,0,124506:0:0:0:0:
329,192,124180,1,0,0:0:0:0:
256,192,124221,1,0,0:0:0:0:
182,192,124261,1,0,0:0:0:0:
402,192,124302,1,0,0:0:0:0:
329,192,124343,1,0,0:0:0:0:
109,192,124343,1,0,0:0:0:0:
256,192,124384,1,0,0:0:0:0:
475,192,124424,1,0,0:0:0:0:
402,192,124465,1,0,0:0:0:0:
256,192,124506,128,0,124832:0:0:0:0:
329,192,124506,1,0,0:0:0:0:
182,192,124547,1,0,0:0:0:0:
109,192,124587,1,0,0:0:0:0:
36,192,124628,1,0,0:0:0:0:
329,192,124669,1,0,0:0:0:0:
402,192,124710,1,0,0:0:0:0:
475,192,124750,1,0,0:0:0:0:
36,192,124791,1,0,0:0:0:0:
402,192,124832,128,0,125158:0:0:0:0:
109,192,124832,1,0,0:0:0:0:
182,192,124873,1,0,0:0:0:0:
256,192,124913,1,0,0:0:0:0:
329,192,124954,1,0,0:0:0:0:
182,192,124995,1,0,0:0:0:0:
475,192,124995,1,0,0:0:0:0:
109,192,125036,1,0,0:0:0:0:
36,192,125077,1,0,0:0:0:0:
329,192,125117,1,0,0:0:0:0:
109,192,125158,128,0,125484:0:0:0:0:
256,192,125158,1,0,0:0:0:0:
182,192,125199,1,0,0:0:0:0:
475,192,125240,1,0,0:0:0:0:
402,192,125280,1,0,0:0:0:0:
329,192,125321,1,0,0:0:0:0:
36,192,125321,1,0,0:0:0:0:
256,192,125362,1,0,0:0:0:0:
475,192,125403,1,0,0:0:0:0:
402,192,125443,1,0,0:0:0:0:
36,192,125484,128,0,125810:0:0:0:0:
329,192,125484,1,0,0:0:0:0:
182,192,125525,1,0,0:0:0:0:
256,192,125566,1,0,0:0:0:0:
329,192,125606,1,0,0:0:0:0:
402,192,125647,1,0,0:0:0:0:
475,192,125647,1,0,0:0:0:0:
109,192,125688,1,0,0:0:0:0:
182,192,125729,1,0,0:0:0:0:
256,192,125769,1,0,0:0:0:0:
475,192,125810,128,0,126136:0:0:0:0:
329,192,125810,1,0,0:0:0:0:
402,192,125810,1,0,0:0:0:0:
109,192,125810,1,0,0:0:0:0:
329,192,125973,1,0,0:0:0:0:
109,192,125973,1,0,0:0:0:0:
182,192,126055,1,0,0:0:0:0:
256,192,126055,1,0,0:0:0:0:
329,192,126136,1,0,0:0:0:0:
36,192,126136,1,0,0:0:0:0:
109,192,126136,1,0,0:0:0:0:
402,192,126136,1,0,0:0:0:0:
256,192,126218,1,0,0:0:0:0:
182,192,126218,1,0,0:0:0:0:
402,192,126299,1,0,0:0:0:0:
329,192,126299,1,0,0:0:0:0:
109,192,126299,1,0,0:0:0:0:
36,192,126299,1,0,0:0:0:0:
256,192,126381,1,0,0:0:0:0:
182,192,126381,1,0,0:0:0:0:
329,192,126462,128,0,126707:0:0:0:0:
475,192,126462,128,0,126707:0:0:0:0:
402,192,126462,128,0,126707:0:0:0:0:
109,192,126462,128,0,126707:0:0:0:0:
36,192,126462,128,0,126707:0:0:0:0:
402,192,126788,1,0,0:0:0:0:
109,192,126788,1,0,0:0:0:0:
475,192,126788,1,0,0:0:0:0:
182,192,126788,1,0,0:0:0:0:
256,192,126870,1,0,0:0:0:0:
329,192,126870,1,0,0:0:0:0:
109,192,126952,1,0,0:0:0:0:
475,192,126952,1,0,0:0:0:0:
182,192,126952,1,0,0:0:0:0:
402,192,126952,1,0,0:0:0:0:
329,192,127033,1,0,0:0:0:0:
256,192,127033,1,0,0:0:0:0:
475,192,127115,128,0,127359:0:0:0:0:
36,192,127115,128,0,127359:0:0:0:0:
402,192,127115,128,0,127359:0:0:0:0:
182,192,127115,128,0,127359:0:0:0:0:
109,192,127115,128,0,127359:0:0:0:0:
36,192,127441,128,0,127522:0:0:0:0:
109,192,127441,128,0,127522:0:0:0:0:
182,192,127441,128,0,127522:0:0:0:0:
256,192,127441,128,0,127522:0:0:0:0:
475,192,127441,128,0,127685:0:0:0:0:
402,192,127441,128,0,127522:0:0:0:0:
109,192,127604,128,0,127685:0:0:0:0:
182,192,127604,128,0,127685:0:0:0:0:
256,192,127604,128,0,127685:0:0:0:0:
329,192,127604,128,0,127685:0:0:0:0:
36,192,127604,128,0,127848:0:0:0:0:
182,192,127767,128,0,127930:0:0:0:0:
256,192,127767,128,0,127848:0:0:0:0:
329,192,127767,128,0,127848:0:0:0:0:
402,192,127767,128,0,127848:0:0:0:0:
109,192,127767,128,0,127848:0:0:0:0:
256,192,127930,128,0,128256:0:0:0:0:
329,192,127930,128,0,128256:0:0:0:0:
402,192,127930,128,0,128256:0:0:0:0:
475,192,127930,128,0,128256:0:0:0:0:
36,192,128256,128,0,128378:0:0:0:0:
109,192,128256,128,0,128378:0:0:0:0:
182,192,128256,128,0,128378:0:0:0:0:
329,192,128337,128,0,128419:0:0:0:0:
109,192,128419,128,0,128541:0:0:0:0:
402,192,128419,128,0,128541:0:0:0:0:
256,192,128419,128,0,128541:0:0:0:0:
475,192,128419,128,0,128541:0:0:0:0:
182,192,128500,128,0,128582:0:0:0:0:
475,192,128582,128,0,128704:0:0:0:0:
256,192,128582,128,0,128704:0:0:0:0:
329,192,128582,128,0,128704:0:0:0:0:
36,192,128582,128,0,128704:0:0:0:0:
109,192,128582,128,0,128704:0:0:0:0:
475,192,128745,128,0,129153:0:0:0:0:
36,192,128745,128,0,128990:0:0:0:0:
402,192,128745,128,0,128827:0:0:0:0:
182,192,128745,128,0,128908:0:0:0:0:
329,192,128745,128,0,128827:0:0:0:0:
256,192,128827,128,0,128990:0:0:0:0:
109,192,128908,128,0,129316:0:0:0:0:
402,192,128908,128,0,129153:0:0:0:0:
329,192,128908,128,0,128990:0:0:0:0:
182,192,128990,128,0,129071:0:0:0:0:
36,192,129071,128,0,129316:0:0:0:0:
256,192,129071,128,0,129153:0:0:0:0:
329,192,129071,128,0,129234:0:0:0:0:
182,192,129153,128,0,129397:0:0:0:0:
256,192,129234,128,0,129479:0:0:0:0:
402,192,129234,128,0,129316:0:0:0:0:
475,192,129234,128,0,129479:0:0:0:0:
329,192,129316,128,0,129560:0:0:0:0:
402,192,129397,128,0,129642:0:0:0:0:
36,192,129397,128,0,129479:0:0:0:0:
109,192,129397,128,0,129642:0:0:0:0:
182,192,129479,128,0,129642:0:0:0:0:
256,192,129560,128,0,129805:0:0:0:0:
36,192,129560,128,0,129805:0:0:0:0:
475,192,129560,128,0,129805:0:0:0:0:
329,192,129642,128,0,129723:0:0:0:0:
109,192,129723,128,0,129968:0:0:0:0:
182,192,129723,128,0,130049:0:0:0:0:
402,192,129723,128,0,129968:0:0:0:0:
329,192,129805,128,0,129886:0:0:0:0:
36,192,129886,128,0,129968:0:0:0:0:
256,192,129886,128,0,130131:0:0:0:0:
475,192,129886,128,0,129968:0:0:0:0:
329,192,129968,128,0,130131:0:0:0:0:
109,192,130049,128,0,130294:0:0:0:0:
475,192,130049,128,0,130131:0:0:0:0:
402,192,130049,128,0,130294:0:0:0:0:
36,192,130049,128,0,130131:0:0:0:0:
182,192,130131,128,0,130212:0:0:0:0:
36,192,130212,128,0,130294:0:0:0:0:
475,192,130212,128,0,130457:0:0:0:0:
256,192,130212,128,0,130375:0:0:0:0:
329,192,130212,128,0,130294:0:0:0:0:
182,192,130294,128,0,130457:0:0:0:0:
109,192,130375,128,0,130620:0:0:0:0:
402,192,130375,128,0,130620:0:0:0:0:
329,192,130375,128,0,130538:0:0:0:0:
36,192,130375,128,0,130457:0:0:0:0:
256,192,130457,128,0,130702:0:0:0:0:
475,192,130538,128,0,130946:0:0:0:0:
36,192,130538,128,0,130783:0:0:0:0:
182,192,130538,128,0,130620:0:0:0:0:
329,192,130620,128,0,130783:0:0:0:0:
402,192,130702,128,0,130783:0:0:0:0:
109,192,130702,128,0,130946:0:0:0:0:
182,192,130702,128,0,130783:0:0:0:0:
256,192,130783,128,0,130865:0:0:0:0:
329,192,130865,128,0,130946:0:0:0:0:
402,192,130865,128,0,130946:0:0:0:0:
36,192,130865,128,0,130946:0:0:0:0:
182,192,130865,128,0,130946:0:0:0:0:
475,192,131028,128,0,131109:0:0:0:0:
402,192,131028,128,0,131109:0:0:0:0:
36,192,131028,128,0,131109:0:0:0:0:
109,192,131028,128,0,131109:0:0:0:0:
256,192,131028,128,0,131109:0:0:0:0:
329,192,131028,128,0,131109:0:0:0:0:
36,192,131191,128,0,131272:0:0:0:0:
109,192,131191,128,0,131272:0:0:0:0:
182,192,131191,128,0,131272:0:0:0:0:
256,192,131191,128,0,131272:0:0:0:0:
402,192,131191,128,0,131272:0:0:0:0:
475,192,131191,128,0,131272:0:0:0:0:
256,192,131354,128,0,131394:0:0:0:0:
475,192,131354,128,0,131394:0:0:0:0:
402,192,131354,128,0,131394:0:0:0:0:
36,192,131354,128,0,131924:0:0:0:0:
109,192,131435,128,0,131680:0:0:0:0:
329,192,131435,128,0,131476:0:0:0:0:
182,192,131517,128,0,131598:0:0:0:0:
402,192,131517,128,0,131558:0:0:0:0:
329,192,131598,128,0,131639:0:0:0:0:
256,192,131680,128,0,131721:0:0:0:0:
475,192,131680,128,0,131924:0:0:0:0:
402,192,131761,128,0,132006:0:0:0:0:
182,192,131761,128,0,131802:0:0:0:0:
329,192,131843,128,0,131924:0:0:0:0:
109,192,131843,128,0,131884:0:0:0:0:
182,192,131924,128,0,131965:0:0:0:0:
109,192,132006,128,0,132413:0:0:0:0:
256,192,132006,128,0,132047:0:0:0:0:
36,192,132006,128,0,132577:0:0:0:0:
475,192,132006,128,0,132577:0:0:0:0:
182,192,132087,128,0,132332:0:0:0:0:
329,192,132087,128,0,132128:0:0:0:0:
256,192,132169,128,0,132250:0:0:0:0:
402,192,132169,128,0,132210:0:0:0:0:
329,192,132250,128,0,132291:0:0:0:0:
402,192,132332,128,0,132577:0:0:0:0:
256,192,132332,128,0,132373:0:0:0:0:
329,192,132413,128,0,132658:0:0:0:0:
182,192,132413,128,0,132454:0:0:0:0:
256,192,132495,128,0,132577:0:0:0:0:
109,192,132495,128,0,132536:0:0:0:0:
182,192,132577,1,0,0:0:0:0:
402,192,132658,128,0,132740:0:0:0:0:
475,192,132658,128,0,132740:0:0:0:0:
256,192,132658,128,0,132821:0:0:0:0:
36,192,132658,128,0,132740:0:0:0:0:
182,192,132740,128,0,132821:0:0:0:0:
109,192,132740,128,0,132903:0:0:0:0:
36,192,132821,128,0,132903:0:0:0:0:
329,192,132821,128,0,132984:0:0:0:0:
402,192,132821,128,0,132903:0:0:0:0:
475,192,132821,128,0,132903:0:0:0:0:
256,192,132903,128,0,132984:0:0:0:0:
182,192,132903,128,0,133066:0:0:0:0:
109,192,132984,128,0,133066:0:0:0:0:
36,192,132984,128,0,133066:0:0:0:0:
402,192,132984,128,0,133066:0:0:0:0:
475,192,132984,128,0,133066:0:0:0:0:
329,192,133066,128,0,133147:0:0:0:0:
256,192,133066,128,0,133147:0:0:0:0:
182,192,133147,128,0,133473:0:0:0:0:
36,192,133147,128,0,133473:0:0:0:0:
475,192,133147,128,0,133473:0:0:0:0:
402,192,133473,1,0,0:0:0:0:
329,192,133473,1,0,0:0:0:0:
256,192,133473,1,0,0:0:0:0:
182,192,133555,1,0,0:0:0:0:
36,192,133555,1,0,0:0:0:0:
109,192,133555,1,0,0:0:0:0:
475,192,133636,1,0,0:0:0:0:
402,192,133636,1,0,0:0:0:0:
329,192,133636,1,0,0:0:0:0:
256,192,133718,1,0,0:0:0:0:
109,192,133718,1,0,0:0:0:0:
182,192,133718,1,0,0:0:0:0:
329,192,133799,1,0,0:0:0:0:
475,192,133799,1,0,0:0:0:0:
402,192,133799,1,0,0:0:0:0:
182,192,133881,1,0,0:0:0:0:
109,192,133881,1,0,0:0:0:0:
36,192,133881,1,0,0:0:0:0:
475,192,133962,128,0,134533:0:0:0:0:
256,192,133962,128,0,134085:0:0:0:0:
329,192,133962,128,0,134044:0:0:0:0:
402,192,133962,128,0,134207:0:0:0:0:
182,192,134003,128,0,134125:0:0:0:0:
109,192,134044,128,0,134166:0:0:0:0:
36,192,134085,128,0,134207:0:0:0:0:
329,192,134125,128,0,134248:0:0:0:0:
256,192,134166,128,0,134288:0:0:0:0:
182,192,134207,128,0,134329:0:0:0:0:
109,192,134248,128,0,134370:0:0:0:0:
36,192,134288,128,0,134615:0:0:0:0:
402,192,134288,128,0,134492:0:0:0:0:
329,192,134329,128,0,134452:0:0:0:0:
256,192,134370,128,0,134411:0:0:0:0:
182,192,134411,128,0,134533:0:0:0:0:
109,192,134452,128,0,134655:0:0:0:0:
256,192,134492,128,0,134574:0:0:0:0:
329,192,134533,128,0,134615:0:0:0:0:
402,192,134574,128,0,134696:0:0:0:0:
475,192,134615,128,0,134941:0:0:0:0:
182,192,134615,128,0,134696:0:0:0:0:
256,192,134655,128,0,134737:0:0:0:0:
329,192,134696,128,0,134778:0:0:0:0:
109,192,134737,128,0,134818:0:0:0:0:
402,192,134778,128,0,134859:0:0:0:0:
182,192,134778,128,0,134859:0:0:0:0:
256,192,134818,128,0,134900:0:0:0:0:
36,192,134859,128,0,134941:0:0:0:0:
109,192,134900,128,0,134981:0:0:0:0:
256,192,134941,128,0,135267:0:0:0:0:
182,192,134941,128,0,135022:0:0:0:0:
329,192,134981,128,0,135063:0:0:0:0:
402,192,135022,128,0,135104:0:0:0:0:
475,192,135063,128,0,135144:0:0:0:0:
182,192,135104,128,0,135185:0:0:0:0:
109,192,135144,128,0,135226:0:0:0:0:
36,192,135185,128,0,135267:0:0:0:0:
475,192,135226,128,0,135430:0:0:0:0:
109,192,135267,128,0,135634:0:0:0:0:
402,192,135267,128,0,135389:0:0:0:0:
329,192,135308,128,0,135348:0:0:0:0:
256,192,135348,128,0,135511:0:0:0:0:
182,192,135389,128,0,135471:0:0:0:0:
329,192,135430,128,0,135552:0:0:0:0:
36,192,135430,128,0,135511:0:0:0:0:
402,192,135471,128,0,135511:0:0:0:0:
475,192,135511,128,0,135552:0:0:0:0:
182,192,135552,128,0,135674:0:0:0:0:
402,192,135593,128,0,135674:0:0:0:0:
256,192,135593,128,0,135715:0:0:0:0:
329,192,135634,128,0,135756:0:0:0:0:
36,192,135674,128,0,135756:0:0:0:0:
109,192,135715,128,0,135797:0:0:0:0:
475,192,135756,128,0,135837:0:0:0:0:
182,192,135756,128,0,135837:0:0:0:0:
402,192,135756,1,0,0:0:0:0:
256,192,135797,128,0,135878:0:0:0:0:
36,192,135837,128,0,136000:0:0:0:0:
329,192,135837,1,0,0:0:0:0:
109,192,135878,128,0,136000:0:0:0:0:
475,192,135919,128,0,136245:0:0:0:0:
182,192,135919,128,0,135960:0:0:0:0:
402,192,135919,1,0,0:0:0:0:
329,192,135960,128,0,136082:0:0:0:0:
256,192,136000,128,0,136123:0:0:0:0:
182,192,136041,128,0,136163:0:0:0:0:
109,192,136082,128,0,136163:0:0:0:0:
36,192,136082,128,0,136163:0:0:0:0:
402,192,136082,128,0,136163:0:0:0:0:
182,192,136245,128,0,136327:0:0:0:0:
109,192,136245,128,0,136327:0:0:0:0:
256,192,136245,128,0,136327:0:0:0:0:
329,192,136245,128,0,136327:0:0:0:0:
402,192,136245,128,0,136327:0:0:0:0:
36,192,136245,128,0,136327:0:0:0:0:
182,192,136408,128,0,136490:0:0:0:0:
256,192,136408,128,0,136490:0:0:0:0:
329,192,136408,128,0,136490:0:0:0:0:
402,192,136408,128,0,136490:0:0:0:0:
109,192,136408,128,0,136490:0:0:0:0:
475,192,136408,128,0,136490:0:0:0:0:
182,192,136571,1,0,0:0:0:0:
109,192,136571,1,0,0:0:0:0:
256,192,136571,1,0,0:0:0:0:
402,192,136653,1,0,0:0:0:0:
329,192,136653,1,0,0:0:0:0:
182,192,136734,1,0,0:0:0:0:
109,192,136734,1,0,0:0:0:0:
402,192,136816,1,0,0:0:0:0:
329,192,136816,1,0,0:0:0:0:
329,192,136897,128,0,137142:0:0:0:0:
402,192,136897,128,0,137142:0:0:0:0:
182,192,136897,128,0,137142:0:0:0:0:
109,192,136897,128,0,137142:0:0:0:0:
36,192,136897,128,0,137142:0:0:0:0:
256,192,136897,1,0,0:0:0:0:
475,192,137223,1,0,0:0:0:0:
402,192,137223,1,0,0:0:0:0:
109,192,137305,1,0,0:0:0:0:
36,192,137305,1,0,0:0:0:0:
475,192,137386,1,0,0:0:0:0:
402,192,137386,1,0,0:0:0:0:
109,192,137468,1,0,0:0:0:0:
36,192,137468,1,0,0:0:0:0:
329,192,137549,128,0,137794:0:0:0:0:
402,192,137549,128,0,137794:0:0:0:0:
475,192,137549,128,0,137794:0:0:0:0:
36,192,137549,128,0,137794:0:0:0:0:
109,192,137549,128,0,137794:0:0:0:0:
256,192,137549,1,0,0:0:0:0:
402,192,137875,128,0,137957:0:0:0:0:
36,192,137875,128,0,137957:0:0:0:0:
475,192,137875,128,0,137957:0:0:0:0:
182,192,137875,1,0,0:0:0:0:
109,192,137875,128,0,137957:0:0:0:0:
256,192,137875,1,0,0:0:0:0:
329,192,137957,1,0,0:0:0:0:
182,192,138038,1,0,0:0:0:0:
109,192,138038,128,0,138120:0:0:0:0:
36,192,138038,128,0,138120:0:0:0:0:
402,192,138038,128,0,138120:0:0:0:0:
475,192,138038,128,0,138120:0:0:0:0:
256,192,138038,1,0,0:0:0:0:
329,192,138120,1,0,0:0:0:0:
182,192,138202,1,0,0:0:0:0:
36,192,138202,128,0,138283:0:0:0:0:
109,192,138202,128,0,138283:0:0:0:0:
402,192,138202,128,0,138283:0:0:0:0:
475,192,138202,128,0,138283:0:0:0:0:
256,192,138202,1,0,0:0:0:0:
329,192,138283,1,0,0:0:0:0:
182,192,138365,1,0,0:0:0:0:
256,192,138365,1,0,0:0:0:0:
36,192,138365,128,0,138691:0:0:0:0:
109,192,138365,128,0,138691:0:0:0:0:
402,192,138365,128,0,138691:0:0:0:0:
475,192,138365,128,0,138691:0:0:0:0:
182,192,138691,1,0,0:0:0:0:
329,192,138691,1,0,0:0:0:0:
256,192,138772,128,0,138935:0:0:0:0:
402,192,138772,1,0,0:0:0:0:
329,192,138854,128,0,139017:0:0:0:0:
475,192,138854,1,0,0:0:0:0:
109,192,138854,1,0,0:0:0:0:
402,192,138935,128,0,139098:0:0:0:0:
109,192,139017,1,0,0:0:0:0:
475,192,139017,128,0,139180:0:0:0:0:
36,192,139180,1,0,0:0:0:0:
109,192,139180,1,0,0:0:0:0:
256,192,139180,1,0,0:0:0:0:
182,192,139180,1,0,0:0:0:0:
402,192,139180,1,0,0:0:0:0:
329,192,139180,128,0,139506:0:0:0:0:
109,192,139506,1,0,0:0:0:0:
36,192,139506,1,0,0:0:0:0:
475,192,139669,128,0,139832:0:0:0:0:
109,192,139832,1,0,0:0:0:0:
36,192,139832,1,0,0:0:0:0:
475,192,139995,1,0,0:0:0:0:
402,192,139995,1,0,0:0:0:0:
402,192,140077,1,0,0:0:0:0:
475,192,140077,1,0,0:0:0:0:
256,192,140158,128,0,140240:0:0:0:0:
109,192,140158,1,0,0:0:0:0:
36,192,140158,1,0,0:0:0:0:
329,192,140321,128,0,140484:0:0:0:0:
36,192,140484,1,0,0:0:0:0:
109,192,140484,1,0,0:0:0:0:
475,192,140647,1,0,0:0:0:0:
402,192,140647,1,0,0:0:0:0:
402,192,140729,1,0,0:0:0:0:
475,192,140729,1,0,0:0:0:0:
182,192,140810,128,0,140973:0:0:0:0:
109,192,140810,1,0,0:0:0:0:
36,192,140810,1,0,0:0:0:0:
256,192,140973,1,0,0:0:0:0:
329,192,141136,128,0,141218:0:0:0:0:
109,192,141136,1,0,0:0:0:0:
36,192,141136,1,0,0:0:0:0:
36,192,141299,128,0,141462:0:0:0:0:
109,192,141299,128,0,141462:0:0:0:0:
182,192,141299,128,0,141462:0:0:0:0:
256,192,141299,128,0,141462:0:0:0:0:
329,192,141299,128,0,141462:0:0:0:0:
329,192,141544,128,0,141707:0:0:0:0:
182,192,141544,128,0,141707:0:0:0:0:
256,192,141544,128,0,141707:0:0:0:0:
475,192,141544,128,0,141707:0:0:0:0:
402,192,141544,128,0,141707:0:0:0:0:
329,192,141788,128,0,141952:0:0:0:0:
402,192,141788,128,0,141952:0:0:0:0:
256,192,141788,128,0,141952:0:0:0:0:
109,192,141788,128,0,141952:0:0:0:0:
36,192,141788,128,0,141952:0:0:0:0:
475,192,141788,128,0,141952:0:0:0:0:
475,192,142115,1,0,0:0:0:0:
402,192,142115,1,0,0:0:0:0:
36,192,142278,128,0,142359:0:0:0:0:
402,192,142441,1,0,0:0:0:0:
475,192,142441,1,0,0:0:0:0:
36,192,142522,1,0,0:0:0:0:
109,192,142522,1,0,0:0:0:0:
36,192,142604,1,0,0:0:0:0:
109,192,142604,1,0,0:0:0:0:
182,192,142685,1,0,0:0:0:0:
256,192,142685,1,0,0:0:0:0:
475,192,142767,1,0,0:0:0:0:
402,192,142767,1,0,0:0:0:0:
36,192,142767,128,0,142848:0:0:0:0:
256,192,142930,128,0,143093:0:0:0:0:
475,192,143093,1,0,0:0:0:0:
402,192,143093,1,0,0:0:0:0:
182,192,143256,1,0,0:0:0:0:
109,192,143256,1,0,0:0:0:0:
109,192,143337,1,0,0:0:0:0:
182,192,143337,1,0,0:0:0:0:
475,192,143419,1,0,0:0:0:0:
402,192,143419,1,0,0:0:0:0:
36,192,143419,128,0,143582:0:0:0:0:
256,192,143500,1,0,0:0:0:0:
329,192,143582,1,0,0:0:0:0:
182,192,143663,1,0,0:0:0:0:
475,192,143745,1,0,0:0:0:0:
402,192,143745,1,0,0:0:0:0:
109,192,143745,1,0,0:0:0:0:
36,192,143908,128,0,144071:0:0:0:0:
182,192,143908,128,0,144071:0:0:0:0:
109,192,143908,128,0,144071:0:0:0:0:
329,192,143908,128,0,144071:0:0:0:0:
256,192,143908,128,0,144071:0:0:0:0:
256,192,144153,128,0,144316:0:0:0:0:
329,192,144153,128,0,144316:0:0:0:0:
402,192,144153,128,0,144316:0:0:0:0:
475,192,144153,128,0,144316:0:0:0:0:
182,192,144153,128,0,144316:0:0:0:0:
109,192,144397,128,0,144560:0:0:0:0:
182,192,144397,128,0,144560:0:0:0:0:
256,192,144397,128,0,144560:0:0:0:0:
402,192,144397,128,0,144560:0:0:0:0:
329,192,144397,128,0,144560:0:0:0:0:
182,192,144723,1,0,0:0:0:0:
109,192,144723,1,0,0:0:0:0:
329,192,144805,1,0,0:0:0:0:
402,192,144805,1,0,0:0:0:0:
182,192,144886,1,0,0:0:0:0:
109,192,144886,1,0,0:0:0:0:
329,192,144968,1,0,0:0:0:0:
402,192,144968,1,0,0:0:0:0:
182,192,145049,1,0,0:0:0:0:
109,192,145049,1,0,0:0:0:0:
329,192,145131,1,0,0:0:0:0:
402,192,145131,1,0,0:0:0:0:
182,192,145212,1,0,0:0:0:0:
109,192,145212,1,0,0:0:0:0:
329,192,145294,1,0,0:0:0:0:
402,192,145294,1,0,0:0:0:0:
182,192,145375,1,0,0:0:0:0:
109,192,145375,1,0,0:0:0:0:
329,192,145457,1,0,0:0:0:0:
402,192,145457,1,0,0:0:0:0:
182,192,145538,1,0,0:0:0:0:
109,192,145538,1,0,0:0:0:0:
329,192,145620,1,0,0:0:0:0:
402,192,145620,1,0,0:0:0:0:
329,192,145702,128,0,145946:0:0:0:0:
402,192,145702,128,0,145946:0:0:0:0:
475,192,145702,128,0,145946:0:0:0:0:
182,192,145702,128,0,145946:0:0:0:0:
109,192,145702,128,0,145946:0:0:0:0:
36,192,145702,128,0,145946:0:0:0:0:
256,192,145702,128,0,145946:0:0:0:0:
36,192,146028,1,0,0:0:0:0:
109,192,146028,1,0,0:0:0:0:
182,192,146028,1,0,0:0:0:0:
329,192,146109,1,0,0:0:0:0:
402,192,146109,1,0,0:0:0:0:
475,192,146109,1,0,0:0:0:0:
109,192,146191,1,0,0:0:0:0:
182,192,146191,1,0,0:0:0:0:
36,192,146191,1,0,0:0:0:0:
475,192,146272,1,0,0:0:0:0:
329,192,146272,1,0,0:0:0:0:
402,192,146272,1,0,0:0:0:0:
36,192,146354,1,0,0:0:0:0:
182,192,146354,1,0,0:0:0:0:
109,192,146354,1,0,0:0:0:0:
402,192,146435,1,0,0:0:0:0:
329,192,146435,1,0,0:0:0:0:
475,192,146435,1,0,0:0:0:0:
109,192,146517,1,0,0:0:0:0:
182,192,146517,1,0,0:0:0:0:
36,192,146517,1,0,0:0:0:0:
475,192,146598,1,0,0:0:0:0:
329,192,146598,1,0,0:0:0:0:
402,192,146598,1,0,0:0:0:0:
36,192,146680,1,0,0:0:0:0:
182,192,146680,1,0,0:0:0:0:
109,192,146680,1,0,0:0:0:0:
402,192,146761,1,0,0:0:0:0:
329,192,146761,1,0,0:0:0:0:
475,192,146761,1,0,0:0:0:0:
109,192,146843,1,0,0:0:0:0:
182,192,146843,1,0,0:0:0:0:
36,192,146843,1,0,0:0:0:0:
475,192,146924,1,0,0:0:0:0:
329,192,146924,1,0,0:0:0:0:
402,192,146924,1,0,0:0:0:0:
109,192,147006,128,0,147250:0:0:0:0:
475,192,147006,128,0,147250:0:0:0:0:
36,192,147006,128,0,147250:0:0:0:0:
256,192,147006,128,0,147250:0:0:0:0:
402,192,147006,128,0,147250:0:0:0:0:
182,192,147006,128,0,147250:0:0:0:0:
329,192,147006,128,0,147250:0:0:0:0:
402,192,147332,128,0,147577:0:0:0:0:
182,192,147332,128,0,147577:0:0:0:0:
329,192,147332,128,0,147577:0:0:0:0:
256,192,147332,128,0,147577:0:0:0:0:
109,192,147332,128,0,147577:0:0:0:0:
475,192,147332,128,0,147577:0:0:0:0:
36,192,147332,128,0,147577:0:0:0:0:
36,192,147658,128,0,147740:0:0:0:0:
109,192,147658,128,0,147740:0:0:0:0:
182,192,147658,128,0,147740:0:0:0:0:
256,192,147658,128,0,147740:0:0:0:0:
329,192,147658,128,0,147740:0:0:0:0:
402,192,147658,128,0,147740:0:0:0:0:
475,192,147658,128,0,147740:0:0:0:0:
36,192,147821,128,0,147903:0:0:0:0:
109,192,147821,128,0,147903:0:0:0:0:
182,192,147821,128,0,147903:0:0:0:0:
256,192,147821,128,0,147903:0:0:0:0:
329,192,147821,128,0,147903:0:0:0:0:
402,192,147821,128,0,147903:0:0:0:0:
475,192,147821,128,0,147903:0:0:0:0:
475,192,147984,1,0,0:0:0:0:
402,192,147984,1,0,0:0:0:0:
329,192,147984,1,0,0:0:0:0:
36,192,147984,1,0,0:0:0:0:
109,192,147984,1,0,0:0:0:0:
182,192,147984,1,0,0:0:0:0:
256,192,147984,1,0,0:0:0:0:
402,192,148066,1,0,0:0:0:0:
329,192,148066,1,0,0:0:0:0:
36,192,148066,1,0,0:0:0:0:
182,192,148066,1,0,0:0:0:0:
256,192,148066,1,0,0:0:0:0:
109,192,148066,1,0,0:0:0:0:
475,192,148066,1,0,0:0:0:0:
256,192,148147,1,0,0:0:0:0:
109,192,148147,1,0,0:0:0:0:
475,192,148147,1,0,0:0:0:0:
182,192,148147,1,0,0:0:0:0:
402,192,148147,1,0,0:0:0:0:
329,192,148147,1,0,0:0:0:0:
36,192,148147,1,0,0:0:0:0:
109,192,148310,128,0,148392:0:0:0:0:
36,192,148310,128,0,149125:0:0:0:0:
475,192,148310,128,0,149125:0:0:0:0:
182,192,148351,128,0,148433:0:0:0:0:
256,192,148392,128,0,148473:0:0:0:0:
329,192,148433,128,0,148473:0:0:0:0:
402,192,148473,128,0,148555:0:0:0:0:
329,192,148514,128,0,148596:0:0:0:0:
256,192,148555,128,0,148636:0:0:0:0:
182,192,148596,128,0,148636:0:0:0:0:
109,192,148636,128,0,148718:0:0:0:0:
182,192,148677,128,0,148759:0:0:0:0:
256,192,148718,128,0,148799:0:0:0:0:
329,192,148759,128,0,148840:0:0:0:0:
402,192,148799,128,0,148881:0:0:0:0:
109,192,148840,128,0,148922:0:0:0:0:
182,192,148881,128,0,148962:0:0:0:0:
256,192,148922,128,0,149003:0:0:0:0:
329,192,148962,128,0,149044:0:0:0:0:
402,192,149003,128,0,149085:0:0:0:0:
109,192,149044,128,0,149125:0:0:0:0:
182,192,149085,128,0,149166:0:0:0:0:
402,192,149125,1,0,0:0:0:0:
329,192,149125,1,0,0:0:0:0:
182,192,149207,1,0,0:0:0:0:
109,192,149207,1,0,0:0:0:0:
402,192,149288,128,0,149615:0:0:0:0:
329,192,149288,1,0,0:0:0:0:
475,192,149288,1,0,0:0:0:0:
256,192,149288,1,0,0:0:0:0:
36,192,149288,1,0,0:0:0:0:
109,192,149615,128,0,149859:0:0:0:0:
329,192,149615,1,0,0:0:0:0:
36,192,149615,1,0,0:0:0:0:
475,192,149615,1,0,0:0:0:0:
256,192,149615,1,0,0:0:0:0:
182,192,149615,1,0,0:0:0:0:
182,192,149778,128,0,149859:0:0:0:0:
329,192,149778,1,0,0:0:0:0:
402,192,149778,1,0,0:0:0:0:
256,192,149778,128,0,149859:0:0:0:0:
475,192,149941,128,0,150185:0:0:0:0:
36,192,149941,1,0,0:0:0:0:
109,192,149941,1,0,0:0:0:0:
256,192,149941,1,0,0:0:0:0:
402,192,150104,128,0,150185:0:0:0:0:
36,192,150104,128,0,150267:0:0:0:0:
329,192,150104,128,0,150185:0:0:0:0:
182,192,150104,1,0,0:0:0:0:
109,192,150267,128,0,150511:0:0:0:0:
475,192,150267,1,0,0:0:0:0:
329,192,150267,1,0,0:0:0:0:
182,192,150430,128,0,150511:0:0:0:0:
256,192,150430,1,0,0:0:0:0:
402,192,150430,1,0,0:0:0:0:
182,192,150593,128,0,150756:0:0:0:0:
475,192,150593,1,0,0:0:0:0:
329,192,150593,1,0,0:0:0:0:
36,192,150593,1,0,0:0:0:0:
329,192,150756,128,0,150837:0:0:0:0:
475,192,150756,128,0,150837:0:0:0:0:
36,192,150756,128,0,150837:0:0:0:0:
402,192,150756,1,0,0:0:0:0:
256,192,150837,128,0,150919:0:0:0:0:
109,192,150837,128,0,150919:0:0:0:0:
182,192,150919,128,0,151163:0:0:0:0:
402,192,150919,1,0,0:0:0:0:
475,192,150919,1,0,0:0:0:0:
36,192,150919,1,0,0:0:0:0:
475,192,151082,128,0,151163:0:0:0:0:
402,192,151082,128,0,151163:0:0:0:0:
256,192,151082,1,0,0:0:0:0:
329,192,151245,128,0,151490:0:0:0:0:
109,192,151245,1,0,0:0:0:0:
36,192,151245,1,0,0:0:0:0:
475,192,151245,1,0,0:0:0:0:
256,192,151408,128,0,151490:0:0:0:0:
182,192,151408,128,0,151734:0:0:0:0:
402,192,151408,1,0,0:0:0:0:
329,192,151571,1,0,0:0:0:0:
475,192,151571,1,0,0:0:0:0:
256,192,151653,1,0,0:0:0:0:
402,192,151653,1,0,0:0:0:0:
109,192,151734,1,0,0:0:0:0:
329,192,151734,1,0,0:0:0:0:
182,192,151816,1,0,0:0:0:0:
402,192,151816,1,0,0:0:0:0:
329,192,151897,128,0,151979:0:0:0:0:
256,192,151897,1,0,0:0:0:0:
36,192,151897,1,0,0:0:0:0:
402,192,151938,128,0,152019:0:0:0:0:
475,192,151979,128,0,152060:0:0:0:0:
182,192,152019,128,0,152101:0:0:0:0:
109,192,152060,128,0,152142:0:0:0:0:
256,192,152060,1,0,0:0:0:0:
36,192,152101,128,0,152183:0:0:0:0:
329,192,152142,128,0,152223:0:0:0:0:
402,192,152183,128,0,152264:0:0:0:0:
475,192,152223,128,0,152305:0:0:0:0:
256,192,152223,1,0,0:0:0:0:
109,192,152223,1,0,0:0:0:0:
182,192,152264,128,0,152305:0:0:0:0:
182,192,152386,128,0,152549:0:0:0:0:
329,192,152386,1,0,0:0:0:0:
402,192,152427,128,0,152468:0:0:0:0:
402,192,152549,128,0,152712:0:0:0:0:
109,192,152549,1,0,0:0:0:0:
36,192,152549,1,0,0:0:0:0:
329,192,152590,128,0,152631:0:0:0:0:
329,192,152712,128,0,152875:0:0:0:0:
256,192,152712,1,0,0:0:0:0:
109,192,152753,128,0,152794:0:0:0:0:
109,192,152875,128,0,153038:0:0:0:0:
475,192,152875,1,0,0:0:0:0:
402,192,152875,1,0,0:0:0:0:
256,192,152916,128,0,152957:0:0:0:0:
329,192,152957,1,0,0:0:0:0:
256,192,153038,128,0,153202:0:0:0:0:
182,192,153038,1,0,0:0:0:0:
402,192,153079,128,0,153120:0:0:0:0:
109,192,153120,1,0,0:0:0:0:
402,192,153202,128,0,153365:0:0:0:0:
36,192,153202,1,0,0:0:0:0:
329,192,153202,1,0,0:0:0:0:
182,192,153242,128,0,153283:0:0:0:0:
256,192,153283,1,0,0:0:0:0:
182,192,153365,128,0,153528:0:0:0:0:
109,192,153365,1,0,0:0:0:0:
475,192,153365,1,0,0:0:0:0:
329,192,153405,128,0,153446:0:0:0:0:
36,192,153446,1,0,0:0:0:0:
329,192,153528,128,0,153691:0:0:0:0:
475,192,153528,1,0,0:0:0:0:
402,192,153528,1,0,0:0:0:0:
256,192,153528,1,0,0:0:0:0:
109,192,153568,128,0,153609:0:0:0:0:
109,192,153691,128,0,154017:0:0:0:0:
256,192,153691,1,0,0:0:0:0:
475,192,153691,1,0,0:0:0:0:
36,192,153691,1,0,0:0:0:0:
402,192,153731,128,0,153772:0:0:0:0:
402,192,153854,128,0,154017:0:0:0:0:
182,192,153854,1,0,0:0:0:0:
329,192,153854,1,0,0:0:0:0:
256,192,154017,128,0,154343:0:0:0:0:
36,192,154017,1,0,0:0:0:0:
475,192,154017,1,0,0:0:0:0:
329,192,154017,1,0,0:0:0:0:
182,192,154017,1,0,0:0:0:0:
475,192,154343,1,0,0:0:0:0:
109,192,154343,1,0,0:0:0:0:
36,192,154343,1,0,0:0:0:0:
329,192,154424,1,0,0:0:0:0:
256,192,154424,1,0,0:0:0:0:
182,192,154424,1,0,0:0:0:0:
475,192,154506,1,0,0:0:0:0:
402,192,154506,1,0,0:0:0:0:
36,192,154506,1,0,0:0:0:0:
109,192,154587,1,0,0:0:0:0:
256,192,154587,1,0,0:0:0:0:
182,192,154587,1,0,0:0:0:0:
329,192,154669,128,0,154750:0:0:0:0:
402,192,154710,128,0,154791:0:0:0:0:
475,192,154750,128,0,154832:0:0:0:0:
182,192,154750,128,0,154832:0:0:0:0:
109,192,154791,128,0,154873:0:0:0:0:
36,192,154832,128,0,154913:0:0:0:0:
256,192,154832,1,0,0:0:0:0:
329,192,154873,128,0,154954:0:0:0:0:
402,192,154913,128,0,154995:0:0:0:0:
182,192,154913,1,0,0:0:0:0:
475,192,154954,128,0,155036:0:0:0:0:
256,192,154995,128,0,155077:0:0:0:0:
109,192,154995,1,0,0:0:0:0:
329,192,155036,128,0,155117:0:0:0:0:
402,192,155077,128,0,155158:0:0:0:0:
36,192,155077,1,0,0:0:0:0:
475,192,155117,128,0,155199:0:0:0:0:
182,192,155158,128,0,155321:0:0:0:0:
109,192,155158,128,0,155321:0:0:0:0:
36,192,155158,128,0,155321:0:0:0:0:
256,192,155158,128,0,155321:0:0:0:0:
329,192,155158,128,0,155321:0:0:0:0:
475,192,155321,128,0,155403:0:0:0:0:
402,192,155362,128,0,155443:0:0:0:0:
109,192,155403,128,0,155484:0:0:0:0:
182,192,155443,128,0,155525:0:0:0:0:
329,192,155484,128,0,155566:0:0:0:0:
36,192,155484,1,0,0:0:0:0:
402,192,155525,128,0,155606:0:0:0:0:
256,192,155566,128,0,155647:0:0:0:0:
475,192,155566,1,0,0:0:0:0:
182,192,155606,128,0,155688:0:0:0:0:
109,192,155647,128,0,155729:0:0:0:0:
36,192,155647,1,0,0:0:0:0:
402,192,155688,128,0,155769:0:0:0:0:
329,192,155729,128,0,155810:0:0:0:0:
475,192,155729,1,0,0:0:0:0:
256,192,155769,128,0,155851:0:0:0:0:
182,192,155810,128,0,155973:0:0:0:0:
109,192,155810,128,0,155973:0:0:0:0:
36,192,155810,128,0,155973:0:0:0:0:
475,192,155810,128,0,155973:0:0:0:0:
402,192,155810,128,0,155973:0:0:0:0:
256,192,155973,128,0,156055:0:0:0:0:
182,192,156014,128,0,156096:0:0:0:0:
109,192,156055,128,0,156136:0:0:0:0:
402,192,156096,128,0,156177:0:0:0:0:
329,192,156136,128,0,156218:0:0:0:0:
475,192,156136,1,0,0:0:0:0:
256,192,156177,128,0,156259:0:0:0:0:
36,192,156218,128,0,156299:0:0:0:0:
402,192,156218,1,0,0:0:0:0:
109,192,156259,128,0,156340:0:0:0:0:
182,192,156299,128,0,156381:0:0:0:0:
329,192,156299,1,0,0:0:0:0:
475,192,156340,128,0,156422:0:0:0:0:
402,192,156381,128,0,156462:0:0:0:0:
256,192,156381,1,0,0:0:0:0:
329,192,156422,128,0,156503:0:0:0:0:
256,192,156462,128,0,156625:0:0:0:0:
475,192,156462,128,0,156625:0:0:0:0:
109,192,156462,128,0,156625:0:0:0:0:
36,192,156462,128,0,156625:0:0:0:0:
182,192,156462,128,0,156544:0:0:0:0:
182,192,156625,128,0,156707:0:0:0:0:
256,192,156666,128,0,156748:0:0:0:0:
329,192,156707,128,0,156788:0:0:0:0:
402,192,156748,128,0,156829:0:0:0:0:
475,192,156788,128,0,156870:0:0:0:0:
36,192,156788,128,0,156870:0:0:0:0:
109,192,156809,128,0,156890:0:0:0:0:
182,192,156829,128,0,156911:0:0:0:0:
256,192,156850,128,0,156931:0:0:0:0:
329,192,156870,128,0,156952:0:0:0:0:
402,192,156890,128,0,156972:0:0:0:0:
475,192,156911,128,0,156992:0:0:0:0:
36,192,156952,1,0,0:0:0:0:
109,192,156952,1,0,0:0:0:0:
182,192,157033,1,0,0:0:0:0:
256,192,157033,1,0,0:0:0:0:
329,192,157115,1,0,0:0:0:0:
109,192,157115,128,0,157278:0:0:0:0:
36,192,157115,128,0,157278:0:0:0:0:
475,192,157115,128,0,157278:0:0:0:0:
402,192,157115,1,0,0:0:0:0:
256,192,157278,128,0,157441:0:0:0:0:
329,192,157441,128,0,157604:0:0:0:0:
109,192,157441,1,0,0:0:0:0:
36,192,157441,1,0,0:0:0:0:
475,192,157441,1,0,0:0:0:0:
182,192,157522,1,0,0:0:0:0:
256,192,157522,1,0,0:0:0:0:
109,192,157604,1,0,0:0:0:0:
36,192,157604,1,0,0:0:0:0:
402,192,157604,1,0,0:0:0:0:
329,192,157685,1,0,0:0:0:0:
256,192,157685,1,0,0:0:0:0:
182,192,157767,1,0,0:0:0:0:
109,192,157767,1,0,0:0:0:0:
475,192,157767,1,0,0:0:0:0:
402,192,157848,1,0,0:0:0:0:
329,192,157848,1,0,0:0:0:0:
256,192,157930,128,0,158093:0:0:0:0:
475,192,157930,1,0,0:0:0:0:
36,192,157930,1,0,0:0:0:0:
109,192,158011,1,0,0:0:0:0:
182,192,158011,1,0,0:0:0:0:
329,192,158093,128,0,158256:0:0:0:0:
36,192,158093,1,0,0:0:0:0:
475,192,158093,1,0,0:0:0:0:
256,192,158174,1,0,0:0:0:0:
182,192,158174,1,0,0:0:0:0:
402,192,158256,128,0,158419:0:0:0:0:
36,192,158256,1,0,0:0:0:0:
109,192,158256,1,0,0:0:0:0:
329,192,158337,1,0,0:0:0:0:
256,192,158337,1,0,0:0:0:0:
475,192,158419,128,0,158500:0:0:0:0:
182,192,158419,1,0,0:0:0:0:
109,192,158419,1,0,0:0:0:0:
329,192,158500,1,0,0:0:0:0:
256,192,158500,1,0,0:0:0:0:
475,192,158582,128,0,158745:0:0:0:0:
109,192,158582,1,0,0:0:0:0:
36,192,158582,1,0,0:0:0:0:
402,192,158663,1,0,0:0:0:0:
329,192,158663,1,0,0:0:0:0:
256,192,158745,128,0,158908:0:0:0:0:
182,192,158745,1,0,0:0:0:0:
109,192,158745,1,0,0:0:0:0:
329,192,158827,1,0,0:0:0:0:
402,192,158827,1,0,0:0:0:0:
36,192,158908,128,0,159071:0:0:0:0:
109,192,158908,1,0,0:0:0:0:
475,192,158908,1,0,0:0:0:0:
182,192,158990,1,0,0:0:0:0:
256,192,158990,1,0,0:0:0:0:
402,192,159071,128,0,159234:0:0:0:0:
475,192,159071,1,0,0:0:0:0:
109,192,159071,1,0,0:0:0:0:
329,192,159153,1,0,0:0:0:0:
256,192,159153,1,0,0:0:0:0:
109,192,159234,128,0,159397:0:0:0:0:
36,192,159234,1,0,0:0:0:0:
475,192,159234,1,0,0:0:0:0:
182,192,159316,1,0,0:0:0:0:
256,192,159316,1,0,0:0:0:0:
329,192,159397,128,0,159479:0:0:0:0:
402,192,159397,1,0,0:0:0:0:
36,192,159397,1,0,0:0:0:0:
109,192,159479,1,0,0:0:0:0:
182,192,159479,1,0,0:0:0:0:
329,192,159560,128,0,159886:0:0:0:0:
256,192,159560,1,0,0:0:0:0:
475,192,159560,1,0,0:0:0:0:
36,192,159642,1,0,0:0:0:0:
109,192,159642,1,0,0:0:0:0:
182,192,159723,1,0,0:0:0:0:
256,192,159723,1,0,0:0:0:0:
475,192,159723,1,0,0:0:0:0:
36,192,159805,1,0,0:0:0:0:
402,192,159805,1,0,0:0:0:0:
109,192,159886,128,0,159968:0:0:0:0:
475,192,159886,1,0,0:0:0:0:
256,192,159886,1,0,0:0:0:0:
182,192,159968,128,0,160049:0:0:0:0:
329,192,159968,1,0,0:0:0:0:
256,192,160048,128,0,160130:0:0:0:0:
475,192,160048,128,0,160130:0:0:0:0:
36,192,160048,128,0,160130:0:0:0:0:
109,192,160048,128,0,160130:0:0:0:0:
402,192,160048,128,0,160130:0:0:0:0:
256,192,160212,1,0,0:0:0:0:
182,192,160212,1,0,0:0:0:0:
109,192,160212,1,0,0:0:0:0:
36,192,160212,1,0,0:0:0:0:
329,192,160294,1,0,0:0:0:0:
256,192,160375,128,0,160456:0:0:0:0:
109,192,160375,128,0,160456:0:0:0:0:
36,192,160375,128,0,160456:0:0:0:0:
182,192,160375,128,0,160456:0:0:0:0:
402,192,160375,128,0,160456:0:0:0:0:
475,192,160375,128,0,160456:0:0:0:0:
109,192,160538,1,0,0:0:0:0:
475,192,160538,1,0,0:0:0:0:
402,192,160538,1,0,0:0:0:0:
329,192,160538,1,0,0:0:0:0:
182,192,160620,1,0,0:0:0:0:
329,192,160701,128,0,160782:0:0:0:0:
402,192,160701,128,0,160782:0:0:0:0:
475,192,160701,128,0,160782:0:0:0:0:
256,192,160701,128,0,160782:0:0:0:0:
109,192,160701,128,0,160782:0:0:0:0:
36,192,160701,128,0,160782:0:0:0:0:
329,192,160865,1,0,0:0:0:0:
182,192,160865,1,0,0:0:0:0:
475,192,160865,1,0,0:0:0:0:
402,192,160865,1,0,0:0:0:0:
256,192,160946,1,0,0:0:0:0:
36,192,161027,128,0,161108:0:0:0:0:
109,192,161027,128,0,161108:0:0:0:0:
182,192,161027,128,0,161108:0:0:0:0:
329,192,161027,128,0,161108:0:0:0:0:
402,192,161027,128,0,161108:0:0:0:0:
475,192,161027,128,0,161108:0:0:0:0:
256,192,161191,1,0,0:0:0:0:
329,192,161191,1,0,0:0:0:0:
402,192,161191,1,0,0:0:0:0:
36,192,161191,1,0,0:0:0:0:
182,192,161272,1,0,0:0:0:0:
109,192,161354,128,0,161476:0:0:0:0:
36,192,161354,128,0,161476:0:0:0:0:
256,192,161354,128,0,161476:0:0:0:0:
475,192,161354,1,0,0:0:0:0:
402,192,161354,1,0,0:0:0:0:
329,192,161435,1,0,0:0:0:0:
109,192,161517,128,0,161639:0:0:0:0:
182,192,161517,128,0,161639:0:0:0:0:
402,192,161517,128,0,161639:0:0:0:0:
475,192,161517,128,0,161639:0:0:0:0:
329,192,161598,1,0,0:0:0:0:
182,192,161680,128,0,161802:0:0:0:0:
256,192,161680,128,0,161802:0:0:0:0:
475,192,161680,128,0,161802:0:0:0:0:
36,192,161680,128,0,161802:0:0:0:0:
329,192,161761,1,0,0:0:0:0:
475,192,161843,128,0,162658:0:0:0:0:
256,192,161843,1,0,0:0:0:0:
109,192,161843,128,0,161924:0:0:0:0:
402,192,161843,128,0,162006:0:0:0:0:
36,192,161843,128,0,161924:0:0:0:0:
182,192,161843,1,0,0:0:0:0:
329,192,162006,128,0,162047:0:0:0:0:
36,192,162006,1,0,0:0:0:0:
109,192,162087,1,0,0:0:0:0:
256,192,162087,128,0,162128:0:0:0:0:
182,192,162169,128,0,162210:0:0:0:0:
329,192,162169,1,0,0:0:0:0:
36,192,162169,1,0,0:0:0:0:
109,192,162250,128,0,162291:0:0:0:0:
402,192,162250,1,0,0:0:0:0:
182,192,162332,128,0,162373:0:0:0:0:
329,192,162332,1,0,0:0:0:0:
36,192,162332,1,0,0:0:0:0:
256,192,162413,128,0,162454:0:0:0:0:
109,192,162413,1,0,0:0:0:0:
329,192,162495,128,0,162536:0:0:0:0:
36,192,162495,1,0,0:0:0:0:
402,192,162495,1,0,0:0:0:0:
256,192,162577,128,0,162617:0:0:0:0:
109,192,162577,1,0,0:0:0:0:
182,192,162658,1,0,0:0:0:0:
36,192,162658,1,0,0:0:0:0:
402,192,162658,1,0,0:0:0:0:
329,192,162740,1,0,0:0:0:0:
109,192,162740,1,0,0:0:0:0:
182,192,162821,1,0,0:0:0:0:
256,192,162821,1,0,0:0:0:0:
329,192,162903,1,0,0:0:0:0:
36,192,162903,1,0,0:0:0:0:
109,192,162984,128,0,163310:0:0:0:0:
475,192,162984,128,0,163066:0:0:0:0:
182,192,162984,1,0,0:0:0:0:
256,192,162984,1,0,0:0:0:0:
402,192,163066,128,0,163147:0:0:0:0:
182,192,163147,1,0,0:0:0:0:
329,192,163147,128,0,163229:0:0:0:0:
402,192,163229,128,0,163310:0:0:0:0:
36,192,163310,128,0,163392:0:0:0:0:
475,192,163310,128,0,163392:0:0:0:0:
256,192,163310,128,0,163636:0:0:0:0:
329,192,163310,1,0,0:0:0:0:
182,192,163310,1,0,0:0:0:0:
109,192,163392,128,0,163473:0:0:0:0:
182,192,163473,128,0,163555:0:0:0:0:
109,192,163555,128,0,163636:0:0:0:0:
36,192,163636,128,0,163718:0:0:0:0:
329,192,163636,128,0,163718:0:0:0:0:
402,192,163636,128,0,163962:0:0:0:0:
182,192,163718,128,0,163799:0:0:0:0:
475,192,163799,1,0,0:0:0:0:
36,192,163799,128,0,163881:0:0:0:0:
256,192,163799,128,0,163962:0:0:0:0:
182,192,163881,128,0,163962:0:0:0:0:
109,192,163962,128,0,164125:0:0:0:0:
329,192,163962,128,0,164044:0:0:0:0:
256,192,164044,128,0,164125:0:0:0:0:
402,192,164125,1,0,0:0:0:0:
475,192,164125,1,0,0:0:0:0:
182,192,164125,128,0,164207:0:0:0:0:
36,192,164207,128,0,164288:0:0:0:0:
329,192,164288,128,0,164452:0:0:0:0:
402,192,164288,1,0,0:0:0:0:
475,192,164288,1,0,0:0:0:0:
109,192,164288,128,0,164370:0:0:0:0:
182,192,164370,128,0,164452:0:0:0:0:
402,192,164452,1,0,0:0:0:0:
475,192,164452,1,0,0:0:0:0:
36,192,164452,1,0,0:0:0:0:
256,192,164452,128,0,164533:0:0:0:0:
329,192,164533,128,0,164615:0:0:0:0:
256,192,164615,1,0,0:0:0:0:
36,192,164615,1,0,0:0:0:0:
475,192,164615,128,0,164778:0:0:0:0:
402,192,164615,1,0,0:0:0:0:
182,192,164615,128,0,164696:0:0:0:0:
109,192,164696,128,0,164778:0:0:0:0:
329,192,164778,1,0,0:0:0:0:
36,192,164778,128,0,164859:0:0:0:0:
182,192,164859,128,0,164941:0:0:0:0:
36,192,164941,128,0,165267:0:0:0:0:
109,192,164941,1,0,0:0:0:0:
329,192,164941,128,0,165022:0:0:0:0:
475,192,165022,1,0,0:0:0:0:
256,192,165022,128,0,165104:0:0:0:0:
402,192,165104,1,0,0:0:0:0:
182,192,165104,128,0,165185:0:0:0:0:
256,192,165185,128,0,165267:0:0:0:0:
329,192,165267,128,0,165593:0:0:0:0:
475,192,165267,1,0,0:0:0:0:
182,192,165430,1,0,0:0:0:0:
256,192,165511,1,0,0:0:0:0:
109,192,165593,128,0,165674:0:0:0:0:
475,192,165593,1,0,0:0:0:0:
182,192,165674,128,0,165756:0:0:0:0:
256,192,165756,128,0,165837:0:0:0:0:
402,192,165756,1,0,0:0:0:0:
329,192,165756,1,0,0:0:0:0:
182,192,165837,128,0,165919:0:0:0:0:
109,192,165919,128,0,166000:0:0:0:0:
36,192,165919,1,0,0:0:0:0:
402,192,165919,128,0,166000:0:0:0:0:
475,192,165919,1,0,0:0:0:0:
329,192,166000,128,0,166082:0:0:0:0:
256,192,166082,128,0,166163:0:0:0:0:
109,192,166082,1,0,0:0:0:0:
329,192,166163,128,0,166245:0:0:0:0:
402,192,166245,128,0,166327:0:0:0:0:
36,192,166245,128,0,166327:0:0:0:0:
182,192,166245,1,0,0:0:0:0:
109,192,166327,128,0,166408:0:0:0:0:
402,192,166408,1,0,0:0:0:0:
182,192,166408,128,0,166490:0:0:0:0:
256,192,166490,128,0,166571:0:0:0:0:
109,192,166571,1,0,0:0:0:0:
475,192,166571,128,0,166653:0:0:0:0:
36,192,166571,1,0,0:0:0:0:
329,192,166571,128,0,166653:0:0:0:0:
256,192,166734,128,0,166816:0:0:0:0:
402,192,166734,128,0,166816:0:0:0:0:
36,192,166734,1,0,0:0:0:0:
109,192,166734,1,0,0:0:0:0:
329,192,166897,128,0,166979:0:0:0:0:
182,192,166897,128,0,166979:0:0:0:0:
109,192,166897,1,0,0:0:0:0:
36,192,166897,1,0,0:0:0:0:
256,192,167060,128,0,167142:0:0:0:0:
36,192,167060,1,0,0:0:0:0:
329,192,167060,128,0,167386:0:0:0:0:
109,192,167060,1,0,0:0:0:0:
402,192,167060,128,0,167142:0:0:0:0:
36,192,167386,1,0,0:0:0:0:
109,192,167386,1,0,0:0:0:0:
475,192,167386,1,0,0:0:0:0:
182,192,167468,1,0,0:0:0:0:
256,192,167468,1,0,0:0:0:0:
329,192,167549,1,0,0:0:0:0:
402,192,167549,1,0,0:0:0:0:
475,192,167549,1,0,0:0:0:0:
182,192,167631,1,0,0:0:0:0:
109,192,167631,1,0,0:0:0:0:
475,192,167712,1,0,0:0:0:0:
402,192,167712,1,0,0:0:0:0:
329,192,167794,1,0,0:0:0:0:
256,192,167794,1,0,0:0:0:0:
182,192,167875,128,0,168202:0:0:0:0:
475,192,167875,128,0,168120:0:0:0:0:
36,192,167875,128,0,167957:0:0:0:0:
109,192,167875,128,0,167957:0:0:0:0:
402,192,167957,128,0,168120:0:0:0:0:
329,192,168038,128,0,168120:0:0:0:0:
109,192,168038,128,0,168120:0:0:0:0:
256,192,168120,128,0,168202:0:0:0:0:
36,192,168202,128,0,168446:0:0:0:0:
329,192,168202,128,0,168528:0:0:0:0:
402,192,168202,128,0,168283:0:0:0:0:
475,192,168202,128,0,168283:0:0:0:0:
109,192,168283,128,0,168446:0:0:0:0:
182,192,168365,128,0,168446:0:0:0:0:
402,192,168365,128,0,168446:0:0:0:0:
256,192,168446,128,0,168528:0:0:0:0:
182,192,168528,128,0,168772:0:0:0:0:
475,192,168528,128,0,168854:0:0:0:0:
36,192,168528,128,0,168609:0:0:0:0:
256,192,168609,128,0,168772:0:0:0:0:
329,192,168691,128,0,168772:0:0:0:0:
36,192,168691,128,0,168772:0:0:0:0:
109,192,168691,128,0,168772:0:0:0:0:
402,192,168772,128,0,168854:0:0:0:0:
182,192,168854,128,0,169180:0:0:0:0:
256,192,168854,128,0,168935:0:0:0:0:
329,192,168854,128,0,168935:0:0:0:0:
36,192,168854,128,0,168935:0:0:0:0:
402,192,168935,128,0,169017:0:0:0:0:
36,192,169017,128,0,169343:0:0:0:0:
475,192,169017,128,0,169098:0:0:0:0:
256,192,169098,128,0,169180:0:0:0:0:
402,192,169180,128,0,169506:0:0:0:0:
329,192,169180,128,0,169261:0:0:0:0:
182,192,169261,128,0,169343:0:0:0:0:
256,192,169343,128,0,169587:0:0:0:0:
109,192,169343,128,0,169424:0:0:0:0:
36,192,169424,128,0,169506:0:0:0:0:
109,192,169506,128,0,169832:0:0:0:0:
475,192,169506,128,0,169587:0:0:0:0:
402,192,169587,128,0,169669:0:0:0:0:
256,192,169669,128,0,169913:0:0:0:0:
329,192,169669,128,0,169750:0:0:0:0:
182,192,169750,128,0,169832:0:0:0:0:
402,192,169832,128,0,170077:0:0:0:0:
36,192,169832,128,0,169913:0:0:0:0:
329,192,169832,128,0,169913:0:0:0:0:
475,192,169832,128,0,169913:0:0:0:0:
256,192,169995,128,0,170077:0:0:0:0:
109,192,169995,128,0,170077:0:0:0:0:
36,192,169995,128,0,170077:0:0:0:0:
256,192,170158,128,0,170484:0:0:0:0:
109,192,170158,128,0,170240:0:0:0:0:
36,192,170158,128,0,170240:0:0:0:0:
402,192,170158,128,0,170240:0:0:0:0:
475,192,170158,128,0,170240:0:0:0:0:
182,192,170240,128,0,170321:0:0:0:0:
329,192,170240,128,0,170321:0:0:0:0:
475,192,170321,128,0,170403:0:0:0:0:
402,192,170321,128,0,170403:0:0:0:0:
329,192,170403,128,0,170484:0:0:0:0:
36,192,170403,128,0,170484:0:0:0:0:
109,192,170484,128,0,170566:0:0:0:0:
402,192,170484,128,0,170566:0:0:0:0:
475,192,170566,128,0,170647:0:0:0:0:
182,192,170566,128,0,170647:0:0:0:0:
329,192,170647,128,0,170729:0:0:0:0:
36,192,170647,128,0,170729:0:0:0:0:
182,192,170729,128,0,170810:0:0:0:0:
402,192,170729,128,0,170810:0:0:0:0:
256,192,170729,128,0,170810:0:0:0:0:
109,192,170810,128,0,170892:0:0:0:0:
475,192,170810,128,0,170892:0:0:0:0:
329,192,170892,128,0,170973:0:0:0:0:
182,192,170892,128,0,170973:0:0:0:0:
402,192,170973,128,0,171055:0:0:0:0:
36,192,170973,128,0,171055:0:0:0:0:
329,192,171055,128,0,171136:0:0:0:0:
109,192,171055,128,0,171136:0:0:0:0:
182,192,171136,128,0,171218:0:0:0:0:
475,192,171136,128,0,171218:0:0:0:0:
402,192,171218,128,0,171299:0:0:0:0:
109,192,171218,128,0,171299:0:0:0:0:
256,192,171218,128,0,171299:0:0:0:0:
329,192,171299,128,0,171381:0:0:0:0:
36,192,171299,128,0,171381:0:0:0:0:
109,192,171381,128,0,171462:0:0:0:0:
256,192,171381,128,0,171462:0:0:0:0:
475,192,171462,1,0,0:0:0:0:
36,192,171462,1,0,0:0:0:0:
182,192,171462,1,0,0:0:0:0:
402,192,171462,1,0,0:0:0:0:
329,192,171544,1,0,0:0:0:0:
402,192,171625,1,0,0:0:0:0:
256,192,171625,1,0,0:0:0:0:
109,192,171625,1,0,0:0:0:0:
182,192,171707,1,0,0:0:0:0:
329,192,171707,1,0,0:0:0:0:
402,192,171788,128,0,171829:0:0:0:0:
475,192,171788,128,0,171870:0:0:0:0:
256,192,171788,128,0,171870:0:0:0:0:
109,192,171788,128,0,171870:0:0:0:0:
402,192,171952,128,0,172033:0:0:0:0:
329,192,171952,128,0,171992:0:0:0:0:
182,192,171952,128,0,172033:0:0:0:0:
36,192,171952,128,0,172033:0:0:0:0:
256,192,172115,128,0,172155:0:0:0:0:
329,192,172115,128,0,172196:0:0:0:0:
109,192,172115,128,0,172196:0:0:0:0:
475,192,172115,128,0,172196:0:0:0:0:
182,192,172278,128,0,172318:0:0:0:0:
36,192,172278,128,0,172359:0:0:0:0:
402,192,172278,128,0,172359:0:0:0:0:
256,192,172278,128,0,172359:0:0:0:0:
329,192,172441,128,0,172481:0:0:0:0:
256,192,172522,128,0,172563:0:0:0:0:
182,192,172604,128,0,172644:0:0:0:0:
402,192,172604,1,0,0:0:0:0:
109,192,172685,128,0,172726:0:0:0:0:
256,192,172685,1,0,0:0:0:0:
475,192,172767,128,0,173093:0:0:0:0:
402,192,172767,1,0,0:0:0:0:
36,192,172767,128,0,172808:0:0:0:0:
329,192,172767,1,0,0:0:0:0:
182,192,172848,1,0,0:0:0:0:
109,192,172848,128,0,172889:0:0:0:0:
256,192,172848,1,0,0:0:0:0:
329,192,172930,1,0,0:0:0:0:
36,192,172930,128,0,172971:0:0:0:0:
402,192,172930,1,0,0:0:0:0:
182,192,173011,128,0,173052:0:0:0:0:
109,192,173011,1,0,0:0:0:0:
256,192,173011,1,0,0:0:0:0:
36,192,173093,1,0,0:0:0:0:
329,192,173093,1,0,0:0:0:0:
402,192,173093,1,0,0:0:0:0:
475,192,173256,1,0,0:0:0:0:
182,192,173256,128,0,173419:0:0:0:0:
36,192,173419,1,0,0:0:0:0:
475,192,173419,128,0,173582:0:0:0:0:
182,192,173582,128,0,173745:0:0:0:0:
475,192,173745,1,0,0:0:0:0:
475,192,173908,1,0,0:0:0:0:
182,192,173908,128,0,174071:0:0:0:0:
36,192,174071,1,0,0:0:0:0:
475,192,174071,128,0,174234:0:0:0:0:
182,192,174234,128,0,174397:0:0:0:0:
329,192,174397,1,0,0:0:0:0:
475,192,174397,1,0,0:0:0:0:
329,192,174560,1,0,0:0:0:0:
182,192,174560,1,0,0:0:0:0:
182,192,174723,1,0,0:0:0:0:
36,192,174723,1,0,0:0:0:0:
36,192,174886,128,0,175049:0:0:0:0:
475,192,174886,1,0,0:0:0:0:
329,192,175049,1,0,0:0:0:0:
329,192,175212,128,0,175294:0:0:0:0:
36,192,175212,1,0,0:0:0:0:
36,192,175375,1,0,0:0:0:0:
36,192,175538,1,0,0:0:0:0:
329,192,175538,128,0,175620:0:0:0:0:
36,192,175702,128,0,175865:0:0:0:0:
475,192,175702,1,0,0:0:0:0:
256,192,175702,1,0,0:0:0:0:
329,192,175865,128,0,175946:0:0:0:0:
36,192,176028,128,0,176191:0:0:0:0:
182,192,176028,1,0,0:0:0:0:
329,192,176191,128,0,176272:0:0:0:0:
36,192,176354,128,0,176517:0:0:0:0:
475,192,176354,1,0,0:0:0:0:
329,192,176517,128,0,176598:0:0:0:0:
36,192,176680,128,0,176843:0:0:0:0:
182,192,176680,1,0,0:0:0:0:
475,192,176843,1,0,0:0:0:0:
329,192,176843,1,0,0:0:0:0:
36,192,177006,1,0,0:0:0:0:
182,192,177006,1,0,0:0:0:0:
256,192,177006,1,0,0:0:0:0:
182,192,177169,1,0,0:0:0:0:
329,192,177169,1,0,0:0:0:0:
329,192,177332,1,0,0:0:0:0:
475,192,177332,1,0,0:0:0:0:
329,192,177495,1,0,0:0:0:0:
182,192,177495,1,0,0:0:0:0:
256,192,177495,1,0,0:0:0:0:
36,192,177495,128,0,177821:0:0:0:0:
475,192,177821,1,0,0:0:0:0:
329,192,177821,1,0,0:0:0:0:
182,192,177984,1,0,0:0:0:0:
36,192,177984,1,0,0:0:0:0:
109,192,178147,1,0,0:0:0:0:
402,192,178229,1,0,0:0:0:0:
182,192,178310,1,0,0:0:0:0:
256,192,178310,1,0,0:0:0:0:
329,192,178392,1,0,0:0:0:0:
182,192,178473,1,0,0:0:0:0:
329,192,178555,1,0,0:0:0:0:
182,192,178636,1,0,0:0:0:0:
256,192,178636,1,0,0:0:0:0:
329,192,178718,1,0,0:0:0:0:
182,192,178799,1,0,0:0:0:0:
329,192,178881,1,0,0:0:0:0:
182,192,178962,1,0,0:0:0:0:
256,192,178962,1,0,0:0:0:0:
329,192,179044,1,0,0:0:0:0:
182,192,179125,1,0,0:0:0:0:
329,192,179207,1,0,0:0:0:0:
256,192,179288,1,0,0:0:0:0:
182,192,179288,1,0,0:0:0:0:
329,192,179370,1,0,0:0:0:0:
182,192,179452,1,0,0:0:0:0:
329,192,179533,1,0,0:0:0:0:
256,192,179615,1,0,0:0:0:0:
182,192,179615,1,0,0:0:0:0:
109,192,179615,1,0,0:0:0:0:
329,192,179696,1,0,0:0:0:0:
402,192,179696,1,0,0:0:0:0:
182,192,179778,1,0,0:0:0:0:
109,192,179778,1,0,0:0:0:0:
329,192,179859,1,0,0:0:0:0:
402,192,179859,1,0,0:0:0:0:
182,192,179941,1,0,0:0:0:0:
256,192,179941,1,0,0:0:0:0:
109,192,179941,1,0,0:0:0:0:
402,192,180022,1,0,0:0:0:0:
329,192,180022,1,0,0:0:0:0:
109,192,180104,1,0,0:0:0:0:
182,192,180104,1,0,0:0:0:0:
329,192,180185,1,0,0:0:0:0:
402,192,180185,1,0,0:0:0:0:
256,192,180267,1,0,0:0:0:0:
182,192,180267,1,0,0:0:0:0:
109,192,180267,1,0,0:0:0:0:
329,192,180348,1,0,0:0:0:0:
402,192,180348,1,0,0:0:0:0:
182,192,180430,1,0,0:0:0:0:
109,192,180430,1,0,0:0:0:0:
402,192,180511,1,0,0:0:0:0:
329,192,180511,1,0,0:0:0:0:
109,192,180593,1,0,0:0:0:0:
182,192,180593,1,0,0:0:0:0:
256,192,180593,1,0,0:0:0:0:
402,192,180674,1,0,0:0:0:0:
329,192,180674,1,0,0:0:0:0:
109,192,180756,1,0,0:0:0:0:
182,192,180756,1,0,0:0:0:0:
329,192,180837,1,0,0:0:0:0:
402,192,180837,1,0,0:0:0:0:
256,192,180919,1,0,0:0:0:0:
182,192,180919,1,0,0:0:0:0:
109,192,180919,1,0,0:0:0:0:
36,192,180919,1,0,0:0:0:0:
329,192,181000,1,0,0:0:0:0:
402,192,181000,1,0,0:0:0:0:
475,192,181000,1,0,0:0:0:0:
182,192,181082,1,0,0:0:0:0:
109,192,181082,1,0,0:0:0:0:
36,192,181082,1,0,0:0:0:0:
329,192,181163,1,0,0:0:0:0:
402,192,181163,1,0,0:0:0:0:
475,192,181163,1,0,0:0:0:0:
256,192,181245,1,0,0:0:0:0:
182,192,181245,1,0,0:0:0:0:
109,192,181245,1,0,0:0:0:0:
36,192,181245,1,0,0:0:0:0:
329,192,181327,1,0,0:0:0:0:
475,192,181327,1,0,0:0:0:0:
402,192,181327,1,0,0:0:0:0:
182,192,181408,1,0,0:0:0:0:
109,192,181408,1,0,0:0:0:0:
36,192,181408,1,0,0:0:0:0:
329,192,181490,1,0,0:0:0:0:
402,192,181490,1,0,0:0:0:0:
475,192,181490,1,0,0:0:0:0:
109,192,181571,1,0,0:0:0:0:
36,192,181571,1,0,0:0:0:0:
256,192,181571,1,0,0:0:0:0:
182,192,181571,1,0,0:0:0:0:
402,192,181653,1,0,0:0:0:0:
475,192,181653,1,0,0:0:0:0:
329,192,181653,1,0,0:0:0:0:
36,192,181734,1,0,0:0:0:0:
109,192,181734,1,0,0:0:0:0:
182,192,181734,1,0,0:0:0:0:
475,192,181816,1,0,0:0:0:0:
402,192,181816,1,0,0:0:0:0:
329,192,181816,1,0,0:0:0:0:
256,192,181897,1,0,0:0:0:0:
182,192,181897,1,0,0:0:0:0:
109,192,181897,1,0,0:0:0:0:
36,192,181897,1,0,0:0:0:0:
329,192,181979,1,0,0:0:0:0:
475,192,181979,1,0,0:0:0:0:
402,192,181979,1,0,0:0:0:0:
182,192,182060,1,0,0:0:0:0:
109,192,182060,1,0,0:0:0:0:
36,192,182060,1,0,0:0:0:0:
402,192,182142,1,0,0:0:0:0:
475,192,182142,1,0,0:0:0:0:
256,192,182142,1,0,0:0:0:0:
329,192,182223,1,0,0:0:0:0:
36,192,182223,1,0,0:0:0:0:
182,192,182223,1,0,0:0:0:0:
109,192,182305,1,0,0:0:0:0:
256,192,182305,1,0,0:0:0:0:
402,192,182305,1,0,0:0:0:0:
182,192,182386,1,0,0:0:0:0:
329,192,182386,1,0,0:0:0:0:
475,192,182386,1,0,0:0:0:0:
256,192,182468,1,0,0:0:0:0:
402,192,182468,1,0,0:0:0:0:
109,192,182468,1,0,0:0:0:0:
329,192,182549,1,0,0:0:0:0:
475,192,182549,1,0,0:0:0:0:
182,192,182549,1,0,0:0:0:0:
402,192,182631,1,0,0:0:0:0:
256,192,182631,1,0,0:0:0:0:
109,192,182631,1,0,0:0:0:0:
329,192,182712,1,0,0:0:0:0:
182,192,182712,1,0,0:0:0:0:
36,192,182712,1,0,0:0:0:0:
475,192,182794,1,0,0:0:0:0:
402,192,182875,1,0,0:0:0:0:
329,192,182957,1,0,0:0:0:0:
36,192,183038,1,0,0:0:0:0:
182,192,183038,1,0,0:0:0:0:
109,192,183120,1,0,0:0:0:0:
256,192,183120,1,0,0:0:0:0:
182,192,183202,1,0,0:0:0:0:
329,192,183202,1,0,0:0:0:0:
256,192,183283,1,0,0:0:0:0:
402,192,183283,1,0,0:0:0:0:
329,192,183365,1,0,0:0:0:0:
475,192,183365,1,0,0:0:0:0:
182,192,183446,128,0,183487:0:0:0:0:
36,192,183446,128,0,183772:0:0:0:0:
256,192,183528,128,0,183568:0:0:0:0:
109,192,183528,128,0,183854:0:0:0:0:
329,192,183609,128,0,183650:0:0:0:0:
182,192,183609,128,0,183935:0:0:0:0:
402,192,183691,128,0,183731:0:0:0:0:
256,192,183691,128,0,184017:0:0:0:0:
475,192,183772,128,0,183813:0:0:0:0:
329,192,183772,128,0,184098:0:0:0:0:
402,192,183854,128,0,184180:0:0:0:0:
36,192,183854,128,0,183894:0:0:0:0:
475,192,183935,128,0,184261:0:0:0:0:
109,192,183935,128,0,183976:0:0:0:0:
182,192,184017,128,0,184058:0:0:0:0:
36,192,184017,1,0,0:0:0:0:
256,192,184098,128,0,184139:0:0:0:0:
109,192,184098,1,0,0:0:0:0:
329,192,184180,128,0,184221:0:0:0:0:
182,192,184180,1,0,0:0:0:0:
402,192,184261,128,0,184302:0:0:0:0:
256,192,184261,1,0,0:0:0:0:
475,192,184343,128,0,184384:0:0:0:0:
109,192,184343,1,0,0:0:0:0:
36,192,184343,1,0,0:0:0:0:
182,192,184343,1,0,0:0:0:0:
329,192,184343,1,0,0:0:0:0:
182,192,184424,1,0,0:0:0:0:
109,192,184424,1,0,0:0:0:0:
36,192,184424,1,0,0:0:0:0:
402,192,184424,1,0,0:0:0:0:
36,192,184506,1,0,0:0:0:0:
109,192,184506,1,0,0:0:0:0:
182,192,184506,1,0,0:0:0:0:
475,192,184506,1,0,0:0:0:0:
329,192,184506,1,0,0:0:0:0:
256,192,184506,128,0,184832:0:0:0:0:
475,192,184832,128,0,184913:0:0:0:0:
402,192,184832,128,0,184913:0:0:0:0:
182,192,184832,128,0,184913:0:0:0:0:
36,192,184832,128,0,184913:0:0:0:0:
109,192,184832,128,0,184913:0:0:0:0:
329,192,184913,128,0,184995:0:0:0:0:
256,192,184913,128,0,184995:0:0:0:0:
36,192,184995,128,0,185077:0:0:0:0:
182,192,184995,128,0,185077:0:0:0:0:
475,192,184995,128,0,185077:0:0:0:0:
329,192,185077,128,0,185158:0:0:0:0:
402,192,185077,128,0,185158:0:0:0:0:
475,192,185158,128,0,185240:0:0:0:0:
182,192,185158,128,0,185240:0:0:0:0:
109,192,185158,128,0,185240:0:0:0:0:
36,192,185158,128,0,185240:0:0:0:0:
329,192,185240,128,0,185321:0:0:0:0:
256,192,185240,128,0,185321:0:0:0:0:
475,192,185321,128,0,185403:0:0:0:0:
109,192,185321,128,0,185403:0:0:0:0:
36,192,185321,128,0,185403:0:0:0:0:
182,192,185403,128,0,185484:0:0:0:0:
256,192,185403,128,0,185484:0:0:0:0:
329,192,185484,128,0,185566:0:0:0:0:
402,192,185484,128,0,185566:0:0:0:0:
475,192,185484,128,0,185566:0:0:0:0:
36,192,185484,128,0,185566:0:0:0:0:
109,192,185566,128,0,185647:0:0:0:0:
256,192,185566,128,0,185647:0:0:0:0:
182,192,185647,128,0,185729:0:0:0:0:
329,192,185647,128,0,185729:0:0:0:0:
475,192,185647,128,0,185729:0:0:0:0:
402,192,185729,128,0,185810:0:0:0:0:
256,192,185729,128,0,185810:0:0:0:0:
329,192,185810,128,0,185892:0:0:0:0:
182,192,185810,128,0,185892:0:0:0:0:
109,192,185810,128,0,185892:0:0:0:0:
36,192,185810,128,0,185892:0:0:0:0:
475,192,185892,128,0,185973:0:0:0:0:
256,192,185892,128,0,185973:0:0:0:0:
329,192,185973,128,0,186055:0:0:0:0:
109,192,185973,128,0,186055:0:0:0:0:
36,192,185973,128,0,186055:0:0:0:0:
182,192,186055,128,0,186136:0:0:0:0:
256,192,186055,128,0,186136:0:0:0:0:
329,192,186136,128,0,186218:0:0:0:0:
402,192,186136,128,0,186218:0:0:0:0:
475,192,186136,128,0,186218:0:0:0:0:
36,192,186136,128,0,186218:0:0:0:0:
182,192,186218,128,0,186299:0:0:0:0:
256,192,186218,128,0,186299:0:0:0:0:
109,192,186299,128,0,186381:0:0:0:0:
36,192,186299,128,0,186381:0:0:0:0:
402,192,186299,128,0,186381:0:0:0:0:
256,192,186381,128,0,186462:0:0:0:0:
329,192,186381,128,0,186462:0:0:0:0:
402,192,186462,128,0,186544:0:0:0:0:
475,192,186462,128,0,186544:0:0:0:0:
182,192,186462,128,0,186544:0:0:0:0:
36,192,186462,128,0,186544:0:0:0:0:
256,192,186544,128,0,186625:0:0:0:0:
329,192,186544,128,0,186625:0:0:0:0:
402,192,186625,128,0,186707:0:0:0:0:
475,192,186625,128,0,186707:0:0:0:0:
109,192,186625,128,0,186707:0:0:0:0:
36,192,186625,128,0,186707:0:0:0:0:
182,192,186707,128,0,186788:0:0:0:0:
256,192,186707,128,0,186788:0:0:0:0:
329,192,186788,128,0,186870:0:0:0:0:
475,192,186788,128,0,186870:0:0:0:0:
36,192,186788,128,0,186870:0:0:0:0:
109,192,186870,128,0,186952:0:0:0:0:
182,192,186870,128,0,186952:0:0:0:0:
36,192,186952,128,0,187033:0:0:0:0:
256,192,186952,128,0,187033:0:0:0:0:
329,192,186952,128,0,187033:0:0:0:0:
402,192,186952,128,0,187033:0:0:0:0:
475,192,186952,128,0,187033:0:0:0:0:
182,192,187033,128,0,187115:0:0:0:0:
109,192,187115,128,0,187196:0:0:0:0:
36,192,187115,128,0,187196:0:0:0:0:
256,192,187115,128,0,187196:0:0:0:0:
402,192,187115,128,0,187196:0:0:0:0:
475,192,187115,128,0,187196:0:0:0:0:
329,192,187196,128,0,187278:0:0:0:0:
402,192,187278,128,0,187359:0:0:0:0:
475,192,187278,128,0,187359:0:0:0:0:
256,192,187278,128,0,187359:0:0:0:0:
182,192,187278,128,0,187359:0:0:0:0:
36,192,187278,128,0,187359:0:0:0:0:
36,192,187441,128,0,187685:0:0:0:0:
109,192,187441,128,0,187685:0:0:0:0:
182,192,187441,128,0,187685:0:0:0:0:
256,192,187441,128,0,187685:0:0:0:0:
329,192,187441,128,0,187685:0:0:0:0:
402,192,187441,128,0,187685:0:0:0:0:
475,192,187441,128,0,187685:0:0:0:0:
329,192,187767,128,0,188011:0:0:0:0:
402,192,187767,128,0,188011:0:0:0:0:
475,192,187767,128,0,188011:0:0:0:0:
256,192,187767,128,0,188011:0:0:0:0:
109,192,187767,128,0,188011:0:0:0:0:
182,192,187767,128,0,188011:0:0:0:0:
36,192,187767,128,0,188011:0:0:0:0:
109,192,188093,128,0,188337:0:0:0:0:
182,192,188093,128,0,188337:0:0:0:0:
36,192,188093,128,0,188337:0:0:0:0:
256,192,188093,128,0,188337:0:0:0:0:
329,192,188093,128,0,188337:0:0:0:0:
402,192,188093,128,0,188337:0:0:0:0:
475,192,188093,128,0,188337:0:0:0:0:
329,192,188419,128,0,188663:0:0:0:0:
402,192,188419,128,0,188663:0:0:0:0:
475,192,188419,128,0,188663:0:0:0:0:
256,192,188419,128,0,188663:0:0:0:0:
109,192,188419,128,0,188663:0:0:0:0:
182,192,188419,128,0,188663:0:0:0:0:
36,192,188419,128,0,188663:0:0:0:0:
402,192,188745,128,0,188827:0:0:0:0:
329,192,188745,128,0,188827:0:0:0:0:
475,192,188745,128,0,188827:0:0:0:0:
256,192,188745,128,0,188827:0:0:0:0:
182,192,188745,128,0,188827:0:0:0:0:
109,192,188745,128,0,188827:0:0:0:0:
36,192,188745,128,0,188827:0:0:0:0:
402,192,188908,128,0,188990:0:0:0:0:
329,192,188908,128,0,188990:0:0:0:0:
475,192,188908,128,0,188990:0:0:0:0:
256,192,188908,128,0,188990:0:0:0:0:
182,192,188908,128,0,188990:0:0:0:0:
109,192,188908,128,0,188990:0:0:0:0:
36,192,188908,128,0,188990:0:0:0:0:
182,192,189071,128,0,189153:0:0:0:0:
109,192,189071,128,0,189153:0:0:0:0:
36,192,189071,128,0,189153:0:0:0:0:
256,192,189071,128,0,189153:0:0:0:0:
402,192,189071,128,0,189153:0:0:0:0:
329,192,189071,128,0,189153:0:0:0:0:
475,192,189071,128,0,189153:0:0:0:0:
402,192,189234,128,0,189479:0:0:0:0:
475,192,189234,128,0,189479:0:0:0:0:
256,192,189234,128,0,189479:0:0:0:0:
109,192,189234,128,0,189479:0:0:0:0:
182,192,189234,128,0,189479:0:0:0:0:
36,192,189234,128,0,189479:0:0:0:0:
329,192,189234,128,0,189479:0:0:0:0:
402,192,189560,1,0,0:0:0:0:
475,192,189560,1,0,0:0:0:0:
36,192,189560,1,0,0:0:0:0:
109,192,189560,1,0,0:0:0:0:
182,192,189642,1,0,0:0:0:0:
329,192,189642,1,0,0:0:0:0:
256,192,189642,1,0,0:0:0:0:
402,192,189723,1,0,0:0:0:0:
475,192,189723,1,0,0:0:0:0:
36,192,189723,1,0,0:0:0:0:
109,192,189723,1,0,0:0:0:0:
329,192,189805,1,0,0:0:0:0:
182,192,189805,1,0,0:0:0:0:
256,192,189805,1,0,0:0:0:0:
109,192,189886,1,0,0:0:0:0:
475,192,189886,1,0,0:0:0:0:
36,192,189886,1,0,0:0:0:0:
402,192,189886,1,0,0:0:0:0:
256,192,189968,1,0,0:0:0:0:
182,192,189968,1,0,0:0:0:0:
329,192,189968,1,0,0:0:0:0:
329,192,190049,128,0,190131:0:0:0:0:
402,192,190049,128,0,190294:0:0:0:0:
475,192,190049,128,0,190131:0:0:0:0:
109,192,190049,128,0,190212:0:0:0:0:
36,192,190049,128,0,190131:0:0:0:0:
182,192,190131,128,0,190212:0:0:0:0:
256,192,190131,128,0,190375:0:0:0:0:
475,192,190212,128,0,190294:0:0:0:0:
329,192,190212,128,0,190294:0:0:0:0:
36,192,190212,128,0,190294:0:0:0:0:
109,192,190294,128,0,190620:0:0:0:0:
182,192,190294,128,0,190375:0:0:0:0:
402,192,190375,128,0,190457:0:0:0:0:
329,192,190375,128,0,190538:0:0:0:0:
36,192,190375,128,0,190457:0:0:0:0:
475,192,190375,128,0,190457:0:0:0:0:
256,192,190457,128,0,190538:0:0:0:0:
182,192,190457,128,0,190620:0:0:0:0:
475,192,190538,128,0,190620:0:0:0:0:
402,192,190538,128,0,190702:0:0:0:0:
36,192,190538,128,0,190620:0:0:0:0:
329,192,190620,128,0,190783:0:0:0:0:
256,192,190620,128,0,190702:0:0:0:0:
109,192,190702,128,0,190865:0:0:0:0:
475,192,190702,128,0,190946:0:0:0:0:
36,192,190702,128,0,190783:0:0:0:0:
182,192,190702,128,0,190783:0:0:0:0:
256,192,190783,128,0,190865:0:0:0:0:
402,192,190783,128,0,190946:0:0:0:0:
329,192,190865,128,0,190946:0:0:0:0:
182,192,190865,128,0,190946:0:0:0:0:
36,192,190865,128,0,191028:0:0:0:0:
109,192,190946,128,0,191272:0:0:0:0:
256,192,190946,128,0,191028:0:0:0:0:
329,192,191028,128,0,191191:0:0:0:0:
402,192,191028,128,0,191109:0:0:0:0:
182,192,191028,128,0,191109:0:0:0:0:
475,192,191028,128,0,191109:0:0:0:0:
256,192,191109,128,0,191191:0:0:0:0:
36,192,191109,128,0,191272:0:0:0:0:
182,192,191191,128,0,191272:0:0:0:0:
475,192,191191,128,0,191272:0:0:0:0:
402,192,191191,128,0,191435:0:0:0:0:
256,192,191272,128,0,191354:0:0:0:0:
329,192,191272,128,0,191354:0:0:0:0:
36,192,191354,128,0,191598:0:0:0:0:
109,192,191354,128,0,191435:0:0:0:0:
182,192,191354,128,0,191517:0:0:0:0:
475,192,191354,128,0,191435:0:0:0:0:
329,192,191435,128,0,191598:0:0:0:0:
256,192,191435,128,0,191517:0:0:0:0:
402,192,191517,128,0,191761:0:0:0:0:
475,192,191517,128,0,191598:0:0:0:0:
109,192,191517,128,0,191598:0:0:0:0:
182,192,191598,128,0,191680:0:0:0:0:
256,192,191598,128,0,191680:0:0:0:0:
109,192,191680,128,0,191761:0:0:0:0:
36,192,191680,128,0,191761:0:0:0:0:
329,192,191680,128,0,191843:0:0:0:0:
475,192,191680,128,0,191761:0:0:0:0:
256,192,191761,128,0,191843:0:0:0:0:
182,192,191761,128,0,191924:0:0:0:0:
36,192,191843,128,0,191924:0:0:0:0:
109,192,191843,128,0,192087:0:0:0:0:
475,192,191843,128,0,191924:0:0:0:0:
402,192,191843,128,0,192006:0:0:0:0:
256,192,191924,128,0,192087:0:0:0:0:
329,192,191924,128,0,192006:0:0:0:0:
36,192,192006,128,0,192087:0:0:0:0:
182,192,192006,128,0,192087:0:0:0:0:
475,192,192006,128,0,192087:0:0:0:0:
329,192,192087,128,0,192169:0:0:0:0:
402,192,192087,128,0,192250:0:0:0:0:
475,192,192169,128,0,192250:0:0:0:0:
256,192,192169,128,0,192250:0:0:0:0:
109,192,192169,128,0,192250:0:0:0:0:
182,192,192169,128,0,192332:0:0:0:0:
36,192,192169,128,0,192250:0:0:0:0:
329,192,192250,128,0,192413:0:0:0:0:
402,192,192332,128,0,192495:0:0:0:0:
475,192,192332,128,0,192413:0:0:0:0:
256,192,192332,128,0,192413:0:0:0:0:
109,192,192332,128,0,192413:0:0:0:0:
36,192,192332,128,0,192413:0:0:0:0:
182,192,192413,128,0,192495:0:0:0:0:
475,192,192495,128,0,192577:0:0:0:0:
329,192,192495,128,0,192577:0:0:0:0:
36,192,192495,128,0,192577:0:0:0:0:
256,192,192495,128,0,192577:0:0:0:0:
109,192,192495,128,0,192577:0:0:0:0:
402,192,192577,1,0,0:0:0:0:
182,192,192577,1,0,0:0:0:0:
36,192,192658,1,0,0:0:0:0:
109,192,192658,1,0,0:0:0:0:
329,192,192658,1,0,0:0:0:0:
256,192,192658,1,0,0:0:0:0:
475,192,192658,1,0,0:0:0:0:
402,192,192740,1,0,0:0:0:0:
182,192,192740,1,0,0:0:0:0:
329,192,192821,1,0,0:0:0:0:
109,192,192821,1,0,0:0:0:0:
256,192,192903,1,0,0:0:0:0:
36,192,192903,1,0,0:0:0:0:
36,192,192984,128,0,193229:0:0:0:0:
109,192,192984,128,0,193229:0:0:0:0:
182,192,192984,128,0,193229:0:0:0:0:
256,192,192984,128,0,193229:0:0:0:0:
329,192,192984,128,0,193229:0:0:0:0:
402,192,192984,128,0,193229:0:0:0:0:
475,192,192984,128,0,193229:0:0:0:0:
36,192,193310,1,0,0:0:0:0:
182,192,193310,1,0,0:0:0:0:
109,192,193392,1,0,0:0:0:0:
256,192,193392,1,0,0:0:0:0:
182,192,193473,1,0,0:0:0:0:
329,192,193473,1,0,0:0:0:0:
256,192,193555,1,0,0:0:0:0:
402,192,193555,1,0,0:0:0:0:
329,192,193636,128,0,193881:0:0:0:0:
182,192,193636,128,0,193881:0:0:0:0:
402,192,193636,128,0,193881:0:0:0:0:
475,192,193636,128,0,193881:0:0:0:0:
256,192,193636,128,0,193881:0:0:0:0:
109,192,193636,128,0,193881:0:0:0:0:
36,192,193636,128,0,193881:0:0:0:0:
109,192,193962,1,0,0:0:0:0:
36,192,193962,128,0,194044:0:0:0:0:
329,192,193962,128,0,194044:0:0:0:0:
402,192,193962,128,0,194044:0:0:0:0:
475,192,193962,128,0,194044:0:0:0:0:
182,192,193983,1,0,0:0:0:0:
256,192,194003,1,0,0:0:0:0:
182,192,194125,1,0,0:0:0:0:
402,192,194125,128,0,194207:0:0:0:0:
475,192,194125,128,0,194207:0:0:0:0:
36,192,194125,128,0,194207:0:0:0:0:
109,192,194125,128,0,194207:0:0:0:0:
256,192,194146,1,0,0:0:0:0:
329,192,194166,1,0,0:0:0:0:
475,192,194288,1,0,0:0:0:0:
256,192,194288,128,0,194370:0:0:0:0:
182,192,194288,128,0,194370:0:0:0:0:
109,192,194288,128,0,194370:0:0:0:0:
36,192,194288,128,0,194370:0:0:0:0:
402,192,194309,1,0,0:0:0:0:
329,192,194329,1,0,0:0:0:0:
256,192,194452,1,0,0:0:0:0:
475,192,194452,128,0,194778:0:0:0:0:
402,192,194452,128,0,194778:0:0:0:0:
36,192,194452,128,0,194778:0:0:0:0:
329,192,194452,128,0,194778:0:0:0:0:
182,192,194472,1,0,0:0:0:0:
109,192,194492,1,0,0:0:0:0:
109,192,194778,1,0,0:0:0:0:
256,192,194778,1,0,0:0:0:0:
182,192,194859,1,0,0:0:0:0:
329,192,194859,1,0,0:0:0:0:
256,192,194941,1,0,0:0:0:0:
402,192,194941,1,0,0:0:0:0:
329,192,195022,1,0,0:0:0:0:
182,192,195022,1,0,0:0:0:0:
256,192,195104,1,0,0:0:0:0:
109,192,195104,1,0,0:0:0:0:
182,192,195185,1,0,0:0:0:0:
329,192,195185,1,0,0:0:0:0:
475,192,195267,1,0,0:0:0:0:
256,192,195267,1,0,0:0:0:0:
36,192,195267,1,0,0:0:0:0:
109,192,195348,1,0,0:0:0:0:
402,192,195348,1,0,0:0:0:0:
182,192,195430,1,0,0:0:0:0:
329,192,195430,1,0,0:0:0:0:
402,192,195511,1,0,0:0:0:0:
256,192,195511,1,0,0:0:0:0:
475,192,195593,1,0,0:0:0:0:
36,192,195593,1,0,0:0:0:0:
109,192,195593,1,0,0:0:0:0:
182,192,195674,1,0,0:0:0:0:
329,192,195674,1,0,0:0:0:0:
256,192,195756,1,0,0:0:0:0:
402,192,195756,1,0,0:0:0:0:
329,192,195837,1,0,0:0:0:0:
182,192,195837,1,0,0:0:0:0:
256,192,195919,1,0,0:0:0:0:
475,192,195919,1,0,0:0:0:0:
36,192,195919,1,0,0:0:0:0:
402,192,196000,1,0,0:0:0:0:
109,192,196000,1,0,0:0:0:0:
182,192,196082,1,0,0:0:0:0:
329,192,196082,1,0,0:0:0:0:
109,192,196163,1,0,0:0:0:0:
256,192,196163,1,0,0:0:0:0:
36,192,196245,1,0,0:0:0:0:
182,192,196245,1,0,0:0:0:0:
475,192,196245,1,0,0:0:0:0:
402,192,196245,1,0,0:0:0:0:
329,192,196571,128,0,196653:0:0:0:0:
109,192,196571,128,0,196653:0:0:0:0:
402,192,196571,128,0,196653:0:0:0:0:
475,192,196571,128,0,196653:0:0:0:0:
182,192,196653,128,0,196734:0:0:0:0:
36,192,196734,128,0,196816:0:0:0:0:
402,192,196734,128,0,196816:0:0:0:0:
256,192,196734,128,0,196816:0:0:0:0:
329,192,196816,128,0,196897:0:0:0:0:
36,192,196897,128,0,196979:0:0:0:0:
256,192,196897,128,0,196979:0:0:0:0:
109,192,196897,128,0,196979:0:0:0:0:
475,192,196897,128,0,196979:0:0:0:0:
182,192,196979,128,0,197060:0:0:0:0:
402,192,197060,128,0,197142:0:0:0:0:
256,192,197060,128,0,197142:0:0:0:0:
109,192,197060,128,0,197142:0:0:0:0:
329,192,197142,128,0,197223:0:0:0:0:
36,192,197223,128,0,197305:0:0:0:0:
109,192,197223,128,0,197305:0:0:0:0:
475,192,197223,128,0,197305:0:0:0:0:
182,192,197223,128,0,197468:0:0:0:0:
402,192,197223,128,0,197305:0:0:0:0:
402,192,197386,128,0,197468:0:0:0:0:
329,192,197386,128,0,197631:0:0:0:0:
256,192,197386,128,0,197468:0:0:0:0:
109,192,197386,128,0,197468:0:0:0:0:
36,192,197549,128,0,197631:0:0:0:0:
256,192,197549,128,0,197631:0:0:0:0:
182,192,197549,128,0,197631:0:0:0:0:
475,192,197549,128,0,197794:0:0:0:0:
329,192,197712,128,0,197794:0:0:0:0:
182,192,197712,128,0,197794:0:0:0:0:
109,192,197712,128,0,197957:0:0:0:0:
402,192,197712,128,0,197794:0:0:0:0:
256,192,197875,128,0,197957:0:0:0:0:
36,192,197875,128,0,197957:0:0:0:0:
402,192,197875,128,0,197957:0:0:0:0:
475,192,197875,128,0,197957:0:0:0:0:
329,192,197957,128,0,198038:0:0:0:0:
109,192,198038,128,0,198120:0:0:0:0:
256,192,198038,128,0,198120:0:0:0:0:
475,192,198038,128,0,198120:0:0:0:0:
182,192,198120,128,0,198202:0:0:0:0:
475,192,198202,128,0,198283:0:0:0:0:
36,192,198202,128,0,198283:0:0:0:0:
256,192,198202,128,0,198283:0:0:0:0:
402,192,198202,128,0,198283:0:0:0:0:
329,192,198283,128,0,198365:0:0:0:0:
402,192,198365,128,0,198446:0:0:0:0:
256,192,198365,128,0,198446:0:0:0:0:
109,192,198365,128,0,198446:0:0:0:0:
182,192,198446,128,0,198528:0:0:0:0:
109,192,198528,128,0,198609:0:0:0:0:
402,192,198528,128,0,198609:0:0:0:0:
329,192,198528,128,0,198772:0:0:0:0:
475,192,198528,128,0,198609:0:0:0:0:
36,192,198528,128,0,198609:0:0:0:0:
182,192,198691,128,0,198935:0:0:0:0:
402,192,198691,128,0,198772:0:0:0:0:
109,192,198691,128,0,198772:0:0:0:0:
256,192,198691,128,0,198772:0:0:0:0:
36,192,198854,128,0,199098:0:0:0:0:
475,192,198854,128,0,198935:0:0:0:0:
329,192,198854,1,0,0:0:0:0:
256,192,198854,128,0,198935:0:0:0:0:
256,192,199017,1,0,0:0:0:0:
475,192,199017,128,0,199261:0:0:0:0:
182,192,199017,128,0,199098:0:0:0:0:
109,192,199017,128,0,199098:0:0:0:0:
109,192,199180,128,0,199587:0:0:0:0:
402,192,199180,128,0,199261:0:0:0:0:
256,192,199180,1,0,0:0:0:0:
36,192,199180,128,0,199669:0:0:0:0:
182,192,199261,128,0,199506:0:0:0:0:
329,192,199261,1,0,0:0:0:0:
256,192,199343,128,0,199424:0:0:0:0:
402,192,199343,1,0,0:0:0:0:
329,192,199424,1,0,0:0:0:0:
475,192,199424,128,0,199913:0:0:0:0:
256,192,199506,1,0,0:0:0:0:
402,192,199506,128,0,199832:0:0:0:0:
182,192,199587,1,0,0:0:0:0:
329,192,199587,128,0,199832:0:0:0:0:
109,192,199669,1,0,0:0:0:0:
256,192,199669,128,0,199750:0:0:0:0:
182,192,199750,1,0,0:0:0:0:
36,192,199750,1,0,0:0:0:0:
256,192,199832,1,0,0:0:0:0:
109,192,199832,128,0,200240:0:0:0:0:
329,192,199913,1,0,0:0:0:0:
182,192,199913,128,0,200158:0:0:0:0:
36,192,199913,128,0,200321:0:0:0:0:
402,192,199995,1,0,0:0:0:0:
256,192,199995,128,0,200077:0:0:0:0:
475,192,199995,1,0,0:0:0:0:
329,192,200077,1,0,0:0:0:0:
256,192,200158,1,0,0:0:0:0:
402,192,200158,128,0,200484:0:0:0:0:
475,192,200158,1,0,0:0:0:0:
182,192,200240,1,0,0:0:0:0:
329,192,200240,128,0,200484:0:0:0:0:
109,192,200321,1,0,0:0:0:0:
256,192,200321,128,0,200403:0:0:0:0:
182,192,200403,1,0,0:0:0:0:
36,192,200484,128,0,200729:0:0:0:0:
256,192,200484,128,0,200729:0:0:0:0:
475,192,200484,128,0,200566:0:0:0:0:
109,192,200484,1,0,0:0:0:0:
402,192,200647,128,0,200729:0:0:0:0:
329,192,200647,128,0,200729:0:0:0:0:
109,192,200647,128,0,200729:0:0:0:0:
182,192,200647,128,0,200729:0:0:0:0:
475,192,200810,128,0,200892:0:0:0:0:
402,192,200810,128,0,200892:0:0:0:0:
182,192,200810,128,0,201055:0:0:0:0:
109,192,200810,128,0,201055:0:0:0:0:
402,192,200973,128,0,201055:0:0:0:0:
329,192,200973,128,0,201055:0:0:0:0:
36,192,200973,128,0,201055:0:0:0:0:
256,192,200973,128,0,201055:0:0:0:0:
475,192,201136,128,0,201218:0:0:0:0:
36,192,201136,128,0,201381:0:0:0:0:
256,192,201136,128,0,201381:0:0:0:0:
402,192,201136,128,0,201218:0:0:0:0:
182,192,201299,128,0,201381:0:0:0:0:
329,192,201299,1,0,0:0:0:0:
475,192,201299,1,0,0:0:0:0:
109,192,201299,128,0,201381:0:0:0:0:
402,192,201381,1,0,0:0:0:0:
36,192,201462,1,0,0:0:0:0:
109,192,201462,1,0,0:0:0:0:
329,192,201462,1,0,0:0:0:0:
256,192,201462,1,0,0:0:0:0:
475,192,201544,1,0,0:0:0:0:
182,192,201544,1,0,0:0:0:0:
402,192,201544,1,0,0:0:0:0:
329,192,201625,1,0,0:0:0:0:
256,192,201625,1,0,0:0:0:0:
36,192,201625,1,0,0:0:0:0:
109,192,201707,1,0,0:0:0:0:
402,192,201707,1,0,0:0:0:0:
329,192,201788,128,0,201829:0:0:0:0:
475,192,201788,1,0,0:0:0:0:
256,192,201788,128,0,201870:0:0:0:0:
182,192,201788,128,0,201911:0:0:0:0:
109,192,201870,128,0,201952:0:0:0:0:
36,192,201870,128,0,201911:0:0:0:0:
475,192,201952,128,0,202074:0:0:0:0:
402,192,201952,128,0,202033:0:0:0:0:
329,192,201952,128,0,201992:0:0:0:0:
182,192,202033,128,0,202115:0:0:0:0:
256,192,202033,128,0,202074:0:0:0:0:
329,192,202115,128,0,202196:0:0:0:0:
402,192,202115,128,0,202237:0:0:0:0:
36,192,202115,128,0,202155:0:0:0:0:
109,192,202196,128,0,202278:0:0:0:0:
182,192,202196,128,0,202237:0:0:0:0:
256,192,202278,128,0,202318:0:0:0:0:
475,192,202278,128,0,202400:0:0:0:0:
329,192,202278,128,0,202359:0:0:0:0:
36,192,202359,128,0,202441:0:0:0:0:
182,192,202359,128,0,202400:0:0:0:0:
256,192,202441,128,0,202604:0:0:0:0:
402,192,202441,128,0,202522:0:0:0:0:
329,192,202441,128,0,202563:0:0:0:0:
475,192,202441,128,0,202481:0:0:0:0:
109,192,202441,128,0,202522:0:0:0:0:
402,192,202604,128,0,202685:0:0:0:0:
109,192,202604,128,0,202685:0:0:0:0:
182,192,202604,128,0,202726:0:0:0:0:
36,192,202604,128,0,202644:0:0:0:0:
475,192,202604,128,0,202767:0:0:0:0:
402,192,202767,128,0,202930:0:0:0:0:
256,192,202767,128,0,202848:0:0:0:0:
329,192,202767,128,0,202889:0:0:0:0:
182,192,202767,128,0,202808:0:0:0:0:
36,192,202767,128,0,202848:0:0:0:0:
475,192,202930,128,0,203011:0:0:0:0:
36,192,202930,128,0,203093:0:0:0:0:
182,192,202930,128,0,203011:0:0:0:0:
256,192,202930,128,0,202971:0:0:0:0:
109,192,202930,128,0,203052:0:0:0:0:
329,192,203093,128,0,203215:0:0:0:0:
182,192,203093,128,0,203134:0:0:0:0:
256,192,203093,128,0,203174:0:0:0:0:
402,192,203174,128,0,203256:0:0:0:0:
475,192,203174,128,0,203215:0:0:0:0:
109,192,203256,128,0,203337:0:0:0:0:
182,192,203256,128,0,203297:0:0:0:0:
36,192,203256,128,0,203378:0:0:0:0:
329,192,203337,128,0,203419:0:0:0:0:
256,192,203337,128,0,203378:0:0:0:0:
475,192,203419,128,0,203460:0:0:0:0:
109,192,203419,128,0,203541:0:0:0:0:
182,192,203419,128,0,203500:0:0:0:0:
329,192,203500,128,0,203541:0:0:0:0:
402,192,203500,128,0,203582:0:0:0:0:
36,192,203582,128,0,203704:0:0:0:0:
182,192,203582,128,0,203663:0:0:0:0:
256,192,203582,128,0,203623:0:0:0:0:
329,192,203663,128,0,203704:0:0:0:0:
475,192,203663,128,0,203745:0:0:0:0:
109,192,203745,128,0,203827:0:0:0:0:
402,192,203745,1,0,0:0:0:0:
36,192,203745,128,0,203827:0:0:0:0:
182,192,203745,128,0,203827:0:0:0:0:
256,192,203745,128,0,203827:0:0:0:0:
329,192,203908,128,0,203990:0:0:0:0:
36,192,203908,128,0,203990:0:0:0:0:
109,192,203908,1,0,0:0:0:0:
402,192,203908,128,0,203990:0:0:0:0:
475,192,203908,128,0,203990:0:0:0:0:
182,192,203990,1,0,0:0:0:0:
109,192,204071,128,0,204153:0:0:0:0:
256,192,204071,1,0,0:0:0:0:
402,192,204071,128,0,204153:0:0:0:0:
475,192,204071,128,0,204153:0:0:0:0:
36,192,204071,128,0,204153:0:0:0:0:
329,192,204153,1,0,0:0:0:0:
109,192,204234,128,0,204316:0:0:0:0:
36,192,204234,128,0,204316:0:0:0:0:
402,192,204234,1,0,0:0:0:0:
475,192,204234,128,0,204316:0:0:0:0:
182,192,204234,128,0,204316:0:0:0:0:
256,192,204234,128,0,204316:0:0:0:0:
329,192,204316,1,0,0:0:0:0:
256,192,204397,1,0,0:0:0:0:
36,192,204397,1,0,0:0:0:0:
182,192,204479,1,0,0:0:0:0:
329,192,204560,1,0,0:0:0:0:
329,192,204642,1,0,0:0:0:0:
256,192,204723,1,0,0:0:0:0:
475,192,204723,128,0,205049:0:0:0:0:
36,192,204723,1,0,0:0:0:0:
402,192,204723,1,0,0:0:0:0:
182,192,204723,1,0,0:0:0:0:
109,192,204723,1,0,0:0:0:0:
182,192,204886,1,0,0:0:0:0:
256,192,205049,1,0,0:0:0:0:
36,192,205049,1,0,0:0:0:0:
182,192,205212,1,0,0:0:0:0:
182,192,205294,1,0,0:0:0:0:
475,192,205375,1,0,0:0:0:0:
329,192,205375,1,0,0:0:0:0:
256,192,205375,1,0,0:0:0:0:
36,192,205375,128,0,205702:0:0:0:0:
109,192,205375,1,0,0:0:0:0:
402,192,205375,1,0,0:0:0:0:
402,192,205538,1,0,0:0:0:0:
475,192,205538,1,0,0:0:0:0:
329,192,205620,1,0,0:0:0:0:
109,192,205702,1,0,0:0:0:0:
402,192,205702,1,0,0:0:0:0:
475,192,205702,128,0,205865:0:0:0:0:
256,192,205702,1,0,0:0:0:0:
182,192,205702,1,0,0:0:0:0:
36,192,205865,1,0,0:0:0:0:
329,192,205865,128,0,206028:0:0:0:0:
109,192,205865,1,0,0:0:0:0:
402,192,205865,1,0,0:0:0:0:
182,192,205865,1,0,0:0:0:0:
256,192,205865,1,0,0:0:0:0:
36,192,206028,1,0,0:0:0:0:
402,192,206028,1,0,0:0:0:0:
256,192,206028,1,0,0:0:0:0:
182,192,206028,128,0,206191:0:0:0:0:
475,192,206028,1,0,0:0:0:0:
109,192,206028,1,0,0:0:0:0:
256,192,206191,1,0,0:0:0:0:
402,192,206191,1,0,0:0:0:0:
109,192,206191,1,0,0:0:0:0:
475,192,206191,128,0,207006:0:0:0:0:
329,192,206191,1,0,0:0:0:0:
36,192,206191,1,0,0:0:0:0:
36,192,206517,1,0,0:0:0:0:
109,192,206517,1,0,0:0:0:0:
256,192,206517,1,0,0:0:0:0:
402,192,206598,1,0,0:0:0:0:
329,192,206598,1,0,0:0:0:0:
256,192,206680,1,0,0:0:0:0:
109,192,206680,1,0,0:0:0:0:
36,192,206680,1,0,0:0:0:0:
402,192,206761,1,0,0:0:0:0:
329,192,206761,1,0,0:0:0:0:
256,192,206843,1,0,0:0:0:0:
109,192,206843,1,0,0:0:0:0:
36,192,206843,1,0,0:0:0:0:
329,192,206924,1,0,0:0:0:0:
402,192,207006,1,0,0:0:0:0:
36,192,207006,1,0,0:0:0:0:
109,192,207087,1,0,0:0:0:0:
329,192,207087,1,0,0:0:0:0:
182,192,207169,1,0,0:0:0:0:
475,192,207169,1,0,0:0:0:0:
256,192,207250,1,0,0:0:0:0:
402,192,207250,1,0,0:0:0:0:
329,192,207332,1,0,0:0:0:0:
36,192,207332,1,0,0:0:0:0:
109,192,207413,1,0,0:0:0:0:
182,192,207413,1,0,0:0:0:0:
256,192,207495,1,0,0:0:0:0:
475,192,207495,1,0,0:0:0:0:
402,192,207577,1,0,0:0:0:0:
329,192,207577,1,0,0:0:0:0:
182,192,207658,1,0,0:0:0:0:
36,192,207658,1,0,0:0:0:0:
256,192,207740,1,0,0:0:0:0:
475,192,207740,1,0,0:0:0:0:
109,192,207821,1,0,0:0:0:0:
402,192,207821,1,0,0:0:0:0:
182,192,207903,1,0,0:0:0:0:
329,192,207903,1,0,0:0:0:0:
256,192,207984,1,0,0:0:0:0:
475,192,207984,1,0,0:0:0:0:
36,192,207984,1,0,0:0:0:0:
402,192,208066,1,0,0:0:0:0:
329,192,208066,1,0,0:0:0:0:
109,192,208147,128,0,213650:0:0:0:0:
182,192,208147,128,0,213650:0:0:0:0:
36,192,208147,128,0,213650:0:0:0:0:
475,192,208188,128,0,211897:0:0:0:0:
402,192,208188,128,0,211897:0:0:0:0:
329,192,208188,128,0,211897:0:0:0:0:
475,192,213446,128,0,213650:0:0:0:0:
402,192,213487,128,0,213650:0:0:0:0:
329,192,213528,128,0,213650:0:0:0:0:
256,192,213568,128,0,213650:0:0:0:0:
