osu file format v14

[General]
AudioFilename: audio.mp3
AudioLeadIn: 1500
PreviewTime: 54129
Countdown: 0
SampleSet: Soft
StackLeniency: 0.7
Mode: 0
LetterboxInBreaks: 0
WidescreenStoryboard: 1

[Editor]
DistanceSpacing: 0.8
BeatDivisor: 4
GridSize: 4
TimelineZoom: 1

[Metadata]
Title:Himitsu no Door kara Ai ni Kite (TV Size)
TitleUnicode:秘密の扉から会いにきて (TV Size)
Artist:Tamura Yukari
ArtistUnicode:田村ゆかり
Creator:Fycho
Version:Normal
Source:のうりん
Tags:cRyo cRyo[iceeicee] japanese anime pop j-pop jpop nourin op opening
BeatmapID:4532401
BeatmapSetID:2151206

[Difficulty]
HPDrainRate:3
CircleSize:3
OverallDifficulty:3
ApproachRate:5
SliderMultiplier:1.2
SliderTickRate:1

[Events]
//Background and Video events
Video,0,"nourin-op.avi"
0,0,"BG1.jpg",0,0
//Break Periods
//Storyboard Layer 0 (Background)
//Storyboard Layer 1 (Fail)
//Storyboard Layer 2 (Pass)
//Storyboard Layer 3 (Foreground)
//Storyboard Layer 4 (Overlay)
//Storyboard Sound Samples

[TimingPoints]
3,326.086956521739,4,2,1,70,1,0
654,326.086956521739,4,2,3,50,1,0
3262,-100,4,2,3,40,0,0
3344,-100,4,2,3,50,0,0
4730,-100,4,2,3,30,0,0
5056,-100,4,1,3,50,0,0
5382,-100,4,2,3,50,0,0
5708,-100,4,1,3,50,0,0
5871,-100,4,2,3,60,0,0
11088,-100,4,2,6,60,0,0
11577,-100,4,2,2,70,0,0
12067,-100,4,1,1,60,0,0
12393,-100,4,2,3,65,0,0
15001,-100,4,2,3,70,0,0
17121,-100,4,2,2,50,0,0
17610,-100,4,2,2,65,0,0
20219,-100,4,2,2,70,0,0
20300,-100,4,2,1,60,0,0
20545,-100,4,2,2,70,0,0
20971,-100,4,2,1,60,0,0
21197,-100,4,2,2,70,0,0
21442,-100,4,2,3,50,0,0
22827,-100,4,1,3,40,0,0
23317,-100,4,2,1,60,0,0
23806,-100,4,2,4,50,0,0
23969,-100,4,2,1,60,0,0
25110,-100,4,2,4,50,0,0
25192,-100,4,2,1,60,0,0
25762,-100,4,2,2,40,0,0
25925,-100,4,2,1,60,0,0
26414,-100,4,2,4,50,0,0
26577,-100,4,2,2,70,0,0
27719,-100,4,2,4,60,0,0
27882,-100,4,2,2,70,0,0
28045,-100,4,2,1,60,0,0
29023,-100,4,2,4,60,0,0
29349,-100,4,2,1,60,0,0
30327,-100,4,2,4,60,0,0
30490,-100,4,2,1,60,0,0
31469,-100,4,2,4,70,0,0
31632,-100,4,2,1,80,0,0
31795,-100,4,2,3,50,0,0
32610,-100,4,2,1,50,0,0
33262,-100,4,2,3,60,0,0
33344,-100,4,2,4,60,0,0
37012,-100,4,2,3,70,0,0
37501,-100,4,2,4,60,0,0
37827,-100,4,2,3,60,0,0
38153,-100,4,2,4,60,0,0
38317,-100,4,2,3,60,0,0
38561,-100,4,2,4,60,0,0
39784,-100,4,2,3,70,0,0
40110,-100,4,2,4,60,0,0
41088,-100,4,2,3,80,0,0
41170,-100,4,2,3,70,0,0
41414,-100,4,2,4,60,0,0
41577,-100,4,2,3,60,0,0
41740,-100,4,2,4,60,0,0
42393,-100,4,2,5,50,0,0
43208,-100,4,2,1,50,0,0
43697,-100,4,2,1,60,0,0
43860,-100,4,2,4,60,0,0
45980,-100,4,2,3,60,0,0
46306,-100,4,2,4,60,0,0
46958,-100,4,2,4,50,0,0
47121,-100,4,2,4,60,0,0
47610,-100,4,2,3,60,0,0
47773,-100,4,2,3,45,0,0
48099,-100,4,2,1,70,0,0
48425,-100,4,2,4,50,0,0
48833,-100,4,2,3,65,0,0
48996,-100,4,2,4,65,0,0
50056,-100,4,2,4,55,0,0
50219,-100,4,2,4,65,0,0
51197,-100,4,2,3,75,0,0
51523,-100,4,2,4,80,0,0
52012,-100,4,2,4,70,0,0
52175,-100,4,2,4,80,0,0
52501,-100,4,2,4,70,0,0
52827,-100,4,2,3,50,0,0
53317,-100,4,2,3,70,0,0
53806,-100,4,1,4,70,0,0
54132,-100,4,2,3,65,0,1
58045,-100,4,2,3,55,0,1
58208,-100,4,2,3,60,0,1
58371,-100,4,2,3,65,0,1
58534,-100,4,2,3,75,0,1
58860,-100,4,1,1,75,0,1
59349,-100,4,2,3,65,0,1
61958,-100,4,2,1,65,0,1
62284,-100,4,2,3,75,0,1
62384,-100,4,2,3,65,0,1
62610,-100,4,2,1,65,0,1
62936,-100,4,2,3,75,0,1
63036,-100,4,2,3,65,0,1
63262,-100,4,2,3,55,0,1
63425,-100,4,2,3,60,0,1
63588,-100,4,2,3,65,0,1
63751,-100,4,2,3,75,0,1
63996,-100,4,2,3,65,0,1
68480,-100,4,2,3,55,0,1
68643,-100,4,2,3,60,0,1
68806,-100,4,2,3,65,0,1
68969,-100,4,1,3,75,0,1
69295,-100,4,1,3,45,0,1
69784,-100,4,2,3,65,0,1
72393,-100,4,2,1,65,0,1
72719,-100,4,2,3,75,0,1
72819,-100,4,2,3,65,0,1
73045,-100,4,2,1,65,0,1
73371,-100,4,2,3,75,0,1
73471,-100,4,2,3,65,0,1
73697,-100,4,2,3,55,0,1
73860,-100,4,2,3,60,0,1
74023,-100,4,2,3,65,0,1
74186,-100,4,2,3,75,0,1
74512,-100,4,2,1,75,0,1
75001,-100,4,2,6,60,0,0
75490,-100,4,2,6,70,0,0
75817,-100,4,2,3,80,0,0
76306,-100,4,2,3,70,0,0
78425,-100,4,2,1,70,0,0
78914,-100,4,2,3,70,0,0
78996,-100,4,2,1,80,0,0
79567,-100,4,2,2,80,0,0
79648,-100,4,2,1,80,0,0
79993,-100,4,2,3,60,0,0
80219,-100,4,2,3,50,0,0
80871,-100,4,2,3,60,0,0
81034,-100,4,1,1,40,0,0
81523,-100,4,2,1,40,0,0
81849,-100,4,2,1,35,0,0
82175,-100,4,2,1,30,0,0
82664,-100,4,1,7,70,0,0
82746,-100,4,2,7,5,0,0

[Colours]
Combo1 : 255,98,255
Combo2 : 124,124,190
Combo3 : 150,255,45
Combo4 : 64,255,255

[HitObjects]
440,152,654,6,0,P|373:142|311:99,1,120,4|2,0:0|0:3,0:0:0:0:
257,52,1305,2,0,P|220:58|190:75,1,60,2|2,0:3|0:2,0:0:0:0:
158,92,1631,1,2,0:3:0:0:
131,184,1957,6,0,P|155:219|155:295,1,120,0|2,1:0|0:0,0:0:0:0:
147,341,2446,1,2,0:3:0:0:
242,337,2772,1,2,0:0:0:0:
242,337,2935,2,0,P|302:333|358:373,1,120,2|4,0:3|1:0,0:0:0:0:
446,357,3587,5,2,0:2:0:0:
394,276,3913,1,2,2:3:0:0:
461,207,4239,1,2,0:2:0:0:
405,128,4566,6,0,B|209:140,2,180,4|0|2,1:0|1:0|0:0,0:0:0:0:
455,46,5870,5,4,0:0:0:0:
359,39,6196,1,2,0:3:0:0:
263,31,6522,2,0,L|199:26,2,60,2|0|2,0:3|0:3|0:3,0:0:0:0:
270,126,7174,6,0,P|258:165|253:248,1,120,6|2,0:3|0:3,0:0:0:0:
271,289,7663,1,2,0:3:0:0:
184,331,7989,1,2,0:3:0:0:
184,331,8152,2,0,P|125:363|50:353,1,120,2|2,0:3|0:3,0:0:0:0:
15,285,8805,5,2,0:3:0:0:
99,239,9131,1,2,0:3:0:0:
16,189,9457,1,2,0:3:0:0:
104,150,9783,5,2,0:3:0:0:
31,87,10109,1,2,0:3:0:0:
120,52,10435,2,0,P|179:47|231:74,1,120,2|2,0:3|0:3,0:0:0:0:
312,126,11087,5,8,0:1:0:0:
242,191,11413,2,0,P|202:235|202:315,1,120,8|0,0:1|0:0,0:0:0:0:
220,333,11902,1,4,1:0:0:0:
220,333,12066,1,4,1:2:0:0:
315,322,12392,6,0,P|371:318|435:346,1,120,4|0,0:0|1:0,0:0:0:0:
475,353,12881,2,0,P|492:290|477:237,1,120,2|0,0:0|0:0,0:0:0:0:
466,192,13370,2,0,P|466:152|476:120,1,60,0|2,1:0|0:0,0:0:0:0:
479,85,13696,6,0,P|423:64|346:78,1,120,4|0,0:0|1:0,0:0:0:0:
323,96,14185,2,0,P|269:123|200:104,1,120,2|2,0:0|0:0,0:0:0:0:
176,80,14674,2,0,L|104:100,1,60,2|2,1:2|0:0,0:0:0:0:
70,99,15000,6,0,P|42:151|58:219,1,120,4|0,0:0|1:0,0:0:0:0:
114,281,15652,1,4,0:0:0:0:
200,238,15979,1,0,1:0:0:0:
282,188,16305,6,0,P|323:189|348:198,1,60,2|2,0:3|0:2,0:0:0:0:
379,223,16631,2,0,P|391:250|392:279,1,60,2|2,0:3|0:2,0:0:0:0:
386,327,16957,2,0,P|329:357|262:347,1,120,2|0,0:3|1:0,0:0:0:0:
184,320,17609,6,0,L|44:301,1,120,4|8,0:0|0:0,0:0:0:0:
32,268,18098,2,0,P|30:221|60:145,1,120,2|2,0:0|0:0,0:0:0:0:
82,114,18587,1,8,0:0:0:0:
150,46,18913,6,0,L|181:182,1,120,4|8,0:0|2:0,0:0:0:0:
254,219,19566,1,0,0:0:0:0:
278,126,19892,1,8,2:2:0:0:
358,73,20218,6,0,P|387:67|417:67,1,60,2|2,2:0|0:0,0:0:0:0:
461,84,20544,1,4,2:2:0:0:
459,179,20870,2,0,P|453:208|453:238,1,60,2|2,2:0|0:0,0:0:0:0:
457,286,21196,1,4,0:0:0:0:
389,353,21522,6,0,L|332:333,1,60,2|2,1:3|1:3,0:0:0:0:
284,325,21848,2,0,L|227:346,1,60,2|2,1:3|1:3,0:0:0:0:
84,334,22500,1,0,0:0:0:0:
42,258,22826,6,0,P|65:178|62:128,1,120,4|2,0:2|2:0,0:0:0:0:
111,57,23479,2,0,P|185:44|244:45,1,120,2|8,0:0|0:0,0:0:0:0:
268,72,23968,2,0,L|402:61,2,120,2|2|2,2:0|2:0|2:0,0:0:0:0:
260,119,24783,1,2,2:0:0:0:
201,195,25109,1,8,2:0:0:0:
121,158,25435,6,0,P|85:202|85:282,1,120,2|2,0:0|2:0,0:0:0:0:
102,305,25924,1,2,0:0:0:0:
143,329,26087,2,0,P|197:335|257:306,1,120,2|8,0:0|2:0,0:0:0:0:
225,216,26739,5,2,0:0:0:0:
310,170,27066,1,2,0:0:0:0:
224,125,27392,1,2,0:0:0:0:
306,76,27718,2,0,L|378:74,1,60,8|2,2:0|0:0,0:0:0:0:
413,69,28044,6,0,L|429:193,1,120,4|0,0:0|0:0,0:0:0:0:
432,235,28533,1,2,0:0:0:0:
407,275,28696,2,0,P|341:269|283:295,1,120,2|8,0:0|0:0,0:0:0:0:
255,257,29185,6,0,P|199:269|138:280,2,120,2|2|2,0:0|0:0|0:0,0:0:0:0:
263,209,30000,2,0,P|275:141|231:81,1,120,2|8,0:0|0:0,0:0:0:0:
170,47,30652,5,4,0:0:0:0:
87,96,30979,1,0,0:0:0:0:
104,140,31142,2,0,L|89:277,1,120,2|8,0:0|0:0,0:0:0:0:
126,291,31631,2,0,P|216:312|261:333,1,120,2|2,0:0|0:3,0:0:0:0:
286,337,32120,6,0,L|349:314,2,60,2|2|2,0:3|0:3|0:3,0:0:0:0:
275,241,32772,2,0,L|338:218,2,60,2|2|0,0:0|0:0|0:0,0:0:0:0:
229,226,33261,6,0,P|228:161|214:98,1,120,4|8,0:0|0:0,0:0:0:0:
129,67,33913,1,2,0:0:0:0:
201,4,34239,1,8,0:0:0:0:
288,36,34566,6,0,L|418:31,1,120,2|8,2:0|0:0,0:0:0:0:
454,115,35218,1,2,2:0:0:0:
362,142,35544,1,8,0:0:0:0:
267,123,35870,6,0,P|250:197|264:253,1,120,2|8,0:0|0:0,0:0:0:0:
351,261,36522,1,2,0:0:0:0:
290,335,36848,1,8,0:0:0:0:
200,301,37174,6,0,L|73:296,1,120,2|12,3:0|0:0,0:0:0:0:
77,200,37826,2,0,L|207:206,1,120,2|12,0:3|0:0,0:0:0:0:
240,226,38316,1,0,0:0:0:0:
279,254,38479,6,0,P|340:242|388:190,1,120,4|8,0:0|0:0,0:0:0:0:
422,117,39131,1,0,0:0:0:0:
370,36,39457,1,8,0:0:0:0:
276,12,39783,6,0,P|210:19|163:58,1,120,2|8,0:3|0:0,0:0:0:0:
153,96,40272,2,0,P|106:127|28:133,1,120
0,140,40761,1,8,0:0:0:0:
47,223,41087,5,2,0:3:0:0:
141,240,41413,1,8,0:0:0:0:
234,216,41739,2,0,L|226:346,1,120,0|0,1:0|1:0,0:0:0:0:
263,366,42229,6,0,P|365:363|424:292,1,180,0|0,1:0|1:2,0:0:0:0:
466,228,43044,1,0,0:0:0:0:
447,133,43370,1,2,3:3:0:0:
381,62,43696,6,0,L|249:73,1,120,4|0,1:1|0:0,0:0:0:0:
168,49,44348,2,0,P|85:77|23:152,1,180,8|2,0:0|0:0,0:0:0:0:
51,237,45163,6,0,P|127:291|220:286,1,180,2|8,0:0|0:0,0:0:0:0:
304,267,45979,1,2,2:0:0:0:
400,283,46305,6,0,L|424:159,1,120,4|0,0:0|0:0,0:0:0:0:
425,117,46794,1,2,0:0:0:0:
425,117,46957,2,0,P|365:113|303:125,1,120,12|0,0:0|0:0,0:0:0:0:
214,97,47609,6,0,P|198:129|190:169,1,60,4|0,0:0|1:1,0:0:0:0:
191,200,47935,2,0,P|200:229|195:266,1,60,0|4,1:1|0:0,0:0:0:0:
128,324,48424,2,0,P|82:329|48:314,2,60,8|0|0,0:0|1:0|0:0,0:0:0:0:
168,349,48913,6,0,L|292:358,1,120,4|8,0:0|0:0,0:0:0:0:
335,349,49402,2,0,P|326:289|340:226,1,120,0|2,0:0|0:0,0:0:0:0:
360,188,49892,2,0,L|275:169,1,60,8|4,0:0|0:0,0:0:0:0:
255,187,50218,5,0,0:0:0:0:
162,211,50544,1,8,0:0:0:0:
74,171,50870,2,0,P|103:122|93:60,1,120,2|2,0:0|0:0,0:0:0:0:
190,55,51522,1,0,0:0:0:0:
256,192,51685,12,4,53316,1:2:0:0:
155,20,54131,5,4,0:2:0:0:
247,46,54457,1,2,1:3:0:0:
171,104,54783,2,0,P|155:129|151:159,1,60,2|2,0:3|2:2,0:0:0:0:
161,206,55109,1,0,1:0:0:0:
248,166,55435,5,4,2:2:0:0:
343,172,55761,1,2,1:3:0:0:
343,172,55924,2,0,P|369:223|360:288,1,120,2|2,0:0|0:0,0:0:0:0:
336,324,56413,1,0,1:0:0:0:
241,342,56739,6,0,P|181:338|129:310,1,120,4|2,2:2|1:3,0:0:0:0:
63,239,57392,2,0,L|152:131,1,120,6|2,0:2|1:3,0:0:0:0:
218,91,58044,6,0,L|216:14,2,60,0|0|0,1:0|1:0|1:0,0:0:0:0:
256,119,58533,2,0,P|327:138|382:119,1,120,4|0,1:2|0:0,0:0:0:0:
415,109,59022,1,0,0:0:0:0:
470,187,59348,6,0,P|485:237|459:314,1,120,4|2,0:0|1:3,0:0:0:0:
373,289,60000,1,2,0:3:0:0:
283,254,60326,1,0,1:3:0:0:
187,245,60652,6,0,P|89:257|59:282,1,120,4|2,0:2|1:3,0:0:0:0:
38,300,61142,2,0,L|71:170,1,120,2|2,0:0|0:0,0:0:0:0:
61,136,61631,1,0,1:0:0:0:
151,103,61957,5,2,2:0:0:0:
245,122,62283,1,4,0:0:0:0:
337,96,62609,1,2,2:0:0:0:
427,128,62935,1,4,0:0:0:0:
500,189,63261,6,0,L|510:273,1,60,0|0,1:0|1:3,0:0:0:0:
495,295,63587,2,0,L|481:363,1,60,0|0,1:3|1:0,0:0:0:0:
391,323,64076,2,0,L|407:259,2,60,2|2|2,0:3|0:3|0:3,0:0:0:0:
348,346,64566,6,0,P|274:349|233:309,1,120,4|2,0:0|1:3,0:0:0:0:
178,249,65218,1,2,0:3:0:0:
240,176,65544,1,0,1:0:0:0:
188,94,65870,5,4,0:0:0:0:
105,45,66196,1,2,1:3:0:0:
62,67,66359,2,0,P|26:119|38:191,1,120,2|2,0:0|0:0,0:0:0:0:
59,210,66848,1,0,1:0:0:0:
96,298,67174,6,0,L|220:282,1,120,4|2,0:0|1:3,0:0:0:0:
296,332,67826,2,0,L|420:316,1,120,4|2,2:0|1:3,0:0:0:0:
461,232,68479,6,0,L|464:165,1,60,4|0,0:2|1:0,0:0:0:0:
455,124,68805,2,0,L|455:51,1,60,0|4,1:0|1:2,0:0:0:0:
367,90,69294,2,0,L|367:25,2,60
366,137,69783,5,4,0:0:0:0:
283,87,70109,1,2,1:3:0:0:
187,81,70435,1,2,2:3:0:0:
96,112,70761,1,0,1:0:0:0:
30,182,71087,6,0,P|36:249|55:297,1,120,4|2,2:2|1:3,0:0:0:0:
101,311,71576,2,0,P|162:309|230:319,1,120,2|2,0:0|2:2,0:0:0:0:
263,339,72066,1,0,1:0:0:0:
269,243,72392,5,2,2:0:0:0:
274,147,72718,1,4,0:0:0:0:
366,121,73044,1,2,2:0:0:0:
367,216,73370,1,4,0:0:0:0:
456,182,73696,6,0,L|458:109,1,60,0|0,1:0|1:0,0:0:0:0:
462,74,74022,2,0,L|405:33,1,60,0|0,1:0|1:0,0:0:0:0:
365,42,74348,2,0,P|256:65|192:30,1,180,0|2,0:0|0:0,0:0:0:0:
150,33,75000,6,0,L|25:7,2,120,8|8|0,0:1|0:1|3:0,0:0:0:0:
143,80,75816,1,4,1:1:0:0:
143,80,75979,2,0,L|123:145,1,60,4|0,0:2|0:0,0:0:0:0:
121,185,76305,6,0,P|110:252|149:313,1,120,4|0,0:0|1:0,0:0:0:0:
172,322,76794,2,0,P|229:294|264:238,1,120,2|2,0:0|0:0,0:0:0:0:
269,201,77283,1,0,1:0:0:0:
269,105,77609,6,0,L|400:122,1,120,4|0,0:0|1:0,0:0:0:0:
429,144,78098,2,0,P|438:202|422:260,1,120,2|2,0:0|0:0,0:0:0:0:
395,300,78587,1,8,0:0:0:0:
308,340,78913,6,0,P|278:338|248:331,1,60,2|2,0:0|0:0,0:0:0:0:
203,316,79239,1,4,0:0:0:0:
107,324,79566,2,0,P|105:294|98:264,1,60,2|2,2:0|0:0,0:0:0:0:
73,223,79892,1,4,0:0:0:0:
73,127,80218,6,0,L|147:114,1,60,2|2,1:3|1:3,0:0:0:0:
178,128,80544,2,0,L|249:117,1,60,2|2,1:3|1:3,0:0:0:0:
329,145,81033,2,0,L|397:130,2,60
311,189,81522,6,0,P|291:252|308:318,1,120,8|4,0:3|0:3,0:0:0:0:
213,344,82174,2,0,P|152:335|104:295,1,120,8|8,2:3|2:0,0:0:0:0:
83,257,82663,1,6,0:0:0:0:
256,192,82826,12,0,88044,0:0:0:0:
