osu file format v14

[General]
AudioFilename: audio.mp3
AudioLeadIn: 1500
PreviewTime: 54129
Countdown: 0
SampleSet: Soft
StackLeniency: 0.7
Mode: 0
LetterboxInBreaks: 0
WidescreenStoryboard: 1

[Editor]
DistanceSpacing: 0.8
BeatDivisor: 4
GridSize: 4
TimelineZoom: 1.8

[Metadata]
Title:Himitsu no Door kara Ai ni Kite (TV Size)
TitleUnicode:秘密の扉から会いにきて (TV Size)
Artist:Tamura Yukari
ArtistUnicode:田村ゆかり
Creator:Fycho
Version:Insane
Source:のうりん
Tags:cRyo cRyo[iceeicee] japanese anime pop j-pop jpop nourin op opening
BeatmapID:4533227
BeatmapSetID:2151206

[Difficulty]
HPDrainRate:6
CircleSize:4
OverallDifficulty:7
ApproachRate:9
SliderMultiplier:1.7
SliderTickRate:1

[Events]
//Background and Video events
Video,0,"nourin-op.avi"
0,0,"BG1.jpg",0,0
//Break Periods
//Storyboard Layer 0 (Background)
//Storyboard Layer 1 (Fail)
//Storyboard Layer 2 (Pass)
//Storyboard Layer 3 (Foreground)
//Storyboard Layer 4 (Overlay)
//Storyboard Sound Samples

[TimingPoints]
3,326.086956521739,4,2,1,70,1,0
572,-100,4,2,1,20,0,0
654,326.086956521739,4,2,3,50,1,0
3262,-100,4,2,3,35,0,0
3362,-100,4,2,3,50,0,0
4730,-100,4,2,3,40,0,0
5056,-100,4,1,3,50,0,0
5382,-100,4,2,3,50,0,0
5708,-100,4,1,3,50,0,0
5871,-100,4,2,3,60,0,0
11088,-100,4,2,6,60,0,0
11251,-100,4,2,2,50,0,0
11351,-100,4,2,6,60,0,0
11577,-100,4,2,2,70,0,0
12067,-76.9230769230769,4,1,1,60,0,0
12393,-100,4,2,3,65,0,0
15001,-100,4,2,3,70,0,0
17121,-100,4,2,2,50,0,0
17610,-100,4,2,2,65,0,0
20219,-76.9230769230769,4,2,2,70,0,0
20319,-76.9230769230769,4,2,1,60,0,0
20545,-76.9230769230769,4,2,2,70,0,0
20971,-76.9230769230769,4,2,1,60,0,0
21197,-76.9230769230769,4,2,2,70,0,0
21442,-76.9230769230769,4,2,3,50,0,0
22094,-76.9230769230769,4,2,3,60,0,0
22338,-76.9230769230769,4,2,1,50,0,0
22827,-100,4,1,3,40,0,0
23153,-100,4,1,3,50,0,0
23317,-100,4,2,1,60,0,0
23806,-100,4,2,4,50,0,0
23906,-100,4,2,1,60,0,0
24132,-100,4,2,2,50,0,0
24232,-100,4,2,1,60,0,0
24458,-100,4,2,2,50,0,0
24558,-100,4,2,1,60,0,0
25110,-100,4,2,4,50,0,0
25210,-100,4,2,1,60,0,0
25762,-100,4,2,2,50,0,0
25862,-100,4,2,1,60,0,0
26414,-100,4,2,4,50,0,0
26577,-100,4,2,2,70,0,0
26903,-100,4,2,1,60,0,0
27003,-100,4,2,2,70,0,0
27230,-100,4,2,1,60,0,0
27330,-100,4,2,2,70,0,0
27556,-100,4,2,1,60,0,0
27719,-100,4,2,4,60,0,0
27819,-100,4,2,2,70,0,0
28045,-100,4,2,1,60,0,0
28371,-100,4,2,2,60,0,0
28471,-100,4,2,1,60,0,0
29023,-100,4,2,4,60,0,0
29123,-100,4,2,1,60,0,0
30327,-100,4,2,4,60,0,0
30427,-100,4,2,1,60,0,0
31469,-100,4,2,4,40,0,0
31632,-100,4,2,1,80,0,0
31795,-100,4,2,3,50,0,0
32610,-100,4,2,1,50,0,0
33262,-100,4,2,3,60,0,0
33344,-100,4,2,4,60,0,0
37012,-100,4,2,3,70,0,0
37501,-100,4,2,4,60,0,0
37601,-100,4,2,3,60,0,0
38153,-100,4,2,4,60,0,0
38317,-100,4,2,3,60,0,0
38561,-100,4,2,4,60,0,0
39784,-100,4,2,3,70,0,0
39884,-100,4,2,4,60,0,0
41088,-100,4,2,3,80,0,0
41170,-100,4,2,3,70,0,0
41414,-100,4,2,4,60,0,0
41514,-100,4,2,3,60,0,0
41740,-100,4,2,4,60,0,0
42393,-100,4,2,5,50,0,0
43208,-100,4,2,1,50,0,0
43697,-111.111111111111,4,2,1,60,0,0
43860,-111.111111111111,4,2,4,60,0,0
45980,-111.111111111111,4,2,3,60,0,0
46306,-111.111111111111,4,2,4,60,0,0
46632,-111.111111111111,4,2,3,60,0,0
46732,-111.111111111111,4,2,4,60,0,0
46958,-111.111111111111,4,2,4,50,0,0
47058,-111.111111111111,4,2,4,60,0,0
47284,-111.111111111111,4,2,3,60,0,0
47384,-111.111111111111,4,2,4,60,0,0
47610,-100,4,2,3,60,0,0
47773,-100,4,2,3,45,0,0
48099,-100,4,2,1,70,0,0
48425,-100,4,2,4,50,0,0
48833,-100,4,2,3,65,0,0
48996,-100,4,2,4,65,0,0
50056,-100,4,2,4,55,0,0
50156,-100,4,2,4,65,0,0
51197,-100,4,2,3,75,0,0
51523,-100,4,2,4,80,0,0
52012,-100,4,2,4,70,0,0
52112,-100,4,2,4,80,0,0
52501,-100,4,2,4,70,0,0
52827,-100,4,2,3,50,0,0
53317,-100,4,2,3,70,0,0
53724,-100,4,1,4,50,0,0
53806,-100,4,1,4,70,0,0
54132,-90.9090909090909,4,2,3,65,0,1
58045,-90.9090909090909,4,2,3,55,0,1
58208,-90.9090909090909,4,2,3,60,0,1
58371,-90.9090909090909,4,2,3,65,0,1
58534,-90.9090909090909,4,2,3,75,0,1
58860,-90.9090909090909,4,1,1,45,0,1
59349,-90.9090909090909,4,2,3,65,0,1
61958,-90.9090909090909,4,2,1,65,0,1
62284,-90.9090909090909,4,2,3,75,0,1
62384,-90.9090909090909,4,2,3,65,0,1
62610,-90.9090909090909,4,2,1,65,0,1
62936,-90.9090909090909,4,2,3,75,0,1
63036,-90.9090909090909,4,2,3,65,0,1
63262,-90.9090909090909,4,2,3,55,0,1
63425,-90.9090909090909,4,2,3,60,0,1
63588,-90.9090909090909,4,2,3,65,0,1
63751,-90.9090909090909,4,2,3,75,0,1
63996,-90.9090909090909,4,2,3,65,0,1
68480,-90.9090909090909,4,2,3,55,0,1
68643,-90.9090909090909,4,2,3,60,0,1
68806,-90.9090909090909,4,2,3,65,0,1
68969,-90.9090909090909,4,1,3,75,0,1
69295,-90.9090909090909,4,1,3,45,0,1
69784,-90.9090909090909,4,2,3,65,0,1
72393,-90.9090909090909,4,2,1,65,0,1
72719,-90.9090909090909,4,2,3,75,0,1
72819,-90.9090909090909,4,2,3,65,0,1
73045,-90.9090909090909,4,2,1,65,0,1
73371,-90.9090909090909,4,2,3,75,0,1
73471,-90.9090909090909,4,2,3,65,0,1
73697,-90.9090909090909,4,2,3,55,0,1
73860,-90.9090909090909,4,2,3,60,0,1
74023,-90.9090909090909,4,2,3,65,0,1
74186,-90.9090909090909,4,2,3,75,0,1
74512,-90.9090909090909,4,2,1,65,0,1
75001,-100,4,2,6,60,0,0
75164,-100,4,1,6,55,0,0
75264,-100,4,2,6,60,0,0
75490,-100,4,2,6,70,0,0
75817,-100,4,2,3,80,0,0
75980,-76.9230769230769,4,2,3,80,0,0
76306,-100,4,2,3,70,0,0
78425,-100,4,2,1,70,0,0
78914,-100,4,2,3,70,0,0
79014,-100,4,2,1,80,0,0
79567,-100,4,2,2,80,0,0
79648,-100,4,2,1,80,0,0
79993,-100,4,2,3,60,0,0
80219,-100,4,2,3,50,0,0
80871,-100,4,2,3,60,0,0
81034,-100,4,1,1,40,0,0
81523,-100,4,2,1,40,0,0
81849,-100,4,2,1,35,0,0
82175,-100,4,2,1,30,0,0
82664,-100,4,1,7,70,0,0
82746,-100,4,2,7,5,0,0

[Colours]
Combo1 : 255,98,255
Combo2 : 124,124,190
Combo3 : 150,255,45
Combo4 : 64,255,255

[HitObjects]
225,56,166,5,2,0:0:0:0:
225,56,247,1,2,0:0:0:0:
225,56,329,2,0,P|208:93|200:146,1,85,0|0,1:0|0:0,0:0:0:0:
213,248,654,6,0,P|127:242|46:319,2,170,4|2|2,0:0|0:3|0:3,0:0:0:0:
238,362,1469,1,2,0:2:0:0:
339,330,1632,2,0,P|377:303|391:259,1,85,2|0,0:3|0:0,0:0:0:0:
464,0,1958,5,0,1:0:0:0:
381,152,2121,1,2,0:3:0:0:
484,102,2284,1,2,0:0:0:0:
295,86,2447,2,0,P|269:111|249:245,1,170,2|2,0:3|0:0,0:0:0:0:
114,327,2936,2,0,P|128:265|108:219,1,85,2|2,0:3|0:0,0:0:0:0:
19,105,3262,6,0,L|204:153,2,170,4|2|2,1:0|0:2|2:3,0:0:0:0:
95,21,4077,1,0,0:0:0:0:
95,21,4240,2,0,L|190:47,1,85,2|0,0:2|0:0,0:0:0:0:
351,124,4567,5,4,1:0:0:0:
262,89,4730,1,2,0:1:0:0:
422,49,4893,1,2,0:1:0:0:
336,230,5056,2,0,P|345:289|461:338,1,170,0|2,1:0|0:0,0:0:0:0:
336,230,5545,2,0,L|246:255,1,85,2|0,0:0|0:0,0:0:0:0:
223,282,5789,1,0,0:0:0:0:
223,282,5871,6,0,P|139:283|78:217,1,170,2|2,0:3|0:3,0:0:0:0:
154,40,6360,1,0,0:0:0:0:
244,83,6523,2,0,P|260:122|269:163,1,85,2|2,0:3|0:3,0:0:0:0:
323,299,6849,2,0,P|349:265|361:225,1,85,2|0,0:3|0:0,0:0:0:0:
417,30,7175,5,2,0:3:0:0:
452,182,7338,1,0,0:3:0:0:
297,114,7501,1,2,0:3:0:0:
222,197,7664,1,2,0:3:0:0:
222,197,7746,1,0,0:0:0:0:
222,197,7827,2,0,P|199:257|200:300,1,85,0|2,0:0|0:3,0:0:0:0:
422,360,8153,2,0,P|424:307|410:254,1,85,2|0,0:3|0:3,0:0:0:0:
351,89,8480,5,2,0:3:0:0:
317,182,8643,1,0,0:0:0:0:
282,273,8806,1,2,0:3:0:0:
207,126,8969,1,0,0:0:0:0:
207,126,9050,1,0,0:0:0:0:
207,126,9132,2,0,L|176:228,1,85,2|0,0:3|0:0,0:0:0:0:
83,323,9458,2,0,L|57:221,1,85,2|0,0:3|0:0,0:0:0:0:
138,80,9784,6,0,L|117:141,1,42.5,2|0,0:3|0:0,0:0:0:0:
182,207,9947,1,0,0:0:0:0:
182,207,10028,1,0,0:0:0:0:
182,207,10110,2,0,L|198:254,1,42.5,2|0,0:3|0:0,0:0:0:0:
275,317,10273,1,0,0:0:0:0:
275,317,10355,1,0,0:0:0:0:
275,317,10437,2,0,L|333:320,1,42.5,2|0,0:3|0:0,0:0:0:0:
408,266,10599,5,0,0:0:0:0:
424,235,10681,1,0,0:0:0:0:
429,201,10762,1,2,0:3:0:0:
428,166,10844,1,0,0:0:0:0:
421,132,10925,1,0,0:0:0:0:
399,105,11007,1,0,0:0:0:0:
368,89,11088,2,0,P|317:77|289:60,1,85,8|0,0:1|2:3,0:0:0:0:
122,111,11414,2,0,P|177:131|200:150,1,85,8|0,0:1|3:3,0:0:0:0:
251,301,11740,5,0,3:3:0:0:
87,209,11903,2,0,L|138:186,1,42.5,4|0,1:1|2:0,0:0:0:0:
259,15,12067,6,0,L|255:203,1,165.749992412568,4|0,1:2|2:0,0:0:0:0:
171,361,12393,6,0,L|157:260,1,85,4|2,0:0|0:0,0:0:0:0:
138,111,12719,1,0,1:0:0:0:
55,249,12882,1,2,0:0:0:0:
241,230,13045,2,0,P|288:216|335:179,1,85,0|2,0:0|0:0,0:0:0:0:
138,111,13371,2,0,L|128:205,1,85,0|2,1:0|0:0,0:0:0:0:
276,85,13697,6,0,P|279:39|251:0,1,85,4|2,0:0|0:0,0:0:0:0:
53,121,14023,2,0,L|137:110,1,85,0|2,1:0|0:0,0:0:0:0:
388,73,14349,1,0,0:0:0:0:
241,199,14512,1,2,0:0:0:0:
409,196,14675,2,0,P|419:231|418:283,1,85,2|2,1:2|0:0,0:0:0:0:
257,332,15001,5,4,0:0:0:0:
305,162,15164,1,0,0:0:0:0:
153,270,15327,2,0,P|93:238|76:157,1,127.5,0|0,1:0|0:0,0:0:0:0:
61,153,15653,5,4,0:0:0:0:
268,235,15817,1,0,0:0:0:0:
222,44,15980,2,0,P|173:120|170:169,1,127.5,0|0,1:0|0:0,0:0:0:0:
168,198,16306,5,2,0:3:0:0:
106,62,16469,1,2,0:2:0:0:
312,144,16632,1,2,0:3:0:0:
76,229,16795,1,2,0:2:0:0:
211,112,16958,1,2,0:3:0:0:
303,255,17121,5,0,1:0:0:0:
303,255,17202,1,0,1:0:0:0:
303,255,17284,2,0,L|298:312,1,42.5,0|0,1:0|1:0,0:0:0:0:
157,341,17447,2,0,L|160:279,1,42.5,0|0,1:0|1:0,0:0:0:0:
169,123,17610,6,0,P|225:170|292:177,1,127.5,4|0,0:0|0:0,0:0:0:0:
304,166,17936,2,0,P|327:106|343:86,1,85,8|2,2:2|0:0,0:0:0:0:
441,202,18262,2,0,P|426:272|428:352,1,127.5,0|0,0:0|0:0,0:0:0:0:
418,350,18588,2,0,P|346:337|331:337,1,85,8|2,2:0|0:0,0:0:0:0:
96,369,18914,5,4,0:0:0:0:
213,234,19077,1,2,0:0:0:0:
87,149,19240,2,0,P|64:201|71:242,1,85,8|2,2:0|0:0,0:0:0:0:
250,317,19567,1,0,0:0:0:0:
187,155,19730,1,2,2:2:0:0:
187,155,19811,1,2,2:2:0:0:
187,155,19893,2,0,L|206:68,1,85,10|2,2:2|0:0,0:0:0:0:
328,176,20219,6,0,L|339:233,1,55.2499974708558,2|0,2:0|0:0,0:0:0:0:
172,337,20382,2,0,L|164:277,1,55.2499974708558,2|0,0:0|0:0,0:0:0:0:
40,186,20545,2,0,P|145:191|195:140,1,165.749992412568,4|0,2:2|0:0,0:0:0:0:
233,34,20871,5,2,2:0:0:0:
233,34,20952,1,0,0:0:0:0:
233,34,21034,2,0,L|266:84,1,55.2499974708558,2|0,0:0|0:0,0:0:0:0:
303,180,21197,2,0,B|346:170|407:198|407:198|473:167,1,165.749992412568,4|0,2:2|0:0,0:0:0:0:
468,94,21523,5,2,1:3:0:0:
199,160,21686,1,2,1:3:0:0:
456,262,21849,1,2,1:3:0:0:
252,72,22012,2,0,P|170:83|80:114,1,165.749992412568,2|0,1:3|0:0,0:0:0:0:
8,151,22338,1,2,0:0:0:0:
9,178,22420,1,2,0:0:0:0:
12,205,22501,1,2,0:0:0:0:
15,232,22583,1,2,0:0:0:0:
17,259,22664,1,2,0:0:0:0:
20,286,22746,1,2,0:0:0:0:
25,309,22827,6,0,P|117:328|181:261,1,170,4|2,1:0|2:0,0:0:0:0:
170,162,23317,1,2,0:2:0:0:
249,88,23480,2,0,L|338:112,1,85,2|0,0:0|0:0,0:0:0:0:
402,213,23806,1,8,0:0:0:0:
273,328,23969,6,0,P|269:272|282:238,1,85,2|2,2:0|0:0,0:0:0:0:
505,186,24295,2,0,P|507:234|490:277,1,85,2|2,2:0|0:0,0:0:0:0:
325,164,24621,1,2,2:0:0:0:
189,296,24784,5,2,2:0:0:0:
395,214,24947,1,0,0:0:0:0:
250,116,25110,1,8,2:0:0:0:
281,282,25273,1,2,0:0:0:0:
311,297,25355,1,2,0:0:0:0:
342,309,25436,6,0,L|521:341,1,170,2|2,0:0|2:0,0:0:0:0:
269,234,25925,1,2,0:0:0:0:
324,149,26088,2,0,P|345:100|346:56,1,85,2|0,0:0|0:0,0:0:0:0:
265,8,26414,1,8,2:0:0:0:
474,126,26577,1,2,0:0:0:0:
474,126,26659,1,2,0:0:0:0:
474,126,26740,5,2,0:0:0:0:
324,149,26903,1,2,2:0:0:0:
211,275,27067,5,2,0:0:0:0:
361,252,27230,1,2,0:0:0:0:
202,365,27393,5,2,0:0:0:0:
168,363,27474,1,0,0:0:0:0:
139,343,27556,1,2,0:0:0:0:
119,315,27637,1,0,0:0:0:0:
121,280,27719,1,8,2:0:0:0:
181,146,27882,1,2,0:0:0:0:
181,146,27963,1,0,0:0:0:0:
181,146,28045,6,0,P|100:161|3:181,1,170,4|2,0:0|0:0,0:0:0:0:
111,334,28534,2,0,P|177:315|204:222,1,170,2|0,0:0|0:0,0:0:0:0:
162,50,29023,1,8,0:0:0:0:
281,161,29186,1,2,0:0:0:0:
389,29,29349,6,0,P|330:38|298:51,1,85,0|2,0:0|0:0,0:0:0:0:
110,165,29675,2,0,P|167:131|188:108,1,85,0|2,0:0|0:0,0:0:0:0:
26,79,30001,1,2,0:0:0:0:
104,257,30164,2,0,L|95:344,1,85,0|8,0:0|0:0,0:0:0:0:
201,182,30490,1,2,0:0:0:0:
201,182,30572,1,2,0:0:0:0:
201,182,30653,6,0,P|254:172|371:248,1,170,4|0,0:0|0:0,0:0:0:0:
330,356,31143,2,0,L|436:338,1,85,2|2,0:0|0:0,0:0:0:0:
252,307,31469,1,10,0:0:0:0:
448,250,31632,1,2,0:0:0:0:
321,98,31795,1,2,3:3:0:0:
321,98,31876,1,2,3:3:0:0:
321,98,31958,5,2,3:3:0:0:
229,79,32121,5,2,0:3:0:0:
144,118,32284,5,2,0:3:0:0:
100,208,32447,6,0,B|113:261|84:317|84:317|119:306|144:315,1,170,2|2,0:3|0:0,0:0:0:0:
140,313,32855,1,2,0:0:0:0:
140,313,32936,1,2,0:0:0:0:
315,312,33099,5,2,0:0:0:0:
334,304,33181,1,2,0:0:0:0:
354,299,33262,2,0,P|365:239|374:204,1,85,4|0,0:0|0:0,0:0:0:0:
288,71,33588,2,0,P|280:112|271:154,1,85,8|0,0:0|0:0,0:0:0:0:
213,248,33914,2,0,P|145:274|63:218,1,170,2|8,0:0|0:0,0:0:0:0:
0,115,34403,1,0,0:0:0:0:
119,18,34567,6,0,P|134:45|125:116,1,85,2|0,2:0|0:0,0:0:0:0:
256,157,34893,2,0,L|361:137,1,85,8|0,0:0|0:0,0:0:0:0:
512,131,35219,1,2,2:0:0:0:
403,92,35382,1,0,0:0:0:0:
482,249,35545,1,8,0:0:0:0:
419,107,35708,1,0,0:0:0:0:
371,268,35871,6,0,P|280:309|209:300,1,170,2|8,0:0|0:0,0:0:0:0:
163,197,36360,1,0,0:0:0:0:
64,330,36523,2,0,P|87:258|77:217,1,85,2|0,0:0|0:0,0:0:0:0:
61,54,36849,2,0,P|54:96|62:138,1,85,8|0,0:0|0:0,0:0:0:0:
232,66,37175,5,2,0:3:0:0:
202,143,37338,1,0,0:0:0:0:
343,38,37501,5,12,0:0:0:0:
313,115,37664,1,0,0:3:0:0:
452,28,37827,5,2,0:3:0:0:
422,105,37990,1,0,0:0:0:0:
452,255,38153,5,12,0:0:0:0:
482,178,38316,1,0,0:0:0:0:
274,213,38480,6,0,P|210:259|181:347,1,170,4|8,0:0|0:0,0:0:0:0:
358,246,38969,2,0,P|356:181|335:156,1,85,0|2,0:0|0:0,0:0:0:0:
142,109,39295,2,0,P|183:151|228:141,1,85,0|8,0:0|0:0,0:0:0:0:
274,41,39621,1,0,0:0:0:0:
169,28,39784,6,0,P|91:21|-14:17,1,170,2|8,0:3|0:0,0:0:0:0:
135,126,40273,2,0,P|156:209|136:300,1,170,0|0,0:0|0:0,0:0:0:0:
50,138,40762,2,0,L|165:121,1,85,8|0,0:0|0:0,0:0:0:0:
280,100,41088,5,2,0:3:0:0:
336,201,41251,1,0,0:0:0:0:
282,306,41414,2,0,P|230:332|183:333,1,85,8|0,0:0|0:0,0:0:0:0:
412,155,41740,5,0,1:0:0:0:
270,119,41903,1,8,2:0:0:0:
375,268,42067,2,0,P|417:277|459:269,1,85,0|0,1:0|1:0,0:0:0:0:
459,269,42311,1,0,1:0:0:0:
459,269,42393,5,0,1:2:0:0:
313,107,42556,1,0,1:2:0:0:
243,245,42719,1,0,1:2:0:0:
442,75,42882,1,0,1:2:0:0:
348,223,43045,1,0,1:2:0:0:
204,66,43208,5,8,0:3:0:0:
280,124,43371,1,2,3:3:0:0:
325,41,43534,1,8,3:0:0:0:
115,104,43697,6,0,L|79:260,1,152.999995330811,4|0,1:1|0:0,0:0:0:0:
215,343,44186,1,2,0:0:0:0:
215,343,44349,2,0,P|265:289|238:206,1,152.999995330811,8|0,0:0|0:0,0:0:0:0:
263,96,44838,6,0,P|367:84|437:83,1,152.999995330811,2|2,0:0|0:0,0:0:0:0:
422,301,45327,1,0,0:0:0:0:
328,210,45490,1,2,0:0:0:0:
492,186,45653,2,0,P|415:189|339:199,1,152.999995330811,8|2,0:0|2:0,0:0:0:0:
339,199,46061,1,2,2:0:0:0:
339,199,46143,1,2,2:0:0:0:
163,280,46306,6,0,P|85:286|31:208,1,152.999995330811,4|2,0:0|0:0,0:0:0:0:
169,94,46795,1,2,0:0:0:0:
227,185,46958,2,0,P|255:254|280:337,1,152.999995330811,12|2,0:0|0:0,0:0:0:0:
357,232,47447,1,0,0:0:0:0:
392,148,47610,5,4,0:0:0:0:
433,342,47773,1,0,1:1:0:0:
401,127,47936,1,0,1:1:0:0:
442,321,48099,6,0,L|263:312,1,170,4|8,0:0|2:0,0:0:0:0:
242,319,48507,1,2,0:0:0:0:
242,319,48588,2,0,L|169:311,1,42.5,0|0,0:0|0:0,0:0:0:0:
80,217,48751,2,0,L|156:234,1,42.5,0|0,0:0|0:0,0:0:0:0:
231,220,48914,6,0,P|272:152|244:71,1,170,4|8,0:0|0:0,0:0:0:0:
98,134,49403,2,0,L|79:218,1,85,0|2,0:0|0:0,0:0:0:0:
156,57,49730,1,2,0:0:0:0:
65,212,49893,2,0,L|81:303,1,85,8|4,0:0|0:0,0:0:0:0:
340,199,50219,6,0,P|268:157|191:185,1,170,2|8,0:0|0:0,0:0:0:0:
177,275,50708,1,0,0:0:0:0:
254,333,50871,2,0,L|336:351,1,85,2|2,0:0|0:0,0:0:0:0:
432,290,51197,1,2,0:0:0:0:
455,265,51278,1,2,0:0:0:0:
464,232,51360,1,2,0:0:0:0:
459,199,51442,1,2,0:0:0:0:
437,172,51523,6,0,L|259:149,1,170,0|2,0:0|0:0,0:0:0:0:
95,207,52012,1,8,0:0:0:0:
95,207,52175,2,0,P|140:138|96:61,1,170,2|8,0:0|0:0,0:0:0:0:
217,17,52664,1,2,0:0:0:0:
249,28,52746,1,2,0:0:0:0:
280,40,52827,5,2,1:3:0:0:
216,232,52990,1,2,1:3:0:0:
439,180,53153,1,2,1:3:0:0:
242,139,53316,1,4,1:2:0:0:
359,108,53480,5,0,0:0:0:0:
359,108,53561,1,0,0:0:0:0:
359,108,53643,1,0,1:0:0:0:
359,108,53724,1,0,1:0:0:0:
359,108,53806,2,0,L|366:149,1,42.5,0|0,1:3|0:0,0:0:0:0:
329,281,53969,2,0,L|317:220,1,42.5,0|0,0:0|2:0,0:0:0:0:
236,194,54132,6,0,P|133:208|77:274,2,187.000005706787,4|2|2,0:2|1:3|0:3,0:0:0:0:
342,134,54947,1,2,2:2:0:0:
221,26,55110,2,0,P|195:86|202:135,1,93.5000028533936,0|0,1:0|0:0,0:0:0:0:
360,259,55436,5,4,2:2:0:0:
304,158,55599,1,2,0:2:0:0:
282,330,55762,1,2,1:3:0:0:
481,316,55925,2,0,P|499:216|445:141,1,187.000005706787,0|2,0:0|0:0,0:0:0:0:
327,51,56414,2,0,P|320:108|340:142,1,93.5000028533936,0|0,1:0|1:0,0:0:0:0:
268,238,56740,6,0,P|236:182|153:146,1,140.25000428009,4|0,2:2|0:0,0:0:0:0:
159,152,57067,2,0,P|129:194|77:226,1,93.5000028533936,2|2,1:3|0:0,0:0:0:0:
50,347,57393,6,0,P|136:345|194:365,1,140.25000428009,2|0,0:3|0:0,0:0:0:0:
201,378,57720,2,0,P|250:371|297:350,1,93.5000028533936,2|2,1:3|0:0,0:0:0:0:
459,253,58045,5,2,1:3:0:0:
323,108,58208,1,0,1:0:0:0:
314,244,58371,1,0,1:3:0:0:
411,72,58534,6,0,L|459:253,1,187.000005706787,0|0,1:2|0:0,0:0:0:0:
459,253,58942,1,0,0:0:0:0:
459,253,59023,1,0,0:0:0:0:
274,319,59186,1,0,0:0:0:0:
316,206,59349,6,0,P|339:90|343:46,1,140.25000428009,4|0,0:0|0:0,0:0:0:0:
343,62,59675,2,0,P|298:77|252:78,1,93.5000028533936,2|0,1:3|0:0,0:0:0:0:
105,72,60001,1,2,0:3:0:0:
186,155,60164,1,2,0:2:0:0:
54,258,60327,2,0,P|56:194|72:154,1,93.5000028533936,0|0,1:3|0:0,0:0:0:0:
240,333,60653,6,0,L|148:348,1,93.5000028533936,4|2,0:2|2:2,0:0:0:0:
326,210,60980,1,2,1:3:0:0:
223,240,61143,2,0,P|142:163|163:88,1,187.000005706787,2|2,0:0|0:0,0:0:0:0:
362,104,61632,1,0,1:0:0:0:
414,208,61795,1,2,0:0:0:0:
316,291,61958,6,0,L|338:238,1,46.7500014266968,2|2,2:0|2:0,0:0:0:0:
511,208,62121,2,0,L|492:271,1,46.7500014266968,2|2,2:0|2:0,0:0:0:0:
449,354,62284,2,0,P|385:357|309:383,1,140.25000428009,4|0,0:0|0:0,0:0:0:0:
185,357,62610,6,0,L|247:338,1,46.7500014266968,2|2,2:0|2:0,0:0:0:0:
332,261,62773,2,0,L|358:206,1,46.7500014266968,2|2,2:0|2:0,0:0:0:0:
210,203,62936,2,0,P|202:141|171:54,1,140.25000428009,4|0,0:0|0:0,0:0:0:0:
65,49,63262,5,2,1:3:0:0:
286,67,63425,1,0,1:3:0:0:
84,177,63588,1,0,1:3:0:0:
260,318,63751,2,0,P|348:315|414:241,1,187.000005706787,0|2,1:3|0:3,0:0:0:0:
420,230,64159,1,0,0:0:0:0:
420,230,64240,2,0,L|494:214,1,46.7500014266968,2|0,0:3|0:0,0:0:0:0:
331,152,64403,2,0,L|270:143,1,46.7500014266968,2|0,0:3|0:3,0:0:0:0:
170,226,64567,6,0,P|182:109|195:37,1,187.000005706787,4|2,0:0|1:3,0:0:0:0:
292,20,65056,1,0,0:0:0:0:
71,142,65219,2,0,P|62:194|61:249,1,93.5000028533936,2|2,0:3|0:2,0:0:0:0:
224,331,65545,2,0,P|269:305|302:278,1,93.5000028533936,0|0,1:0|0:0,0:0:0:0:
271,134,65871,5,4,0:0:0:0:
395,294,66034,1,2,0:2:0:0:
230,220,66197,1,2,1:3:0:0:
406,200,66360,2,0,P|461:164|464:49,1,187.000005706787,2|2,0:0|0:0,0:0:0:0:
245,146,66849,2,0,P|209:162|153:206,1,93.5000028533936,0|2,1:0|0:0,0:0:0:0:
323,264,67175,6,0,P|339:187|349:113,1,140.25000428009,4|0,0:0|0:0,0:0:0:0:
337,114,67501,1,2,1:3:0:0:
453,239,67664,1,0,0:0:0:0:
234,326,67827,2,0,P|167:319|89:303,1,140.25000428009,4|0,2:0|0:0,0:0:0:0:
83,298,68153,1,2,1:3:0:0:
354,233,68316,1,0,0:0:0:0:
112,114,68480,5,2,1:3:0:0:
211,198,68643,1,0,1:0:0:0:
301,86,68806,1,0,1:0:0:0:
297,268,68969,2,0,P|350:325|454:325,1,187.000005706787,0|0,1:2|0:0,0:0:0:0:
310,102,69458,1,0,0:0:0:0:
216,218,69621,1,0,0:0:0:0:
100,128,69784,6,0,L|215:120,1,93.5000028533936,4|0,0:0|0:0,0:0:0:0:
292,246,70110,2,0,L|494:223,1,187.000005706787,2|2,1:3|2:3,0:0:0:0:
248,347,70599,1,2,0:2:0:0:
152,264,70762,2,0,P|156:180|174:144,1,93.5000028533936,0|0,1:0|0:0,0:0:0:0:
316,145,71088,5,4,2:2:0:0:
336,326,71251,1,2,0:2:0:0:
227,224,71414,1,2,1:3:0:0:
122,346,71577,2,0,P|60:293|68:191,1,187.000005706787,2|2,0:0|2:2,0:0:0:0:
228,222,72067,1,0,1:0:0:0:
360,323,72230,1,2,0:0:0:0:
390,156,72393,6,0,L|396:86,1,46.7500014266968,2|2,2:0|2:0,0:0:0:0:
435,238,72556,2,0,L|506:268,1,46.7500014266968,2|2,2:0|2:0,0:0:0:0:
338,241,72719,2,0,L|180:298,1,140.25000428009,4|0,0:0|0:0,0:0:0:0:
111,255,73045,6,0,L|64:234,1,46.7500014266968,2|2,2:0|2:0,0:0:0:0:
132,338,73208,2,0,L|111:393,1,46.7500014266968,2|2,2:0|2:0,0:0:0:0:
206,288,73371,2,0,L|216:128,1,140.25000428009,4|0,0:0|0:0,0:0:0:0:
218,60,73697,5,2,1:3:0:0:
436,41,73860,1,0,1:0:0:0:
218,60,74023,1,2,1:3:0:0:
436,41,74186,1,0,1:0:0:0:
332,130,74349,2,0,P|329:173|327:225,1,93.5000028533936,0|2,0:0|0:0,0:0:0:0:
327,223,74594,1,2,0:0:0:0:
327,223,74675,1,2,0:0:0:0:
434,145,74838,1,2,0:0:0:0:
237,192,75001,5,8,0:1:0:0:
246,320,75164,2,0,L|252:382,2,42.5,0|0|8,2:2|0:0|0:1,0:0:0:0:
40,292,75490,2,0,L|62:247,1,42.5,0|0,3:0|3:0,0:0:0:0:
191,255,75653,2,0,L|134:256,1,42.5,0|0,3:0|0:0,0:0:0:0:
75,145,75817,2,0,L|117:202,1,42.5,4|0,1:1|0:0,0:0:0:0:
200,171,75980,6,0,L|395:149,1,165.749992412568,4|0,0:2|0:0,0:0:0:0:
480,271,76306,6,0,L|394:258,1,85,4|2,0:0|0:0,0:0:0:0:
291,330,76632,1,0,1:0:0:0:
364,152,76795,1,2,0:0:0:0:
237,191,76958,2,0,P|190:205|143:242,1,85,0|2,0:0|0:0,0:0:0:0:
57,350,77284,2,0,P|72:302|67:256,1,85,0|2,1:0|0:0,0:0:0:0:
40,93,77610,6,0,P|37:139|65:178,1,85,4|2,0:0|0:0,0:0:0:0:
176,117,77936,2,0,L|199:9,1,85,0|2,1:0|0:0,0:0:0:0:
233,207,78262,1,0,0:0:0:0:
341,88,78425,1,2,0:0:0:0:
374,201,78588,2,0,P|386:243|377:298,1,85,10|2,0:0|0:0,0:0:0:0:
282,319,78914,5,2,0:0:0:0:
254,298,78996,1,0,0:0:0:0:
220,297,79077,1,2,0:0:0:0:
186,305,79159,1,0,0:0:0:0:
157,322,79240,2,0,P|96:304|59:254,1,127.5,4|0,0:0|0:0,0:0:0:0:
53,161,79566,5,2,2:0:0:0:
81,142,79648,1,0,0:0:0:0:
114,136,79730,1,2,0:0:0:0:
146,144,79811,1,0,0:0:0:0:
171,166,79893,2,0,P|220:90|208:41,1,127.5,4|0,0:0|0:0,0:0:0:0:
119,20,80219,5,2,1:3:0:0:
139,233,80382,1,2,1:3:0:0:
305,61,80545,1,2,1:3:0:0:
344,285,80708,2,0,P|434:270|483:179,1,170,2|0,1:3|0:0,0:0:0:0:
488,174,81115,1,0,0:0:0:0:
488,174,81197,2,0,L|484:106,1,42.5,0|0,0:0|0:0,0:0:0:0:
422,22,81360,2,0,L|423:64,1,42.5
356,133,81523,5,8,0:3:0:0:
327,151,81605,1,8,0:3:0:0:
295,162,81686,1,8,0:3:0:0:
261,154,81768,1,8,0:3:0:0:
235,132,81849,1,4,0:3:0:0:
201,124,81931,1,4,0:3:0:0:
167,124,82012,1,4,0:3:0:0:
133,132,82094,1,4,0:3:0:0:
113,159,82175,6,0,P|107:187|108:222,1,42.5,8|8,2:3|2:3,0:0:0:0:
198,314,82338,2,0,P|232:311|253:301,1,42.5,8|8,2:3|2:3,0:0:0:0:
272,177,82501,1,8,2:0:0:0:
68,321,82664,5,6,0:0:0:0:
256,192,82746,12,0,88045,0:0:0:0:
