osu file format v14

[General]
AudioFilename: audio.mp3
AudioLeadIn: 0
PreviewTime: 56925
Countdown: 0
SampleSet: None
StackLeniency: 0.7
Mode: 0
LetterboxInBreaks: 0
WidescreenStoryboard: 1

[Editor]
DistanceSpacing: 1.5
BeatDivisor: 4
GridSize: 8
TimelineZoom: 2.3

[Metadata]
Title:Endless Story (TV Size)
TitleUnicode:Endless Story (TV Size)
Artist:Tamura Yukari
ArtistUnicode:Tamura Yukari
Creator:Yukiin0
Version:Insane
Source:C3 Shikyubu
Tags:cube x cursed curious opening 1 op c3 fear
BeatmapID:1223804
BeatmapSetID:420124

[Difficulty]
HPDrainRate:5.5
CircleSize:4
OverallDifficulty:7
ApproachRate:9
SliderMultiplier:1.9
SliderTickRate:1

[Events]
//Background and Video events
Video,0,"movie.avi"
0,0,"bg.jpg",0,0
//Break Periods
//Storyboard Layer 0 (Background)
//Storyboard Layer 1 (Fail)
//Storyboard Layer 2 (Pass)
//Storyboard Layer 3 (Foreground)
//Storyboard Sound Samples

[TimingPoints]
895,759.493670886076,4,2,2,70,1,0
13450,320.855614973262,4,2,1,70,1,0
14091,320.855614973262,4,2,1,70,1,0
24358,-125,4,2,1,70,0,0
44893,-142.857142857143,4,2,1,70,0,0
49546,-142.857142857143,4,2,2,70,0,0
50026,-125,4,2,1,70,0,0
52594,-100,4,2,1,70,0,0
55160,-100,4,2,2,70,0,0
56443,-100,4,2,2,80,0,0
56925,-100,4,2,1,80,0,0
57727,-100,4,2,1,80,0,1
77620,-100,4,2,1,80,0,0
89171,-100,4,2,1,5,0,0

[Colours]
Combo1 : 255,255,255
Combo2 : 128,255,255
Combo3 : 255,128,192
Combo4 : 177,240,132
Combo5 : 255,255,0

[HitObjects]
152,144,895,6,0,P|76:198|144:240,1,190
360,144,2413,2,0,P|436:198|368:240,1,190
192,336,3553,1,0,0:0:0:0:
16,232,3932,5,0,0:0:0:0:
192,136,4312,1,0,0:0:0:0:
368,232,4692,1,0,0:0:0:0:
192,136,5072,5,0,0:0:0:0:
296,80,5451,2,0,P|400:128|440:200,1,190
256,272,6591,1,0,0:0:0:0:
296,80,6970,6,0,P|184:96|112:144,1,190
296,80,8489,2,0,L|296:280,1,190
296,270,9629,2,0,P|236:277|192:270,1,95
72,120,10388,5,0,0:0:0:0:
272,96,10768,1,0,0:0:0:0:
168,112,11148,1,0,0:0:0:0:
368,80,11527,1,0,0:0:0:0:
416,352,13450,5,8,0:0:0:0:
374,351,13530,1,8,0:0:0:0:
333,350,13610,1,8,0:0:0:0:
295,338,13690,1,8,0:0:0:0:
256,332,13770,1,8,0:0:0:0:
220,315,13851,1,8,0:0:0:0:
187,296,13931,1,8,0:0:0:0:
93,202,14091,6,0,P|48:113|46:20,2,190,8|10|2,0:0|0:0|0:0,0:0:0:0:
187,107,14893,2,0,P|240:104|280:112,1,95,0|10,0:0|0:0,0:0:0:0:
371,205,15213,1,0,0:0:0:0:
371,205,15374,2,0,P|424:184|440:144,1,95,2|0,0:0|0:0,0:0:0:0:
437,36,15695,1,10,0:0:0:0:
274,36,15856,1,0,0:0:0:0:
160,149,16016,5,2,0:0:0:0:
45,263,16177,1,0,0:0:0:0:
176,304,16337,1,10,0:0:0:0:
176,304,16498,2,0,P|224:320|272:320,1,95,0|2,0:0|0:0,0:0:0:0:
432,264,16818,2,0,P|448:216|440:168,1,95,0|10,0:0|0:0,0:0:0:0:
352,208,17139,6,0,P|344:160|360:112,1,95,0|2,0:0|0:0,0:0:0:0:
408,32,17460,2,0,P|440:72|448:128,1,95,0|10,0:0|0:0,0:0:0:0:
352,208,17781,1,0,0:0:0:0:
240,288,17941,2,0,P|128:280|88:216,1,190,2|10,0:0|0:0,0:0:0:0:
56,80,18423,1,0,0:0:0:0:
168,160,18583,2,0,L|352:208,1,190,2|10,0:0|0:0,0:0:0:0:
440,144,19064,1,0,0:0:0:0:
288,64,19225,5,2,0:0:0:0:
160,68,19385,2,0,P|128:112|127:161,1,95,0|10,0:0|0:0,0:0:0:0:
248,152,19706,1,0,0:0:0:0:
146,253,19867,6,0,P|208:328|304:320,1,190,2|10,0:0|0:0,0:0:0:0:
392,224,20347,2,0,L|454:152,1,95,0|2,0:0|0:0,0:0:0:0:
448,296,20668,2,0,P|401:321|361:313,1,95,0|10,0:0|0:0,0:0:0:0:
248,240,20990,1,0,0:0:0:0:
376,160,21150,5,2,0:0:0:0:
256,72,21310,1,0,0:0:0:0:
405,84,21471,2,0,P|448:120|456:168,1,95,10|0,0:0|0:0,0:0:0:0:
264,200,21792,1,2,0:0:0:0:
48,208,21952,1,0,0:0:0:0:
213,295,22113,1,10,0:0:0:0:
98,112,22273,1,0,0:0:0:0:
105,299,22433,5,2,0:0:0:0:
206,108,22593,1,0,0:0:0:0:
352,128,22754,1,10,0:0:0:0:
384,144,22835,1,0,0:0:0:0:
408,168,22915,2,0,P|440:216|448:256,1,95,0|2,0:0|0:0,0:0:0:0:
264,336,23236,1,0,0:0:0:0:
105,299,23395,2,0,P|72:256|72:208,1,95,10|0,2:0|2:0,2:0:0:0:
248,208,23717,5,2,0:0:0:0:
296,208,23797,1,0,0:0:0:0:
344,192,23877,1,2,0:0:0:0:
384,160,23958,1,0,0:0:0:0:
416,120,24038,1,2,0:0:0:0:
432,72,24118,1,0,0:0:0:0:
440,24,24198,1,2,0:0:0:0:
332,59,24358,6,0,P|248:56|200:112,2,152,2|2|2,0:0|0:0|0:0,0:0:0:0:
288,144,25161,1,0,0:0:0:0:
232,248,25321,2,0,P|192:224|176:192,1,76,2|0,0:0|0:0,0:0:0:0:
176,88,25641,2,0,P|96:112|64:176,1,152,2|2,0:0|0:0,0:0:0:0:
80,304,26123,1,0,0:0:0:0:
200,320,26284,5,2,0:0:0:0:
320,320,26444,2,0,L|376:264,1,76,0|2,0:0|0:0,0:0:0:0:
488,216,26764,2,0,L|424:168,1,76,0|2,0:0|0:0,0:0:0:0:
360,64,27086,1,0,0:0:0:0:
240,48,27246,1,2,0:0:0:0:
128,88,27407,1,0,0:0:0:0:
232,144,27567,6,0,P|272:152|312:152,1,76,2|0,0:0|0:0,0:0:0:0:
424,184,27888,1,2,0:0:0:0:
376,296,28048,1,0,0:0:0:0:
256,320,28208,1,2,0:0:0:0:
136,296,28369,1,0,0:0:0:0:
40,240,28530,2,0,P|16:152|56:104,1,152,2|2,0:0|0:0,0:0:0:0:
228,92,29011,5,0,0:0:0:0:
344,88,29171,2,0,P|380:164|364:236,1,152,2|2,0:0|0:0,0:0:0:0:
284,296,29653,1,0,0:0:0:0:
176,320,29813,2,0,P|96:312|48:264,1,152,2|2,0:0|0:0,0:0:0:0:
140,220,30294,6,0,P|177:199|200:160,1,76,0|2,0:0|0:0,0:0:0:0:
108,132,30615,1,0,0:0:0:0:
20,96,30776,2,0,P|43:62|71:43,1,76,2|0,0:0|0:0,0:0:0:0:
256,80,31097,2,0,P|319:19|384:24,2,152,2|2|2,0:0|0:0|0:0,0:0:0:0:
344,112,31899,5,0,0:0:0:0:
352,272,32059,2,0,P|296:336|232:344,1,152,2|2,0:0|0:0,0:0:0:0:
248,240,32540,1,0,0:0:0:0:
248,120,32701,6,0,P|168:144|128:200,1,152,2|2,0:0|0:0,0:0:0:0:
40,296,33182,1,0,0:0:0:0:
32,176,33343,1,2,0:0:0:0:
96,72,33503,1,0,0:0:0:0:
208,32,33663,1,2,0:0:0:0:
320,64,33824,2,0,P|368:96|376:112,1,76,0|2,0:0|0:0,0:0:0:0:
384,136,34064,5,0,0:0:0:0:
392,160,34145,1,2,0:0:0:0:
392,184,34225,1,0,0:0:0:0:
392,208,34305,1,2,0:0:0:0:
384,232,34385,1,0,0:0:0:0:
376,256,34466,1,2,0:0:0:0:
312,312,34626,6,0,P|264:336|236:340,1,76,2|0,0:0|0:0,0:0:0:0:
112,328,34947,1,2,0:0:0:0:
72,216,35107,1,0,0:0:0:0:
178,216,35267,6,0,L|256:216,1,76,2|0,0:0|0:0,0:0:0:0:
360,216,35588,1,2,0:0:0:0:
416,144,35748,1,0,0:0:0:0:
301,87,35909,6,0,P|198:87|152:106,1,152,2|2,0:0|0:0,0:0:0:0:
78,180,36390,1,0,0:0:0:0:
78,180,36550,1,2,0:0:0:0:
112,281,36711,1,0,0:0:0:0:
200,344,36871,2,0,P|280:344|328:288,1,152,2|2,0:0|0:0,0:0:0:0:
344,200,37353,5,0,0:0:0:0:
456,88,37514,1,2,0:0:0:0:
344,200,37674,1,0,0:0:0:0:
224,232,37835,2,0,P|160:216|144:200,1,76,2|0,0:0|0:0,0:0:0:0:
224,144,38155,2,0,P|264:120|280:96,1,76,2|0,0:0|0:0,0:0:0:0:
192,56,38476,5,2,0:0:0:0:
80,104,38637,1,0,0:0:0:0:
192,56,38797,2,0,P|232:48|272:64,1,76,2|0,0:0|0:0,0:0:0:0:
224,144,39118,1,2,0:0:0:0:
152,224,39278,1,0,0:0:0:0:
224,320,39439,2,0,P|304:344|368:320,1,152,2|2,0:0|0:0,0:0:0:0:
448,240,39920,2,0,P|472:208|488:160,1,76,0|2,0:0|0:0,0:0:0:0:
432,72,40241,1,0,0:0:0:0:
280,72,40401,6,0,P|192:88|144:128,1,152,2|2,0:0|0:0,0:0:0:0:
56,264,41031,2,0,P|88:296|120:304,1,76,2|0,0:0|0:0,0:0:0:0:
232,312,41364,2,0,P|320:304|376:264,1,152,2|2,0:0|0:0,0:0:0:0:
456,176,41845,1,0,0:0:0:0:
368,96,42006,2,0,L|296:72,1,76,2|0,0:0|0:0,0:0:0:0:
256,184,42327,6,0,L|112:128,1,152,2|2,0:0|0:0,0:0:0:0:
56,240,42808,2,0,L|128:264,1,76,0|2,0:0|0:0,0:0:0:0:
240,320,43129,1,0,0:0:0:0:
120,336,43289,1,2,0:0:0:0:
200,240,43450,1,0,0:0:0:0:
192,120,43610,2,0,P|272:88|344:88,1,152,2|2,0:0|0:0,0:0:0:0:
416,168,44091,1,2,0:0:0:0:
408,192,44171,1,0,0:0:0:0:
400,216,44252,5,2,0:0:0:0:
408,240,44332,1,0,0:0:0:0:
416,264,44412,1,2,0:0:0:0:
416,288,44492,1,0,0:0:0:0:
408,312,44572,1,2,0:0:0:0:
268,280,44893,6,0,L|128:280,1,132.999995941162,2|2,0:0|0:0,0:0:0:0:
184,168,45375,1,0,0:0:0:0:
64,240,45535,5,2,0:0:0:0:
64,104,45695,1,0,0:0:0:0:
176,24,45856,1,2,0:0:0:0:
312,56,46016,1,0,0:0:0:0:
312,80,46097,1,0,0:0:0:0:
312,104,46177,2,0,L|312:240,2,132.999995941162,2|2|2,0:0|0:0|0:0,0:0:0:0:
215,72,46979,6,0,P|183:80|154:96,1,66.4999979705811,0|2,0:0|0:0,0:0:0:0:
48,264,47459,2,0,P|93:311|157:328,1,132.999995941162,2|2,0:0|0:0,0:0:0:0:
168,216,47941,1,0,0:0:0:0:
272,240,48102,6,0,L|336:272,1,66.4999979705811,2|0,0:0|0:0,0:0:0:0:
440,224,48423,2,0,L|344:128,1,132.999995941162,2|2,0:0|0:0,0:0:0:0:
331,269,48904,1,0,0:0:0:0:
272,344,49064,2,0,P|184:352|136:336,1,132.999995941162,2|2,0:0|0:0,0:0:0:0:
40,256,49546,5,0,0:0:0:0:
24,216,49626,5,0,0:0:0:0:
16,176,49706,5,0,0:0:0:0:
24,136,49786,5,0,0:0:0:0:
40,96,49867,5,0,0:0:0:0:
152,64,50026,6,0,L|304:40,1,152,2|2,0:0|0:0,0:0:0:0:
272,184,50508,1,0,0:0:0:0:
356,335,50669,6,0,L|200:328,1,152,2|2,0:0|0:0,0:0:0:0:
272,184,51150,1,0,0:0:0:0:
328,32,51310,2,0,P|400:56|432:128,2,152,2|2|2,0:0|0:0|0:0,0:0:0:0:
184,120,52113,1,0,0:0:0:0:
160,152,52193,1,0,0:0:0:0:
152,192,52273,1,2,0:0:0:0:
452,308,52594,6,0,L|256:315,1,190,2|2,0:0|0:0,0:0:0:0:
163,273,53075,2,0,P|152:328|168:368,2,95,0|2|0,0:0|0:0|0:0,0:0:0:0:
260,244,53556,6,0,P|174:171|106:188,1,190,2|2,0:0|0:0,0:0:0:0:
12,192,54038,1,0,0:0:0:0:
84,288,54198,1,2,0:0:0:0:
192,344,54359,1,0,0:0:0:0:
260,244,54519,5,2,0:0:0:0:
324,140,54679,1,0,0:0:0:0:
232,40,54840,2,0,P|174:29|136:39,1,95,2|0,0:0|0:0,0:0:0:0:
32,72,55161,1,8,0:0:0:0:
184,144,55321,1,0,0:0:0:0:
24,200,55482,1,8,0:0:0:0:
184,144,55642,1,0,0:0:0:0:
184,256,55802,5,8,0:0:0:0:
24,320,55963,1,0,0:0:0:0:
153,347,56123,2,0,P|200:352|248:344,1,95,8|0,0:0|0:0,0:0:0:0:
392,304,56444,5,0,0:0:0:0:
424,264,56524,5,0,0:0:0:0:
448,216,56605,5,0,0:0:0:0:
448,168,56685,5,0,0:0:0:0:
440,120,56765,5,0,0:0:0:0:
256,192,56925,12,6,57727,0:0:0:0:
128,176,57888,5,0,0:0:0:0:
138,347,58048,2,0,P|242:355|314:307,1,190,10|2,0:0|0:0,0:0:0:0:
256,152,58530,5,0,0:0:0:0:
311,310,58690,1,10,0:0:0:0:
376,232,58851,1,0,0:0:0:0:
320,40,59010,2,0,P|216:24|152:72,1,190,2|10,0:0|0:0,0:0:0:0:
24,168,59492,1,0,0:0:0:0:
112,304,59653,6,0,P|160:320|208:320,1,95,2|0,0:0|0:0,0:0:0:0:
344,280,59974,2,0,P|384:248|408:208,1,95,10|0,0:0|0:0,0:0:0:0:
392,72,60294,2,0,P|368:120|336:152,1,95,2|0,0:0|0:0,0:0:0:0:
201,176,60615,2,0,P|176:131|176:86,1,95,10|0,0:0|0:0,0:0:0:0:
272,112,60936,1,2,0:0:0:0:
272,112,61097,5,0,0:0:0:0:
312,256,61257,1,10,0:0:0:0:
152,336,61417,1,0,0:0:0:0:
152,336,61577,2,0,L|40:176,1,190,2|10,0:0|0:0,0:0:0:0:
152,64,62219,6,0,L|264:224,1,190,2|10,0:0|0:0,0:0:0:0:
336,336,62701,1,0,0:0:0:0:
191,316,62861,2,0,P|88:298|39:234,1,190,2|10,0:0|0:0,0:0:0:0:
38,128,63342,1,0,0:0:0:0:
160,192,63503,5,2,0:0:0:0:
264,88,63663,1,0,0:0:0:0:
376,192,63824,1,10,0:0:0:0:
488,88,63984,1,0,0:0:0:0:
459,240,64145,2,0,P|419:280|379:288,1,95,2|0,0:0|0:0,0:0:0:0:
224,272,64466,1,10,0:0:0:0:
200,120,64626,1,0,0:0:0:0:
288,56,64786,6,0,P|200:16|112:56,2,190,2|10|2,0:0|0:0|0:0,0:0:0:0:
352,136,65589,1,0,0:0:0:0:
432,232,65749,1,10,0:0:0:0:
352,336,65909,1,0,0:0:0:0:
256,344,66069,5,2,0:0:0:0:
224,352,66150,1,0,0:0:0:0:
192,360,66230,2,0,P|136:360|96:344,1,95,0|10,0:0|0:0,0:0:0:0:
32,264,66551,5,8,0:0:0:0:
24,232,66631,1,8,0:0:0:0:
16,200,66712,1,8,0:0:0:0:
16,168,66792,1,8,0:0:0:0:
24,136,66872,1,8,0:0:0:0:
32,104,66952,1,8,0:0:0:0:
40,80,67032,1,8,0:0:0:0:
136,48,67353,6,0,P|128:96|136:144,1,95,2|0,0:0|0:0,0:0:0:0:
184,232,67674,2,0,P|272:280|360:248,1,190,10|2,0:0|0:0,0:0:0:0:
416,168,68155,1,0,0:0:0:0:
448,72,68316,2,0,P|384:48|352:48,1,95,10|0,0:0|0:0,0:0:0:0:
224,96,68637,6,0,P|208:48|216:0,2,95,2|0|10,0:0|0:0|0:0,0:0:0:0:
272,192,69118,1,0,0:0:0:0:
328,280,69278,2,0,P|424:288|496:232,1,190,2|10,0:0|0:0,0:0:0:0:
496,128,69760,1,0,0:0:0:0:
408,72,69920,5,2,0:0:0:0:
256,48,70081,1,0,0:0:0:0:
128,128,70241,1,2,0:0:0:0:
256,208,70401,1,0,0:0:0:0:
128,280,70562,1,2,0:0:0:0:
216,129,70722,1,0,0:0:0:0:
211,280,70883,1,2,0:0:0:0:
84,205,71043,1,0,0:0:0:0:
138,62,71204,6,0,P|226:22|304:67,1,190,2|2,0:0|0:0,0:0:0:0:
448,144,71685,1,0,0:0:0:0:
300,160,71845,2,0,P|240:240|272:328,1,190,2|2,0:0|0:0,0:0:0:0:
392,304,72487,6,0,P|480:280|440:224,2,190,2|10|2,0:0|0:0|0:0,0:0:0:0:
328,184,73289,1,0,0:0:0:0:
256,264,73450,2,0,P|208:272|160:256,1,95,10|0,0:0|0:0,0:0:0:0:
80,152,73770,5,2,0:0:0:0:
200,56,73931,1,0,0:0:0:0:
341,21,74091,2,0,P|421:85|434:171,1,190,10|2,0:0|0:0,0:0:0:0:
296,152,74572,1,0,0:0:0:0:
160,216,74733,1,10,0:0:0:0:
296,272,74893,1,0,0:0:0:0:
208,312,75054,5,2,0:0:0:0:
384,224,75214,1,0,0:0:0:0:
392,120,75374,2,0,P|288:72|216:80,1,190,10|2,0:0|0:0,0:0:0:0:
120,140,75856,5,2,0:0:0:0:
136,176,75936,1,0,0:0:0:0:
156,212,76016,1,2,0:0:0:0:
184,244,76097,1,0,0:0:0:0:
216,264,76177,1,2,0:0:0:0:
252,284,76257,1,0,0:0:0:0:
292,292,76337,1,2,0:0:0:0:
332,288,76417,1,0,0:0:0:0:
372,284,76498,1,2,0:0:0:0:
404,212,76658,5,2,0:0:0:0:
412,132,76818,1,0,0:0:0:0:
388,56,76979,1,2,0:0:0:0:
352,40,77059,1,0,0:0:0:0:
312,32,77139,1,0,0:0:0:0:
208,40,77300,5,2,0:0:0:0:
128,104,77460,1,0,0:0:0:0:
64,211,77621,6,0,P|81:306|158:349,1,190,2|2,0:0|0:0,0:0:0:0:
168,240,78102,1,0,0:0:0:0:
336,192,78262,6,0,P|319:97|242:54,1,190,2|2,0:0|0:0,0:0:0:0:
232,163,78743,1,0,0:0:0:0:
424,144,78904,6,0,P|407:49|330:6,1,190,2|2,0:0|0:0,0:0:0:0:
320,115,79385,1,0,0:0:0:0:
128,134,79546,6,0,P|145:229|222:272,1,190,2|2,0:0|0:0,0:0:0:0:
232,163,80027,1,0,0:0:0:0:
440,184,80187,6,0,P|424:280|352:328,1,190,2|2,0:0|0:0,0:0:0:0:
248,352,80669,1,0,0:0:0:0:
172,254,80816,1,2,0:0:0:0:
189,73,80990,1,0,0:0:0:0:
63,202,81150,1,2,0:0:0:0:
240,168,81310,1,0,0:0:0:0:
75,92,81471,5,2,0:0:0:0:
172,254,81631,1,0,0:0:0:0:
189,73,81792,1,2,0:0:0:0:
63,202,81952,1,0,0:0:0:0:
120,328,82113,5,2,0:0:0:0:
168,328,82193,1,0,0:0:0:0:
216,328,82273,1,2,0:0:0:0:
264,328,82353,1,0,0:0:0:0:
312,328,82433,1,2,0:0:0:0:
388,260,82594,1,0,0:0:0:0:
424,160,82754,6,0,P|407:65|330:22,1,190,2|2,0:0|0:0,0:0:0:0:
320,131,83235,1,0,0:0:0:0:
144,176,83396,6,0,P|161:271|238:314,1,190,2|2,0:0|0:0,0:0:0:0:
248,205,83877,1,0,0:0:0:0:
320,48,84038,6,0,P|232:7|153:45,1,190,2|2,0:0|0:0,0:0:0:0:
236,116,84519,1,0,0:0:0:0:
174,283,84679,6,0,P|265:314|340:267,1,190,2|2,0:0|0:0,0:0:0:0:
248,205,85160,1,0,0:0:0:0:
152,168,85321,6,0,P|112:72|176:40,1,190,2|2,0:0|0:0,0:0:0:0:
304,56,85802,1,0,0:0:0:0:
400,80,85963,5,2,0:0:0:0:
416,112,86043,1,0,0:0:0:0:
428,144,86123,1,2,0:0:0:0:
428,180,86204,1,0,0:0:0:0:
424,216,86284,1,2,0:0:0:0:
416,248,86364,1,0,0:0:0:0:
400,280,86444,1,2,0:0:0:0:
376,304,86524,1,0,0:0:0:0:
348,324,86605,1,2,0:0:0:0:
316,336,86685,1,0,0:0:0:0:
280,344,86765,2,0,L|184:368,2,95,0|2|0,0:0|0:0|0:0,0:0:0:0:
256,192,87165,12,0,89171,0:0:0:0:
