osu file format v14

[General]
AudioFilename: audio.mp3
AudioLeadIn: 0
PreviewTime: 56925
Countdown: 0
SampleSet: Soft
StackLeniency: 0.7
Mode: 0
LetterboxInBreaks: 0
WidescreenStoryboard: 1

[Editor]
DistanceSpacing: 2.5
BeatDivisor: 4
GridSize: 8
TimelineZoom: 2.4

[Metadata]
Title:Endless Story (TV Size)
TitleUnicode:Endless Story (TV Size)
Artist:Tamura Yukari
ArtistUnicode:Tamura Yukari
Creator:Yukiin0
Version:Endless Story
Source:C3 Shikyubu
Tags:cube x cursed curious opening 1 op c3 fear
BeatmapID:923211
BeatmapSetID:420124

[Difficulty]
HPDrainRate:6
CircleSize:4.3
OverallDifficulty:7.5
ApproachRate:9.2
SliderMultiplier:2
SliderTickRate:1

[Events]
//Background and Video events
Video,0,"movie.avi"
0,0,"bg.jpg",0,0
//Break Periods
//Storyboard Layer 0 (Background)
//Storyboard Layer 1 (Fail)
//Storyboard Layer 2 (Pass)
//Storyboard Layer 3 (Foreground)
//Storyboard Sound Samples

[TimingPoints]
895,759.493670886076,4,2,2,70,1,0
11527,-200,4,2,2,70,0,0
13046,-100,4,2,2,30,0,0
13450,320.855614973262,4,2,1,70,1,0
14091,320.855614973262,4,2,1,70,1,0
24358,-125,4,2,1,70,0,0
44893,-142.857142857143,4,2,1,70,0,0
49385,-142.857142857143,4,2,2,75,0,0
50026,-125,4,2,1,70,0,0
52594,-100,4,2,1,70,0,0
55160,-100,4,2,2,70,0,0
56443,-100,4,2,2,75,0,0
56925,-100,4,2,1,80,0,0
57727,-100,4,2,1,80,0,1
77620,-100,4,2,1,80,0,0
89171,-100,4,2,1,5,0,0

[Colours]
Combo1 : 255,255,255
Combo2 : 128,255,255
Combo3 : 255,128,192
Combo4 : 177,240,132
Combo5 : 255,255,0

[HitObjects]
208,64,895,6,0,P|121:113|108:205,1,200
407,205,2413,2,0,P|389:299|309:357,1,200
265,220,3553,1,0,0:0:0:0:
159,114,3932,2,0,P|124:149|115:198,1,100
115,348,4692,2,0,L|219:348,1,100
365,348,5451,2,0,P|460:335|509:252,1,200
402,145,6591,5,0,0:0:0:0:
296,39,6970,2,0,P|192:15|112:55,1,200
112,254,8489,1,0,0:0:0:0:
312,254,9249,2,0,P|368:248|403:224,2,100
332,156,10388,1,0,0:0:0:0:
367,62,10768,2,0,P|311:54|263:78,1,100
201,141,11527,2,0,B|56:200|64:224|160:224,1,200
277,223,13450,5,0,0:0:0:0:
304,224,13530,1,0,0:0:0:0:
328,224,13610,1,0,0:0:0:0:
352,224,13690,1,0,0:0:0:0:
376,224,13770,1,0,0:0:0:0:
400,216,13851,1,0,0:0:0:0:
416,200,13931,1,0,0:0:0:0:
432,176,14011,1,0,0:0:0:0:
443,154,14091,6,0,P|446:57|357:26,1,200,8|10,0:0|0:0,0:0:0:0:
210,24,14572,1,0,0:0:0:0:
168,168,14732,1,2,0:0:0:0:
48,80,14893,1,0,0:0:0:0:
160,328,15053,1,10,0:0:0:0:
48,232,15213,1,0,0:0:0:0:
315,354,15374,6,0,P|424:328|464:256,1,200,2|10,0:0|0:0,0:0:0:0:
381,56,15856,1,0,0:0:0:0:
463,106,16016,2,0,P|416:64|376:56,1,100,2|0,0:0|0:0,0:0:0:0:
228,58,16337,1,10,0:0:0:0:
288,192,16498,1,0,0:0:0:0:
144,152,16657,5,2,0:0:0:0:
64,280,16818,1,0,0:0:0:0:
202,337,16978,2,0,P|250:321|282:281,1,100,10|0,0:0|0:0,0:0:0:0:
184,220,17300,1,2,0:0:0:0:
288,112,17460,1,0,0:0:0:0:
136,80,17620,2,0,P|85:106|67:146,1,100,10|0,0:0|0:0,0:0:0:0:
96,288,17941,6,0,B|128:352|200:336|200:336|280:336,1,200,2|10,0:0|0:0,0:0:0:0:
424,320,18423,1,0,0:0:0:0:
424,120,18583,1,2,0:0:0:0:
348,305,18744,1,0,0:0:0:0:
348,105,18904,1,10,0:0:0:0:
241,219,19064,1,0,0:0:0:0:
210,219,19145,1,0,0:0:0:0:
181,219,19224,6,0,P|69:179|29:107,2,200,2|10|2,0:0|0:0|0:0,0:0:0:0:
176,72,20027,1,0,0:0:0:0:
176,72,20187,2,0,P|232:64|280:72,1,100,10|0,0:0|0:0,0:0:0:0:
420,108,20508,2,0,P|460:212|444:300,1,200,2|10,0:0|0:0,0:0:0:0:
308,362,20990,5,0,0:0:0:0:
159,362,21149,2,0,P|82:347|58:331,1,100,2|0,0:0|0:0,0:0:0:0:
114,286,21470,2,0,P|187:294|217:287,1,100,2|0,0:0|0:0,0:0:0:0:
212,215,21792,2,0,P|146:226|108:210,1,100,2|0,0:0|0:0,0:0:0:0:
9,108,22113,5,10,0:0:0:0:
202,60,22273,1,0,0:0:0:0:
390,124,22433,1,2,0:0:0:0:
202,60,22593,1,0,0:0:0:0:
390,124,22754,1,10,0:0:0:0:
495,229,22914,6,0,P|399:274|309:252,1,200
204,146,23395,1,10,0:0:0:0:
97,252,23556,1,0,0:0:0:0:
97,151,23717,5,8,0:0:0:0:
113,119,23797,1,8,0:0:0:0:
137,87,23877,1,8,0:0:0:0:
161,63,23958,1,8,0:0:0:0:
193,47,24038,1,8,0:0:0:0:
225,39,24118,1,8,0:0:0:0:
257,31,24198,1,8,0:0:0:0:
289,31,24278,1,8,0:0:0:0:
321,31,24358,6,0,P|417:63|457:103,1,160,2|2,0:0|0:0,0:0:0:0:
457,224,24840,1,0,0:0:0:0:
457,343,25000,2,0,L|368:344,1,80,2|0,0:0|0:0,0:0:0:0:
266,342,25321,1,2,0:0:0:0:
148,315,25482,1,0,0:0:0:0:
48,272,25641,6,0,P|40:224|48:192,1,80,2|0,0:0|0:0,0:0:0:0:
148,92,25962,2,0,P|156:140|148:172,1,80,2|0,0:0|0:0,0:0:0:0:
148,315,26284,1,2,0:0:0:0:
266,342,26444,1,0,0:0:0:0:
386,342,26605,2,0,B|480:336|480:288|480:288|424:272,1,160,2|2,0:0|0:0,0:0:0:0:
320,276,27086,5,0,0:0:0:0:
320,156,27246,2,0,P|309:107|291:81,1,80,2|0,0:0|0:0,0:0:0:0:
173,17,27567,1,2,0:0:0:0:
198,155,27728,1,0,0:0:0:0:
64,131,27888,2,0,P|59:170|72:209,1,80,2|0,0:0|0:0,0:0:0:0:
175,268,28208,2,0,P|142:296|105:309,1,80,2|0,0:0|0:0,0:0:0:0:
175,268,28529,2,0,P|195:302|227:326,1,80,2|0,0:0|0:0,0:0:0:0:
348,325,28851,6,0,P|389:328|429:320,1,80,2|0,0:0|0:0,0:0:0:0:
511,236,29171,1,2,0:0:0:0:
425,150,29332,1,0,0:0:0:0:
401,134,29412,1,0,0:0:0:0:
376,120,29492,2,0,P|280:96|216:104,2,160,2|2|2,0:0|0:0|0:0,0:0:0:0:
376,240,30294,5,0,0:0:0:0:
290,325,30455,1,2,0:0:0:0:
172,348,30615,1,0,0:0:0:0:
87,263,30775,2,0,P|24:192|24:128,1,160,2|2,0:0|0:0,0:0:0:0:
131,164,31257,5,0,0:0:0:0:
131,164,31417,2,0,P|171:140|195:108,1,80,2|0,0:0|0:0,0:0:0:0:
227,36,31738,2,0,P|275:60|291:84,1,80,2|0,0:0|0:0,0:0:0:0:
283,204,32058,2,0,B|363:220|363:172|443:204,1,160,2|2,0:0|0:0,0:0:0:0:
448,272,32540,5,0,0:0:0:0:
352,344,32700,2,0,P|304:352|264:352,1,80,2|0,0:0|0:0,0:0:0:0:
136,328,33022,1,2,0:0:0:0:
0,272,33182,1,0,0:0:0:0:
152,216,33343,1,2,0:0:0:0:
0,160,33503,1,0,0:0:0:0:
0,160,33663,2,0,P|24:112|48:88,1,80,2|0,0:0|0:0,0:0:0:0:
144,32,33984,5,2,0:0:0:0:
176,16,34064,1,2,0:0:0:0:
208,16,34144,1,2,0:0:0:0:
240,24,34224,1,2,0:0:0:0:
272,32,34304,1,2,0:0:0:0:
296,48,34385,1,2,0:0:0:0:
320,72,34465,1,2,0:0:0:0:
344,96,34545,1,2,0:0:0:0:
360,120,34625,6,0,P|400:200|384:272,1,160,2|2,0:0|0:0,0:0:0:0:
301,351,35107,1,0,0:0:0:0:
184,360,35268,1,2,0:0:0:0:
72,360,35427,2,0,P|24:344|8:320,1,80,0|2,0:0|0:0,0:0:0:0:
8,208,35749,1,0,0:0:0:0:
104,272,35909,6,0,P|132:231|137:196,1,80,2|0,0:0|0:0,0:0:0:0:
137,81,36230,2,0,P|184:64|216:64,1,80,2|0,0:0|0:0,0:0:0:0:
333,63,36550,2,0,B|408:160|384:192|336:168,1,160,2|2,0:0|0:0,0:0:0:0:
447,277,37031,1,0,0:0:0:0:
288,336,37192,5,2,0:0:0:0:
128,336,37353,1,0,0:0:0:0:
248,240,37514,1,2,0:0:0:0:
88,240,37674,1,0,0:0:0:0:
248,240,37835,6,0,P|280:208|288:168,1,80,2|0,0:0|0:0,0:0:0:0:
232,72,38155,2,0,P|200:112|200:152,1,80,2|0,0:0|0:0,0:0:0:0:
232,72,38476,1,2,0:0:0:0:
352,72,38637,1,0,0:0:0:0:
432,160,38797,1,2,0:0:0:0:
456,280,38958,1,0,0:0:0:0:
352,336,39118,6,0,P|304:344|264:336,1,80,2|0,0:0|0:0,0:0:0:0:
160,312,39439,1,2,0:0:0:0:
56,256,39599,1,0,0:0:0:0:
40,232,39679,1,0,0:0:0:0:
24,208,39760,2,0,P|8:128|24:48,2,160,2|2|2,0:0|0:0|0:0,0:0:0:0:
160,312,40562,5,0,0:0:0:0:
288,296,40722,2,0,P|344:288|368:272,1,80,2|0,0:0|0:0,0:0:0:0:
464,200,41043,2,0,P|440:168|400:152,1,80,2|0,0:0|0:0,0:0:0:0:
275,152,41364,1,2,0:0:0:0:
184,242,41524,1,0,0:0:0:0:
24,136,41685,6,0,P|32:80|56:56,1,80,2|0,0:0|0:0,0:0:0:0:
160,24,42006,2,0,P|176:64|160:104,1,80,2|0,0:0|0:0,0:0:0:0:
112,216,42326,1,2,0:0:0:0:
21,306,42486,1,0,0:0:0:0:
172,306,42647,1,2,0:0:0:0:
279,198,42807,1,0,0:0:0:0:
320,344,42968,6,0,P|384:320|432:232,1,160,2|2,0:0|0:0,0:0:0:0:
430,91,43449,1,0,0:0:0:0:
312,32,43609,1,2,0:0:0:0:
184,32,43770,1,0,0:0:0:0:
152,32,43851,1,0,0:0:0:0:
120,40,43931,2,0,P|72:56|48:80,1,80,2|0,0:0|0:0,0:0:0:0:
51,276,44251,5,2,0:0:0:0:
250,276,44411,1,2,0:0:0:0:
250,116,44572,1,2,0:0:0:0:
250,116,44893,6,0,P|264:183|325:219,1,139.999995727539,2|2,0:0|0:0,0:0:0:0:
340,128,45375,1,0,0:0:0:0:
349,35,45534,2,0,P|411:64|432:129,1,139.999995727539,2|2,0:0|0:0,0:0:0:0:
432,240,46016,1,0,0:0:0:0:
352,319,46177,2,0,P|280:343|207:347,1,139.999995727539,2|2,0:0|0:0,0:0:0:0:
104,337,46658,1,0,0:0:0:0:
104,138,46818,5,2,0:0:0:0:
5,238,46979,1,0,0:0:0:0:
202,236,47139,1,2,0:0:0:0:
320,168,47299,1,0,0:0:0:0:
418,69,47459,2,0,P|376:32|352:24,1,69.9999978637696,2|0,0:0|0:0,0:0:0:0:
222,27,47781,5,2,0:0:0:0:
104,138,47941,1,0,0:0:0:0:
4,237,48102,2,0,P|56:280|128:280,1,139.999995727539,2|2,0:0|0:0,0:0:0:0:
255,151,48583,1,0,0:0:0:0:
358,275,48743,6,0,P|432:304|487:279,1,139.999995727539,2|2,0:0|0:0,0:0:0:0:
424,216,49224,1,0,0:0:0:0:
299,91,49385,1,0,0:0:0:0:
123,91,49546,5,0,0:0:0:0:
240,216,49705,1,0,0:0:0:0:
392,120,49866,1,0,0:0:0:0:
448,304,50026,6,0,P|408:328|368:336,1,80,2|0,0:0|0:0,0:0:0:0:
224,336,50347,2,0,P|168:328|136:312,1,80,2|0,0:0|0:0,0:0:0:0:
24,224,50668,2,0,P|16:144|48:64,1,160,2|2,0:0|0:0,0:0:0:0:
176,16,51150,1,0,0:0:0:0:
288,88,51310,1,2,0:0:0:0:
400,8,51471,1,0,0:0:0:0:
368,144,51631,6,0,P|336:176|304:184,1,80,2|0,0:0|0:0,0:0:0:0:
192,120,51952,2,0,P|144:192|184:248,1,160,2|2,0:0|0:0,0:0:0:0:
304,280,52433,1,0,0:0:0:0:
432,336,52594,6,0,P|480:240|448:144,1,200,2|2,0:0|0:0,0:0:0:0:
384,48,53075,2,0,P|312:120|336:216,1,200,2|2,0:0|0:0,0:0:0:0:
432,336,53556,2,0,P|331:359|232:352,1,200,2|2,0:0|0:0,0:0:0:0:
48,232,54038,5,0,0:0:0:0:
16,112,54198,2,0,P|64:96|112:96,1,100,2|0,0:0|0:0,0:0:0:0:
232,144,54519,2,0,P|280:168|328:176,1,100,2|0,0:0|0:0,0:0:0:0:
440,112,54840,1,2,0:0:0:0:
328,48,55000,1,0,0:0:0:0:
88,48,55160,5,8,0:0:0:0:
88,287,55320,1,8,0:0:0:0:
256,112,55481,1,8,0:0:0:0:
18,116,55641,1,8,0:0:0:0:
188,286,55802,5,8,0:0:0:0:
428,286,55962,1,8,0:0:0:0:
258,116,56123,1,8,0:0:0:0:
258,354,56283,1,8,0:0:0:0:
258,116,56443,5,0,0:0:0:0:
354,292,56605,1,0,0:0:0:0:
194,204,56764,1,0,0:0:0:0:
448,152,57086,5,2,0:0:0:0:
432,320,57406,1,2,0:0:0:0:
392,336,57487,1,0,0:0:0:0:
352,352,57566,1,0,0:0:0:0:
312,360,57647,1,0,0:0:0:0:
272,368,57727,6,0,P|168:368|88:312,1,200,10|10,0:0|0:0,0:0:0:0:
0,222,58209,1,0,0:0:0:0:
0,92,58369,6,0,P|40:60|88:44,1,100,2|0,0:0|0:0,0:0:0:0:
224,56,58690,1,10,0:0:0:0:
352,80,58851,1,0,0:0:0:0:
384,96,58931,1,0,0:0:0:0:
408,120,59011,2,0,P|472:208|472:296,1,200,2|10,0:0|0:0,0:0:0:0:
360,236,59492,1,0,0:0:0:0:
256,312,59653,5,2,0:0:0:0:
128,280,59813,1,0,0:0:0:0:
360,236,59973,6,0,P|288:216|264:192,1,100,10|0,0:0|0:0,0:0:0:0:
192,96,60294,2,0,P|152:64|96:48,1,100,2|0,0:0|0:0,0:0:0:0:
188,186,60615,6,0,P|136:152|88:136,1,100,10|0,0:0|0:0,0:0:0:0:
324,186,60935,2,0,P|376:152|424:136,1,100,2|0,0:0|0:0,0:0:0:0:
185,272,61256,6,0,P|133:306|85:322,1,100,10|0,0:0|0:0,0:0:0:0:
321,272,61577,2,0,P|400:328|496:296,1,200,2|10,0:0|0:0,0:0:0:0:
416,192,62059,1,0,0:0:0:0:
312,72,62219,5,2,0:0:0:0:
152,48,62379,1,0,0:0:0:0:
16,128,62540,1,10,0:0:0:0:
64,248,62701,5,0,0:0:0:0:
88,272,62781,1,0,0:0:0:0:
112,296,62861,2,0,P|208:336|304:328,1,200,2|10,0:0|0:0,0:0:0:0:
416,272,63343,1,0,0:0:0:0:
464,176,63503,2,0,P|472:120|464:72,1,100,2|0,0:0|0:0,0:0:0:0:
360,56,63824,2,0,P|312:72|280:120,1,100,10|0,0:0|0:0,0:0:0:0:
384,152,64144,6,0,P|360:208|320:224,1,100,2|0,0:0|0:0,0:0:0:0:
176,208,64465,2,0,P|176:272|200:304,1,100,10|0,0:0|0:0,0:0:0:0:
296,336,64786,2,0,P|352:312|368:280,1,100,2|0,0:0|0:0,0:0:0:0:
264,224,65107,2,0,P|296:176|336:160,1,100,10|0,0:0|0:0,0:0:0:0:
456,160,65427,2,0,P|504:256|456:328,1,200,2|10,0:0|0:0,0:0:0:0:
327,326,65909,5,0,0:0:0:0:
264,224,66069,1,2,0:0:0:0:
192,328,66230,1,0,0:0:0:0:
112,232,66390,1,10,0:0:0:0:
34,309,66550,2,0,P|1:222|60:139,1,200,2|2,0:0|0:0,0:0:0:0:
140,66,67032,1,10,0:0:0:0:
256,48,67353,5,8,0:0:0:0:
296,56,67433,1,8,0:0:0:0:
336,72,67513,1,8,0:0:0:0:
376,88,67593,1,8,0:0:0:0:
408,112,67673,1,8,0:0:0:0:
432,144,67754,1,8,0:0:0:0:
448,176,67835,1,8,0:0:0:0:
464,216,67915,1,8,0:0:0:0:
472,256,67994,6,0,P|432:360|352:376,1,200,10|10,0:0|0:0,0:0:0:0:
224,376,68476,1,0,0:0:0:0:
96,352,68636,2,0,P|48:328|32:280,1,100,2|0,0:0|0:0,0:0:0:0:
24,184,68958,1,10,0:0:0:0:
80,88,69118,1,0,0:0:0:0:
138,0,69278,2,0,P|187:79|151:169,2,200,2|10|2,0:0|0:0|0:0,0:0:0:0:
240,216,70081,5,0,0:0:0:0:
280,336,70241,2,0,P|336:320|360:288,1,100,10|0,0:0|0:0,0:0:0:0:
392,160,70562,1,2,0:0:0:0:
328,48,70722,1,0,0:0:0:0:
216,48,70883,6,0,P|152:72|128:104,1,100,10|0,0:0|0:0,0:0:0:0:
328,48,71204,2,0,P|392:72|416:104,1,100,2|0,0:0|0:0,0:0:0:0:
320,184,71524,2,0,P|280:232|240:256,1,100,10|0,0:0|0:0,0:0:0:0:
120,288,71845,1,2,0:0:0:0:
272,360,72006,1,0,0:0:0:0:
408,256,72166,1,10,0:0:0:0:
240,280,72327,1,0,0:0:0:0:
96,200,72487,1,2,0:0:0:0:
264,208,72647,1,0,0:0:0:0:
416,136,72808,5,10,0:0:0:0:
416,136,72888,1,0,0:0:0:0:
416,136,72968,1,0,0:0:0:0:
416,136,73048,1,0,0:0:0:0:
416,136,73128,2,0,P|320:104|216:104,1,200,2|10,0:0|0:0,0:0:0:0:
96,136,73610,5,0,0:0:0:0:
24,240,73770,1,2,0:0:0:0:
120,328,73931,1,0,0:0:0:0:
248,320,74091,2,0,P|312:312|344:296,1,100,10|0,0:0|0:0,0:0:0:0:
424,192,74412,6,0,P|376:184|320:192,1,100,2|0,0:0|0:0,0:0:0:0:
200,232,74732,1,10,0:0:0:0:
80,272,74893,1,0,0:0:0:0:
16,160,75054,2,0,P|64:128|104:120,1,100,2|0,0:0|0:0,0:0:0:0:
216,48,75375,2,0,P|232:96|224:152,1,100,10|0,0:0|0:0,0:0:0:0:
144,304,75695,5,2,0:0:0:0:
88,72,75856,1,0,0:0:0:0:
310,152,76016,1,10,0:0:0:0:
64,240,76177,1,0,0:0:0:0:
188,36,76336,1,2,0:0:0:0:
289,250,76498,1,0,0:0:0:0:
92,151,76658,1,10,0:0:0:0:
310,152,76818,2,0,P|392:208|496:208,1,200,2|2,0:0|0:0,0:0:0:0:
488,120,77300,1,10,0:0:0:0:
376,48,77460,1,0,0:0:0:0:
248,32,77621,5,2,0:0:0:0:
216,40,77701,1,0,0:0:0:0:
184,56,77780,1,2,0:0:0:0:
152,72,77861,1,0,0:0:0:0:
128,96,77941,1,2,0:0:0:0:
104,128,78022,1,0,0:0:0:0:
88,160,78101,1,2,0:0:0:0:
80,192,78181,1,0,0:0:0:0:
80,224,78262,6,0,P|128:320|216:344,2,200,2|2|2,0:0|0:0|0:0,0:0:0:0:
72,80,79064,1,0,0:0:0:0:
208,104,79224,2,0,P|264:176|368:176,1,200,2|2,0:0|0:0,0:0:0:0:
320,64,79706,1,0,0:0:0:0:
208,32,79867,6,0,P|152:56|136:96,1,100,2|0,0:0|0:0,0:0:0:0:
120,208,80187,1,2,0:0:0:0:
208,312,80348,1,0,0:0:0:0:
344,344,80508,2,0,P|408:352|440:336,1,100,2|0,0:0|0:0,0:0:0:0:
480,200,80829,6,0,P|488:128|480:96,1,100,2|0,0:0|0:0,0:0:0:0:
360,32,81150,2,0,P|336:96|336:128,1,100,2|0,0:0|0:0,0:0:0:0:
376,264,81471,2,0,P|328:312|296:320,1,100,2|0,0:0|0:0,0:0:0:0:
168,280,81791,2,0,P|216:232|248:224,1,100,2|0,0:0|0:0,0:0:0:0:
392,192,82112,5,2,0:0:0:0:
144,112,82273,1,0,0:0:0:0:
400,120,82433,1,2,0:0:0:0:
128,184,82594,1,0,0:0:0:0:
272,24,82754,5,2,0:0:0:0:
168,280,82915,1,0,0:0:0:0:
328,72,83074,1,2,0:0:0:0:
408,160,83236,1,0,0:0:0:0:
416,184,83316,1,0,0:0:0:0:
424,216,83396,2,0,P|392:312|296:352,1,200,2|2,0:0|0:0,0:0:0:0:
168,336,83877,1,0,0:0:0:0:
168,336,84038,2,0,P|96:320|72:304,1,100,2|0,0:0|0:0,0:0:0:0:
168,200,84359,2,0,P|120:168|72:160,1,100,2|0,0:0|0:0,0:0:0:0:
74,306,84679,5,2,0:0:0:0:
79,160,84840,1,0,0:0:0:0:
168,56,85000,1,2,0:0:0:0:
296,120,85161,1,0,0:0:0:0:
352,232,85321,6,0,P|400:208|432:176,1,100,2|0,0:0|0:0,0:0:0:0:
296,120,85642,2,0,P|248:168|240:208,1,100,2|0,0:0|0:0,0:0:0:0:
288,312,85963,2,0,P|232:336|192:336,1,100,2|0,0:0|0:0,0:0:0:0:
64,296,86284,5,2,0:0:0:0:
32,80,86444,1,0,0:0:0:0:
192,232,86605,1,2,0:0:0:0:
264,24,86765,1,0,0:0:0:0:
392,200,86925,1,2,0:0:0:0:
184,136,87086,1,0,0:0:0:0:
256,192,87246,12,0,89171,0:0:0:0:
