osu file format v14

[General]
AudioFilename: Endless Story.mp3
AudioLeadIn: 0
PreviewTime: 57244
Countdown: 0
SampleSet: Soft
StackLeniency: 0.7
Mode: 3
LetterboxInBreaks: 0
SpecialStyle: 0
WidescreenStoryboard: 0

[Editor]
Bookmarks: 7145
DistanceSpacing: 1.4
BeatDivisor: 4
GridSize: 4
TimelineZoom: 1.5

[Metadata]
Title:Endless Story (TV Size)
TitleUnicode:Endless Story (TV Size)
Artist:Tamura Yukari
ArtistUnicode:田村ゆかり
Creator:Syadow-
Version:Num's 4K Hard
Source:C3 -シーキューブ-
Tags:Shikyubu Cube Cursed Curious OP opening STARCHILD SILVER LINK. Chihara Minori Eri Kitamura Ly0572 -_Ly0572_- Amiichii AchsanLovers NumLock [_NumLock_] Damaree Ilham JooF12 dudehacker Anime Japanese
BeatmapID:1320061
BeatmapSetID:626290

[Difficulty]
HPDrainRate:7.5
CircleSize:4
OverallDifficulty:7.5
ApproachRate:5
SliderMultiplier:1.4
SliderTickRate:1

[Events]
//Background and Video events
0,0,"BG.jpg",0,0
//Break Periods
//Storyboard Layer 0 (Background)
//Storyboard Layer 1 (Fail)
//Storyboard Layer 2 (Pass)
//Storyboard Layer 3 (Foreground)
//Storyboard Sound Samples
Sample,273,0,"G6S.wav",57
Sample,673,0,"A6S.wav",69
Sample,1070,0,"C7S.wav",73
Sample,1070,0,"G6S.wav",73
Sample,2588,0,"A6S.wav",61
Sample,2588,0,"A5S.wav",61
Sample,3348,0,"G6S.wav",61
Sample,3728,0,"A6S.wav",68
Sample,4107,0,"E6S.wav",70
Sample,4107,0,"C7S.wav",71
Sample,4487,0,"A6S.wav",57
Sample,4867,0,"G6S.wav",60
Sample,5247,0,"A6S.wav",69
Sample,5626,0,"A6S.wav",66
Sample,5626,0,"F#6S_Gb6S.wav",66
Sample,6386,0,"G6S.wav",64
Sample,6766,0,"A6S.wav",70
Sample,7145,0,"G6S.wav",69
Sample,7145,0,"soft-hitfinish.wav",30
Sample,7145,0,"C7S.wav",69
Sample,7905,0,"D7S.wav",70
Sample,8664,0,"C4S.wav",59
Sample,9424,0,"G6S.wav",60
Sample,9804,0,"A6S.wav",68
Sample,10183,0,"C7S.wav",71
Sample,10183,0,"E6S.wav",70
Sample,10563,0,"A6S.wav",61
Sample,10943,0,"G6S.wav",61
Sample,11323,0,"A6S.wav",69
Sample,11702,0,"F#6S_Gb6S.wav",64
Sample,11702,0,"A5S.wav",64
Sample,11702,0,"A6S.wav",64
Sample,13616,0,"G6S.wav",57
Sample,13616,0,"G5S.wav",57
Sample,13936,0,"A5S.wav",69
Sample,13936,0,"A6S.wav",69
Sample,14250,0,"C7S.wav",73
Sample,14250,0,"G6S.wav",73
Sample,14250,0,"C6S.wav",73
Sample,14250,0,"A#3S_Bb3S.wav",49
Sample,14891,0,"D7S.wav",70
Sample,15533,0,"C4S.wav",56
Sample,15533,0,"A6S.wav",61
Sample,16175,0,"G6S.wav",61
Sample,16495,0,"A6S.wav",68
Sample,16816,0,"C6S.wav",71
Sample,16816,0,"C7S.wav",71
Sample,16816,0,"F6S.wav",71
Sample,17137,0,"A6S.wav",57
Sample,17458,0,"G6S.wav",60
Sample,17779,0,"A6S.wav",69
Sample,18100,0,"A6S.wav",66
Sample,18100,0,"A5S.wav",66
Sample,18100,0,"F#6S_Gb6S.wav",66
Sample,18741,0,"G6S.wav",64
Sample,19062,0,"A6S.wav",70
Sample,19383,0,"C6S.wav",69
Sample,19383,0,"G6S.wav",69
Sample,19383,0,"A#3S_Bb3S.wav",50
Sample,19383,0,"C7S.wav",69
Sample,20025,0,"D7S.wav",70
Sample,20667,0,"A6S.wav",55
Sample,20667,0,"E6S.wav",55
Sample,20667,0,"C4S.wav",59
Sample,21308,0,"G6S.wav",60
Sample,21629,0,"A6S.wav",68
Sample,21950,0,"G5S.wav",68
Sample,21950,0,"A6S.wav",68
Sample,23073,0,"F#5S_Gb5S_s.wav",68
Sample,56602,0,"D7S.wav",70
Sample,56763,0,"D7S.wav",70
Sample,56923,0,"D7S.wav",70
Sample,77779,0,"G6S.wav",57
Sample,77779,0,"G5S.wav",57
Sample,78100,0,"A5S.wav",69
Sample,78100,0,"A6S.wav",69
Sample,78421,0,"G6S.wav",73
Sample,78421,0,"A#3S_Bb3S.wav",49
Sample,78421,0,"C6S.wav",73
Sample,78421,0,"C7S.wav",73
Sample,79062,0,"D7S.wav",70
Sample,79704,0,"A6S.wav",61
Sample,79704,0,"C4S.wav",56
Sample,80346,0,"G6S.wav",61
Sample,80667,0,"A6S.wav",68
Sample,80667,0,"A5S.wav",68
Sample,80987,0,"C6S.wav",71
Sample,80987,0,"D4S.wav",58
Sample,80987,0,"F6S.wav",71
Sample,80987,0,"C7S.wav",71
Sample,81308,0,"A6S.wav",57
Sample,81629,0,"G6S.wav",60
Sample,81950,0,"A6S.wav",69
Sample,82271,0,"A6S.wav",66
Sample,82271,0,"F#6S_Gb6S.wav",66
Sample,82271,0,"D4S.wav",55
Sample,82913,0,"G6S.wav",64
Sample,83233,0,"A6S.wav",70
Sample,83554,0,"C7S.wav",69
Sample,83554,0,"G6S.wav",69
Sample,83554,0,"C6S.wav",69
Sample,83554,0,"A#3S_Bb3S.wav",50
Sample,84196,0,"D7S.wav",70
Sample,84838,0,"A6S.wav",55
Sample,84838,0,"C4S.wav",59
Sample,84838,0,"E6S.wav",55
Sample,85479,0,"G6S.wav",60
Sample,85800,0,"A6S.wav",68
Sample,86121,0,"A5S.wav",68
Sample,86121,0,"A6S.wav",68

[TimingPoints]
273,800,4,2,1,30,1,0
273,-40.1606425702811,4,2,1,30,0,0
1070,759.493670886076,4,2,1,30,1,0
1070,-42.1940928270042,4,2,1,30,0,0
13616,320.855614973262,4,2,1,30,1,0
14250,320.855614973262,4,2,1,30,1,0
57886,-100,4,2,1,50,0,1
67832,-100,4,2,1,50,0,0
68153,-100,4,2,1,50,0,1
78421,-100,4,2,1,30,0,0

[HitObjects]
192,192,273,128,0,673:0:0:0:57:G5S.wav
320,192,673,128,0,1070:0:0:0:69:A5S.wav
448,192,1070,128,0,1829:0:0:0:49:A#3S_Bb3S.wav
64,192,1070,1,0,0:0:0:73:C6S.wav
192,192,1829,128,0,2588:0:0:0:70:D6S.wav
320,192,1829,1,0,0:0:0:70:D7S.wav
64,192,2588,128,0,3348:0:0:0:56:C4S.wav
448,192,3348,128,0,3728:0:0:0:61:G5S.wav
192,192,3728,128,0,4107:0:0:0:68:A5S.wav
64,192,4107,128,0,4487:0:0:0:58:D4S.wav
448,192,4107,1,0,0:0:0:71:C6S.wav
320,192,4487,128,0,4867:0:0:0:57:A5S.wav
448,192,4867,128,0,5247:0:0:0:60:G5S.wav
192,192,5247,128,0,5626:0:0:0:69:A5S.wav
64,192,5626,128,0,6386:0:0:0:55:D4S.wav
320,192,5626,1,0,0:0:0:66:A5S.wav
448,192,6386,128,0,6766:0:0:0:64:G5S.wav
320,192,6766,128,0,7145:0:0:0:70:A5S.wav
64,192,7145,128,0,7905:0:0:0:50:A#3S_Bb3S.wav
192,192,7145,1,0,0:0:0:69:C6S.wav
448,192,7905,128,0,8664:0:0:0:70:D6S.wav
192,192,8664,128,0,9424:0:0:0:55:A5S.wav
64,192,8664,1,0,0:0:0:55:A6S.wav
320,192,9424,128,0,9804:0:0:0:60:G5S.wav
448,192,9804,128,0,10183:0:0:0:68:A5S.wav
64,192,10183,128,0,10563:0:0:0:55:D4S.wav
192,192,10183,1,0,0:0:0:71:C6S.wav
320,192,10563,128,0,10943:0:0:0:61:A5S.wav
448,192,10943,128,0,11323:0:0:0:61:G5S.wav
64,192,11323,128,0,11702:0:0:0:69:A5S.wav
320,192,11702,128,0,13601:0:0:0:56:D3S.wav
192,192,11702,1,0,0:0:0:56:D4S.wav
64,192,13616,1,8,0:0:0:0:
448,192,13696,1,8,0:0:0:0:
192,192,13776,1,8,0:0:0:0:
320,192,13856,1,8,0:0:0:0:
64,192,13936,1,8,0:0:0:0:
448,192,14017,1,8,0:0:0:0:
192,192,14097,1,8,0:0:0:0:
320,192,14177,1,8,0:0:0:0:
64,192,14250,1,2,0:0:0:0:
448,192,14250,128,4,14891:0:0:0:0:
192,192,14570,1,8,0:0:0:0:
320,192,14570,1,0,0:0:0:0:
64,192,14891,128,2,15533:0:0:0:0:
192,192,14891,1,0,0:0:0:70:D6S.wav
320,192,15052,1,2,0:0:0:0:
448,192,15212,1,8,0:0:0:0:
192,192,15212,1,0,0:0:0:0:
448,192,15533,1,0,0:0:0:61:A5S.wav
320,192,15533,128,2,16175:0:0:0:0:
192,192,15854,1,8,0:0:0:0:
448,192,15854,1,0,0:0:0:0:
64,192,16175,1,2,0:0:0:0:
192,192,16175,128,0,16495:0:0:0:61:G5S.wav
320,192,16335,1,2,0:0:0:0:
448,192,16495,1,8,0:0:0:0:
64,192,16495,128,0,16816:0:0:0:68:A5S.wav
448,192,16816,128,2,17137:0:0:0:0:
192,192,16816,1,0,0:0:0:58:D4S.wav
192,192,17137,128,8,17458:0:0:0:0:
320,192,17137,1,0,0:0:0:57:A5S.wav
320,192,17458,128,2,17779:0:0:0:0:
64,192,17458,1,0,0:0:0:60:G5S.wav
192,192,17618,1,2,0:0:0:0:
64,192,17779,128,8,18100:0:0:0:0:
448,192,17779,1,0,0:0:0:69:A5S.wav
448,192,18100,128,2,18741:0:0:0:0:
192,192,18100,1,0,0:0:0:55:D4S.wav
320,192,18260,1,0,0:0:0:0:
64,192,18421,1,8,0:0:0:0:
192,192,18421,1,0,0:0:0:0:
320,192,18581,1,0,0:0:0:0:
192,192,18741,128,2,19062:0:0:0:0:
64,192,18741,1,0,0:0:0:64:G5S.wav
320,192,18902,1,2,0:0:0:0:
64,192,19062,1,8,0:0:0:0:
448,192,19062,1,0,0:0:0:70:A5S.wav
320,192,19223,1,8,0:0:0:0:
192,192,19303,1,8,0:0:0:0:
320,192,19383,128,4,20025:0:0:0:0:
448,192,19383,1,2,0:0:0:0:
64,192,19704,1,8,0:0:0:0:
448,192,19704,1,0,0:0:0:0:
64,192,20025,1,2,0:0:0:0:
192,192,20025,128,0,20667:0:0:0:70:D6S.wav
448,192,20185,1,2,0:0:0:0:
320,192,20346,1,8,0:0:0:0:
64,192,20346,1,0,0:0:0:0:
448,192,20667,128,2,21308:0:0:0:0:
320,192,20667,1,0,0:0:0:55:A5S.wav
192,192,20987,1,8,0:0:0:0:
64,192,20987,1,0,0:0:0:0:
64,192,21308,128,2,21629:0:0:0:0:
320,192,21308,1,0,0:0:0:60:G5S.wav
192,192,21469,1,2,0:0:0:0:
448,192,21629,128,8,21950:0:0:0:0:
320,192,21629,1,0,0:0:0:68:A5S.wav
64,192,21950,1,8,0:0:0:0:
320,192,21950,1,0,0:0:0:68:A5S.wav
192,192,22110,1,2,0:0:0:0:
448,192,22110,1,0,0:0:0:0:
448,192,22271,1,8,0:0:0:0:
320,192,22271,1,0,0:0:0:0:
192,192,22431,1,2,0:0:0:0:
64,192,22431,1,0,0:0:0:0:
448,192,22592,1,8,0:0:0:0:
64,192,22592,1,0,0:0:0:0:
320,192,22752,1,2,0:0:0:0:
192,192,22752,1,0,0:0:0:0:
320,192,22913,1,8,0:0:0:0:
448,192,22913,1,0,0:0:0:0:
192,192,23073,1,4,0:0:0:0:
64,192,23073,1,2,0:0:0:0:
448,192,23394,1,2,0:0:0:0:
192,192,23394,1,0,0:0:0:0:
320,192,23554,1,8,0:0:0:0:
448,192,23554,1,0,0:0:0:0:
64,192,23715,1,2,0:0:0:0:
192,192,23715,1,4,0:0:0:0:
448,192,23875,1,8,0:0:0:0:
320,192,23955,1,8,0:0:0:0:
192,192,24036,1,8,0:0:0:0:
64,192,24116,1,8,0:0:0:0:
320,192,24196,1,8,0:0:0:0:
448,192,24276,1,8,0:0:0:0:
64,192,24356,1,8,0:0:0:0:
192,192,24437,1,8,0:0:0:0:
320,192,24517,1,4,0:0:0:0:
448,192,24517,1,2,0:0:0:0:
192,192,24838,1,8,0:0:0:0:
64,192,24838,1,0,0:0:0:0:
320,192,24998,1,0,0:0:0:0:
64,192,25159,1,2,0:0:0:0:
448,192,25159,1,0,0:0:0:0:
448,192,25319,1,2,0:0:0:0:
320,192,25319,1,0,0:0:0:0:
192,192,25479,1,8,0:0:0:0:
64,192,25479,1,0,0:0:0:0:
320,192,25640,1,0,0:0:0:0:
64,192,25800,1,2,0:0:0:0:
448,192,25800,1,0,0:0:0:0:
192,192,25961,1,0,0:0:0:0:
448,192,26121,1,8,0:0:0:0:
320,192,26121,1,0,0:0:0:0:
192,192,26282,1,0,0:0:0:0:
448,192,26442,1,2,0:0:0:0:
64,192,26442,1,0,0:0:0:0:
192,192,26602,1,2,0:0:0:0:
64,192,26602,1,0,0:0:0:0:
320,192,26763,1,8,0:0:0:0:
448,192,26763,1,0,0:0:0:0:
192,192,26923,1,0,0:0:0:0:
448,192,27084,1,2,0:0:0:0:
64,192,27084,1,0,0:0:0:0:
320,192,27244,1,0,0:0:0:0:
64,192,27405,1,8,0:0:0:0:
192,192,27405,1,0,0:0:0:0:
448,192,27565,1,0,0:0:0:0:
64,192,27725,1,2,0:0:0:0:
320,192,27725,1,0,0:0:0:0:
192,192,27886,1,2,0:0:0:0:
320,192,27886,1,0,0:0:0:0:
448,192,28046,1,8,0:0:0:0:
64,192,28046,1,0,0:0:0:0:
192,192,28207,1,0,0:0:0:0:
448,192,28367,1,2,0:0:0:0:
320,192,28367,1,0,0:0:0:0:
192,192,28528,1,0,0:0:0:0:
448,192,28688,1,8,0:0:0:0:
64,192,28688,1,0,0:0:0:0:
320,192,28848,1,0,0:0:0:0:
64,192,29009,1,2,0:0:0:0:
192,192,29009,1,0,0:0:0:0:
320,192,29169,1,2,0:0:0:0:
192,192,29169,1,0,0:0:0:0:
448,192,29330,1,8,0:0:0:0:
64,192,29330,1,0,0:0:0:0:
192,192,29490,1,8,0:0:0:0:
320,192,29570,1,8,0:0:0:0:
192,192,29651,1,2,0:0:0:0:
64,192,29651,128,0,29971:0:0:0:0:
448,192,29971,1,8,0:0:0:0:
320,192,29971,1,0,0:0:0:0:
192,192,30132,1,0,0:0:0:0:
448,192,30292,1,2,0:0:0:0:
64,192,30292,1,0,0:0:0:0:
192,192,30453,1,2,0:0:0:0:
64,192,30453,128,0,30613:0:0:0:0:
448,192,30613,1,8,0:0:0:0:
320,192,30613,1,0,0:0:0:0:
192,192,30774,1,0,0:0:0:0:
64,192,30934,1,2,0:0:0:0:
448,192,30934,128,0,31094:0:0:0:0:
320,192,31094,1,0,0:0:0:0:
192,192,31255,1,8,0:0:0:0:
64,192,31255,1,0,0:0:0:0:
320,192,31415,128,0,31576:0:0:0:0:
448,192,31576,1,2,0:0:0:0:
192,192,31576,1,0,0:0:0:0:
448,192,31736,1,2,0:0:0:0:
320,192,31736,1,0,0:0:0:0:
192,192,31897,1,8,0:0:0:0:
64,192,31897,128,0,32057:0:0:0:0:
448,192,32057,1,0,0:0:0:0:
320,192,32217,1,2,0:0:0:0:
192,192,32217,128,0,32538:0:0:0:0:
448,192,32538,1,8,0:0:0:0:
64,192,32538,1,0,0:0:0:0:
320,192,32699,1,0,0:0:0:0:
192,192,32859,1,2,0:0:0:0:
64,192,32859,1,0,0:0:0:0:
320,192,33020,1,2,0:0:0:0:
192,192,33020,128,0,33180:0:0:0:0:
64,192,33180,1,8,0:0:0:0:
448,192,33180,1,0,0:0:0:0:
320,192,33340,128,2,33501:0:0:0:0:
64,192,33501,1,8,0:0:0:0:
192,192,33501,128,0,33661:0:0:0:0:
448,192,33661,128,2,33822:0:0:0:0:
64,192,33822,128,8,33982:0:0:0:0:
192,192,33822,1,0,0:0:0:0:
320,192,33982,1,0,0:0:0:0:
64,192,34143,1,8,0:0:0:0:
448,192,34143,1,0,0:0:0:0:
320,192,34303,1,8,0:0:0:0:
192,192,34383,1,8,0:0:0:0:
448,192,34463,1,8,0:0:0:0:
320,192,34544,1,8,0:0:0:0:
64,192,34624,1,8,0:0:0:0:
192,192,34704,1,8,0:0:0:0:
320,192,34784,1,4,0:0:0:0:
448,192,34784,1,2,0:0:0:0:
192,192,35105,1,8,0:0:0:0:
64,192,35105,1,0,0:0:0:0:
448,192,35266,1,0,0:0:0:0:
64,192,35426,1,2,0:0:0:0:
320,192,35426,1,0,0:0:0:0:
64,192,35586,1,2,0:0:0:0:
448,192,35586,128,0,35747:0:0:0:0:
320,192,35747,1,8,0:0:0:0:
192,192,35747,1,0,0:0:0:0:
64,192,35907,1,0,0:0:0:0:
448,192,36068,1,2,0:0:0:0:
320,192,36068,128,0,36228:0:0:0:0:
192,192,36228,1,0,0:0:0:0:
64,192,36389,1,8,0:0:0:0:
448,192,36389,1,0,0:0:0:0:
192,192,36549,128,0,36709:0:0:0:0:
448,192,36709,1,2,0:0:0:0:
320,192,36709,1,0,0:0:0:0:
192,192,36870,1,2,0:0:0:0:
320,192,36870,1,0,0:0:0:0:
448,192,37030,1,8,0:0:0:0:
64,192,37030,128,0,37191:0:0:0:0:
448,192,37351,1,2,0:0:0:0:
192,192,37351,1,0,0:0:0:0:
320,192,37512,1,0,0:0:0:0:
64,192,37672,1,8,0:0:0:0:
192,192,37672,128,0,37832:0:0:0:0:
320,192,37832,1,0,0:0:0:0:
64,192,37993,1,2,0:0:0:0:
448,192,37993,1,0,0:0:0:0:
320,192,38153,1,2,0:0:0:0:
448,192,38153,128,0,38314:0:0:0:0:
192,192,38314,1,8,0:0:0:0:
64,192,38314,1,0,0:0:0:0:
320,192,38474,1,0,0:0:0:0:
448,192,38635,1,2,0:0:0:0:
64,192,38635,128,0,38795:0:0:0:0:
320,192,38795,1,0,0:0:0:0:
64,192,38955,1,8,0:0:0:0:
192,192,38955,1,0,0:0:0:0:
320,192,39116,128,0,39276:0:0:0:0:
448,192,39276,1,2,0:0:0:0:
64,192,39276,1,0,0:0:0:0:
192,192,39437,1,2,0:0:0:0:
448,192,39437,1,0,0:0:0:0:
320,192,39597,1,8,0:0:0:0:
64,192,39597,1,0,0:0:0:0:
448,192,39758,1,8,0:0:0:0:
320,192,39838,1,8,0:0:0:0:
192,192,39918,1,2,0:0:0:0:
64,192,39918,1,0,0:0:0:0:
448,192,40078,1,0,0:0:0:0:
320,192,40239,1,8,0:0:0:0:
192,192,40239,1,0,0:0:0:0:
64,192,40399,1,0,0:0:0:0:
320,192,40560,1,2,0:0:0:0:
448,192,40560,1,0,0:0:0:0:
192,192,40720,1,2,0:0:0:0:
320,192,40720,128,0,40881:0:0:0:0:
448,192,40881,1,8,0:0:0:0:
64,192,40881,1,0,0:0:0:0:
192,192,41041,1,0,0:0:0:0:
320,192,41201,1,2,0:0:0:0:
448,192,41201,128,0,41362:0:0:0:0:
192,192,41362,1,0,0:0:0:0:
448,192,41522,1,8,0:0:0:0:
64,192,41522,1,0,0:0:0:0:
320,192,41683,128,0,41843:0:0:0:0:
192,192,41843,1,2,0:0:0:0:
64,192,41843,1,0,0:0:0:0:
448,192,42004,1,2,0:0:0:0:
64,192,42004,1,0,0:0:0:0:
320,192,42164,1,8,0:0:0:0:
192,192,42164,128,0,42324:0:0:0:0:
64,192,42485,1,2,0:0:0:0:
448,192,42485,128,4,42806:0:0:0:0:
64,192,42806,1,8,0:0:0:0:
192,192,42806,1,0,0:0:0:0:
320,192,42966,1,0,0:0:0:0:
192,192,43127,1,2,0:0:0:0:
448,192,43127,1,0,0:0:0:0:
448,192,43287,1,2,0:0:0:0:
64,192,43287,128,0,43447:0:0:0:0:
192,192,43447,1,8,0:0:0:0:
320,192,43447,1,0,0:0:0:0:
448,192,43608,1,0,0:0:0:0:
192,192,43768,128,2,43929:0:0:0:0:
64,192,43768,1,0,0:0:0:0:
320,192,43929,128,0,44089:0:0:0:0:
448,192,44089,128,8,44250:0:0:0:0:
64,192,44089,1,0,0:0:0:0:
192,192,44410,1,8,0:0:0:0:
64,192,44410,1,0,0:0:0:0:
320,192,44570,1,8,0:0:0:0:
192,192,44570,1,0,0:0:0:0:
320,192,44731,1,8,0:0:0:0:
448,192,44731,1,4,0:0:0:0:
64,192,45052,128,4,45533:0:0:0:0:
320,192,45052,1,8,0:0:0:0:
448,192,45372,1,2,0:0:0:0:
192,192,45533,1,2,0:0:0:0:
320,192,45533,1,0,0:0:0:0:
192,192,45693,128,8,46175:0:0:0:0:
448,192,45693,1,0,0:0:0:0:
448,192,46014,1,2,0:0:0:0:
64,192,46175,1,0,0:0:0:0:
448,192,46335,128,2,46816:0:0:0:0:
320,192,46335,1,0,0:0:0:0:
64,192,46495,1,8,0:0:0:0:
192,192,46495,1,0,0:0:0:0:
64,192,46816,1,2,0:0:0:0:
320,192,46816,1,0,0:0:0:0:
320,192,46977,128,8,47458:0:0:0:0:
192,192,46977,1,0,0:0:0:0:
192,192,47298,1,8,0:0:0:0:
64,192,47298,1,0,0:0:0:0:
192,192,47458,1,8,0:0:0:0:
448,192,47458,1,0,0:0:0:0:
64,192,47618,128,4,48100:0:0:0:0:
448,192,47618,1,2,0:0:0:0:
320,192,47939,1,0,0:0:0:0:
192,192,48100,1,2,0:0:0:0:
448,192,48100,1,0,0:0:0:0:
320,192,48260,128,8,48741:0:0:0:0:
448,192,48260,1,0,0:0:0:0:
64,192,48581,1,2,0:0:0:0:
192,192,48741,1,0,0:0:0:0:
448,192,48902,128,2,49544:0:0:0:0:
64,192,48902,1,0,0:0:0:0:
320,192,49062,1,8,0:0:0:0:
192,192,49062,1,0,0:0:0:0:
320,192,49383,1,2,0:0:0:0:
64,192,49544,128,8,50025:0:0:0:0:
192,192,49544,1,0,0:0:0:0:
320,192,49704,1,8,0:0:0:0:
448,192,49704,1,0,0:0:0:0:
192,192,49864,1,2,0:0:0:0:
448,192,50025,1,2,0:0:0:0:
320,192,50185,128,4,50667:0:0:0:0:
192,192,50185,1,8,0:0:0:0:
64,192,50506,1,2,0:0:0:0:
192,192,50667,1,2,0:0:0:0:
448,192,50667,1,0,0:0:0:0:
448,192,50827,128,8,51308:0:0:0:0:
64,192,50827,1,0,0:0:0:0:
192,192,51148,1,2,0:0:0:0:
320,192,51308,1,0,0:0:0:0:
192,192,51469,128,2,51950:0:0:0:0:
64,192,51469,1,0,0:0:0:0:
448,192,51629,1,8,0:0:0:0:
320,192,51629,1,0,0:0:0:0:
320,192,51950,1,2,0:0:0:0:
64,192,51950,1,0,0:0:0:0:
64,192,52110,128,8,52431:0:0:0:0:
448,192,52110,1,0,0:0:0:0:
320,192,52431,1,8,0:0:0:0:
192,192,52431,1,0,0:0:0:0:
320,192,52592,1,8,0:0:0:0:
192,192,52592,1,0,0:0:0:0:
448,192,52752,1,4,0:0:0:0:
64,192,52752,1,2,0:0:0:0:
320,192,52913,1,0,0:0:0:0:
448,192,53073,1,8,0:0:0:0:
192,192,53073,1,0,0:0:0:0:
64,192,53233,1,0,0:0:0:0:
320,192,53394,1,2,0:0:0:0:
448,192,53394,1,0,0:0:0:0:
192,192,53554,1,2,0:0:0:0:
64,192,53554,1,0,0:0:0:0:
448,192,53715,1,8,0:0:0:0:
64,192,53715,1,0,0:0:0:0:
320,192,53875,1,0,0:0:0:0:
192,192,54036,1,2,0:0:0:0:
448,192,54036,1,0,0:0:0:0:
64,192,54196,1,0,0:0:0:0:
448,192,54356,1,8,0:0:0:0:
320,192,54356,1,0,0:0:0:0:
192,192,54517,1,0,0:0:0:0:
320,192,54677,1,2,0:0:0:0:
64,192,54677,1,0,0:0:0:0:
448,192,54838,1,2,0:0:0:0:
192,192,54838,1,0,0:0:0:0:
320,192,54998,1,8,0:0:0:0:
192,192,54998,1,0,0:0:0:0:
64,192,55159,1,0,0:0:0:0:
192,192,55319,128,8,55640:0:0:0:0:
448,192,55319,1,0,0:0:0:70:D6S.wav
320,192,55479,1,2,0:0:0:0:
448,192,55640,128,8,55961:0:0:0:0:
64,192,55640,1,0,0:0:0:70:G6S.wav
192,192,55800,1,2,0:0:0:0:
64,192,55961,128,8,56282:0:0:0:0:
320,192,55961,1,0,0:0:0:70:A6S.wav
448,192,56121,1,2,0:0:0:0:
320,192,56282,128,8,56602:0:0:0:0:
192,192,56282,1,0,0:0:0:70:C7S.wav
64,192,56442,1,2,0:0:0:0:
448,192,56602,1,8,0:0:0:0:
192,192,56602,1,2,0:0:0:0:
192,192,56763,1,2,0:0:0:0:
448,192,56763,1,8,0:0:0:0:
192,192,56923,1,8,0:0:0:0:
448,192,56923,1,2,0:0:0:0:
448,192,57565,1,8,0:0:0:0:
320,192,57565,128,0,57886:0:0:0:0:
64,192,57886,128,4,59009:0:0:0:0:
192,192,57886,1,2,0:0:0:0:
448,192,58207,1,8,0:0:0:0:
320,192,58207,1,0,0:0:0:0:
192,192,58528,1,2,0:0:0:0:
192,192,58688,1,2,0:0:0:0:
448,192,58848,1,8,0:0:0:0:
320,192,58848,1,0,0:0:0:0:
192,192,59009,1,0,0:0:0:0:
320,192,59089,1,0,0:0:0:0:
448,192,59169,128,2,60453:0:0:0:0:
64,192,59169,1,0,0:0:0:0:
64,192,59490,1,8,0:0:0:0:
192,192,59490,1,0,0:0:0:0:
320,192,59811,1,2,0:0:0:0:
320,192,59971,1,2,0:0:0:0:
192,192,60132,1,8,0:0:0:0:
64,192,60132,1,0,0:0:0:0:
320,192,60453,128,2,60774:0:0:0:0:
192,192,60453,1,0,0:0:0:0:
192,192,60774,128,8,61094:0:0:0:0:
64,192,60774,1,0,0:0:0:0:
448,192,61094,128,2,61415:0:0:0:0:
320,192,61094,1,0,0:0:0:0:
320,192,61255,1,2,0:0:0:0:
64,192,61415,128,8,61736:0:0:0:0:
192,192,61415,1,0,0:0:0:0:
448,192,61576,1,2,0:0:0:0:
320,192,61736,128,8,62057:0:0:0:0:
192,192,61736,1,0,0:0:0:0:
64,192,61897,1,2,0:0:0:0:
192,192,62057,128,8,62378:0:0:0:0:
448,192,62057,1,0,0:0:0:0:
320,192,62217,1,0,0:0:0:0:
64,192,62378,128,2,62699:0:0:0:0:
448,192,62378,1,0,0:0:0:0:
448,192,62538,1,2,0:0:0:0:
192,192,62699,1,8,0:0:0:0:
320,192,62699,1,0,0:0:0:0:
64,192,62859,1,8,0:0:0:0:
192,192,62939,1,8,0:0:0:0:
448,192,63020,128,2,63661:0:0:0:0:
320,192,63020,1,4,0:0:0:0:
64,192,63340,1,8,0:0:0:0:
320,192,63340,1,0,0:0:0:0:
64,192,63661,128,2,64303:0:0:0:0:
192,192,63661,1,0,0:0:0:0:
192,192,63822,1,2,0:0:0:0:
448,192,63982,1,8,0:0:0:0:
320,192,63982,1,0,0:0:0:0:
320,192,64303,128,2,64945:0:0:0:0:
192,192,64303,1,0,0:0:0:0:
64,192,64624,1,8,0:0:0:0:
448,192,64624,1,0,0:0:0:0:
192,192,64945,128,2,65586:0:0:0:0:
64,192,64945,1,0,0:0:0:0:
64,192,65105,1,2,0:0:0:0:
320,192,65266,1,8,0:0:0:0:
448,192,65266,1,0,0:0:0:0:
448,192,65586,128,2,66549:0:0:0:0:
320,192,65586,1,4,0:0:0:0:
192,192,65907,1,8,0:0:0:0:
64,192,65907,1,0,0:0:0:0:
320,192,66228,1,8,0:0:0:0:
64,192,66228,1,0,0:0:0:0:
192,192,66389,1,2,0:0:0:0:
320,192,66549,1,2,0:0:0:0:
64,192,66709,128,8,67512:0:0:0:0:
448,192,66709,1,4,0:0:0:0:
320,192,67030,1,2,0:0:0:0:
192,192,67191,1,8,0:0:0:0:
448,192,67191,1,0,0:0:0:0:
320,192,67351,1,4,0:0:0:0:
192,192,67351,1,2,0:0:0:0:
448,192,67512,1,8,0:0:0:0:
320,192,67592,1,8,0:0:0:0:
64,192,67672,1,8,0:0:0:0:
448,192,67752,1,8,0:0:0:0:
192,192,67832,1,8,0:0:0:0:
320,192,67913,1,8,0:0:0:0:
64,192,67993,1,8,0:0:0:0:
448,192,68073,1,8,0:0:0:0:
64,192,68153,128,2,69276:0:0:0:0:
192,192,68153,1,4,0:0:0:0:
448,192,68474,1,8,0:0:0:0:
320,192,68474,1,0,0:0:0:0:
192,192,68795,1,2,0:0:0:0:
192,192,68955,1,2,0:0:0:0:
320,192,69116,1,8,0:0:0:0:
448,192,69116,1,0,0:0:0:0:
192,192,69276,1,0,0:0:0:0:
320,192,69356,1,0,0:0:0:0:
448,192,69437,128,2,70720:0:0:0:0:
64,192,69437,1,0,0:0:0:0:
64,192,69758,1,8,0:0:0:0:
192,192,69758,1,0,0:0:0:0:
320,192,70078,1,2,0:0:0:0:
320,192,70239,1,2,0:0:0:0:
64,192,70399,1,8,0:0:0:0:
192,192,70399,1,0,0:0:0:0:
64,192,70720,128,2,71041:0:0:0:0:
320,192,70720,1,0,0:0:0:0:
448,192,71041,1,8,0:0:0:0:
192,192,71041,128,0,71362:0:0:0:0:
448,192,71362,128,2,71683:0:0:0:0:
64,192,71362,1,0,0:0:0:0:
64,192,71522,1,2,0:0:0:0:
320,192,71683,128,8,72004:0:0:0:0:
192,192,71683,1,0,0:0:0:0:
448,192,71843,1,2,0:0:0:0:
64,192,72004,128,8,72324:0:0:0:0:
192,192,72004,1,0,0:0:0:0:
320,192,72164,1,2,0:0:0:0:
448,192,72324,128,8,72645:0:0:0:0:
192,192,72324,1,0,0:0:0:0:
64,192,72485,1,2,0:0:0:0:
192,192,72645,128,8,72966:0:0:0:0:
320,192,72645,1,0,0:0:0:0:
320,192,72806,1,2,0:0:0:0:
64,192,72966,1,8,0:0:0:0:
448,192,72966,1,0,0:0:0:0:
192,192,73127,1,2,0:0:0:0:
448,192,73287,128,2,74410:0:0:0:0:
320,192,73287,1,4,0:0:0:0:
192,192,73608,1,8,0:0:0:0:
64,192,73608,1,0,0:0:0:0:
320,192,73929,1,2,0:0:0:0:
320,192,74089,1,2,0:0:0:0:
64,192,74250,1,8,0:0:0:0:
192,192,74250,1,0,0:0:0:0:
320,192,74410,1,0,0:0:0:0:
192,192,74490,1,0,0:0:0:0:
64,192,74570,128,2,75212:0:0:0:0:
448,192,74570,1,0,0:0:0:0:
192,192,74891,1,8,0:0:0:0:
320,192,74891,1,0,0:0:0:0:
448,192,75212,128,2,75854:0:0:0:0:
192,192,75212,1,0,0:0:0:0:
192,192,75372,1,2,0:0:0:0:
64,192,75533,1,8,0:0:0:0:
320,192,75533,1,0,0:0:0:0:
192,192,75854,1,4,0:0:0:0:
64,192,75854,1,8,0:0:0:0:
448,192,76014,1,2,0:0:0:0:
320,192,76014,1,0,0:0:0:0:
64,192,76175,1,8,0:0:0:0:
448,192,76175,1,0,0:0:0:0:
320,192,76335,1,2,0:0:0:0:
192,192,76335,1,0,0:0:0:0:
192,192,76495,1,8,0:0:0:0:
448,192,76495,1,0,0:0:0:0:
64,192,76656,1,2,0:0:0:0:
320,192,76656,1,0,0:0:0:0:
64,192,76816,1,8,0:0:0:0:
192,192,76816,1,0,0:0:0:0:
448,192,76977,1,4,0:0:0:0:
320,192,76977,1,2,0:0:0:0:
320,192,77298,1,2,0:0:0:0:
64,192,77298,1,0,0:0:0:0:
192,192,77458,1,8,0:0:0:0:
64,192,77458,1,0,0:0:0:0:
320,192,77618,1,4,0:0:0:0:
448,192,77618,1,2,0:0:0:0:
64,192,77779,1,8,0:0:0:0:
448,192,77859,1,8,0:0:0:0:
320,192,77939,1,8,0:0:0:0:
192,192,78020,1,8,0:0:0:0:
64,192,78100,1,8,0:0:0:0:
320,192,78180,1,8,0:0:0:0:
192,192,78260,1,8,0:0:0:0:
448,192,78340,1,8,0:0:0:0:
320,192,78421,1,2,0:0:0:0:
64,192,78421,128,4,79062:0:0:0:0:
448,192,78741,1,8,0:0:0:0:
192,192,78741,1,4,0:0:0:0:
320,192,79062,128,2,79704:0:0:0:0:
192,192,79062,1,0,0:0:0:70:D6S.wav
448,192,79223,1,2,0:0:0:0:
64,192,79383,1,8,0:0:0:0:
192,192,79383,1,0,0:0:0:0:
448,192,79704,128,2,80346:0:0:0:0:
192,192,79704,1,0,0:0:0:61:A5S.wav
320,192,80025,1,8,0:0:0:0:
64,192,80025,1,0,0:0:0:0:
192,192,80346,128,2,80667:0:0:0:0:
64,192,80346,1,0,0:0:0:61:G5S.wav
320,192,80506,1,2,0:0:0:0:
64,192,80667,128,4,80987:0:0:0:0:
448,192,80667,1,8,0:0:0:0:
320,192,80987,128,2,81308:0:0:0:0:
448,192,80987,1,4,0:0:0:0:
448,192,81308,128,8,81629:0:0:0:0:
192,192,81308,1,0,0:0:0:57:A5S.wav
192,192,81629,128,2,81950:0:0:0:0:
64,192,81629,1,0,0:0:0:60:G5S.wav
320,192,81790,1,2,0:0:0:0:
64,192,81950,128,8,82271:0:0:0:0:
448,192,81950,1,0,0:0:0:69:A5S.wav
320,192,82110,1,2,0:0:0:0:
448,192,82271,128,2,82913:0:0:0:0:
192,192,82271,1,0,0:0:0:66:A5S.wav
320,192,82431,1,2,0:0:0:0:
64,192,82592,1,8,0:0:0:0:
192,192,82592,1,0,0:0:0:0:
320,192,82752,1,2,0:0:0:0:
64,192,82913,128,0,83233:0:0:0:64:G5S.wav
192,192,82913,1,2,0:0:0:0:
448,192,83073,1,2,0:0:0:0:
320,192,83233,1,0,0:0:0:70:A5S.wav
448,192,83233,1,8,0:0:0:0:
192,192,83394,1,8,0:0:0:0:
320,192,83474,1,8,0:0:0:0:
64,192,83554,128,4,84196:0:0:0:0:
192,192,83554,1,2,0:0:0:0:
320,192,83875,1,8,0:0:0:0:
448,192,83875,1,0,0:0:0:0:
192,192,84196,128,2,84838:0:0:0:0:
448,192,84196,1,0,0:0:0:70:D6S.wav
320,192,84356,1,2,0:0:0:0:
448,192,84517,1,8,0:0:0:0:
64,192,84517,1,0,0:0:0:0:
64,192,84838,128,2,85479:0:0:0:0:
320,192,84838,1,0,0:0:0:55:A5S.wav
192,192,85159,1,8,0:0:0:0:
448,192,85159,1,0,0:0:0:0:
320,192,85479,128,2,85800:0:0:0:0:
448,192,85479,1,0,0:0:0:60:G5S.wav
192,192,85640,1,2,0:0:0:0:
448,192,85800,128,8,86121:0:0:0:0:
64,192,85800,1,0,0:0:0:68:A5S.wav
192,192,85961,1,2,0:0:0:0:
320,192,86121,1,2,0:0:0:0:
64,192,86121,128,4,86763:0:0:0:0:
320,192,86282,1,2,0:0:0:0:
448,192,86442,1,4,0:0:0:0:
192,192,86442,1,2,0:0:0:0:
192,192,86602,1,2,0:0:0:0:
448,192,86763,1,8,0:0:0:0:
320,192,86843,1,8,0:0:0:0:
64,192,86923,1,8,0:0:0:0:
192,192,87004,1,8,0:0:0:0:
448,192,87084,1,8,0:0:0:0:
320,192,87164,1,8,0:0:0:0:
64,192,87244,128,4,91255:0:0:0:0:
192,192,87244,128,2,91255:0:0:0:0:
