osu file format v14

[General]
AudioFilename: endless story.mp3
AudioLeadIn: 2000
PreviewTime: 57145
Countdown: 0
SampleSet: Normal
StackLeniency: 0.7
Mode: 0
LetterboxInBreaks: 0
WidescreenStoryboard: 0

[Editor]
Bookmarks: 17359
DistanceSpacing: 1
BeatDivisor: 2
GridSize: 4
TimelineZoom: 1.3

[Metadata]
Title:Endless Story (TV Size)
TitleUnicode:Endless Story (TV Size)
Artist:Tamura Yukari
ArtistUnicode:田村ゆかり
Creator:Shiratu
Version:Easy
Source:C3 -シーキューブ-
Tags:cube cursed curious x op opening cubexcursexcurious
BeatmapID:662985
BeatmapSetID:294693

[Difficulty]
HPDrainRate:2
CircleSize:3
OverallDifficulty:2
ApproachRate:3
SliderMultiplier:0.8
SliderTickRate:2

[Events]
//Background and Video events
0,0,"c3bg.jpg",0,0
//Break Periods
//Storyboard Layer 0 (Background)
//Storyboard Layer 1 (Fail)
//Storyboard Layer 2 (Pass)
//Storyboard Layer 3 (Foreground)
//Storyboard Sound Samples

[TimingPoints]
185,759.493670886076,4,2,1,45,1,0
970,759.493670886076,4,2,1,45,1,0
13096,-100,4,2,1,5,0,0
13510,320.855614973262,4,1,1,45,1,0
14151,320.855614973262,4,1,1,45,1,0
24418,-100,4,2,1,45,0,0
57787,-100,4,1,1,45,0,1
78322,-100,4,1,1,45,0,0
87306,-100,4,2,1,35,0,0
87626,-100,4,2,1,30,0,0
87947,-100,4,2,1,25,0,0
88268,-100,4,2,1,20,0,0
88589,-100,4,2,1,15,0,0
88910,-100,4,2,1,10,0,0

[Colours]
Combo1 : 43,43,117
Combo2 : 48,207,207
Combo3 : 48,128,207
Combo4 : 191,62,87

[HitObjects]
88,96,185,6,0,L|144:104,1,40
184,160,969,2,0,P|212:200|248:204,1,80,2|0,0:2|0:0,0:0:0:0:
400,228,2488,2,0,L|376:312,2,80,2|0|2,0:2|0:0|0:2,0:0:0:0:
332,188,4387,1,0,0:0:0:0:
368,116,4766,2,0,L|399:140,2,40,0|0|2,0:0|0:0|0:2,0:0:0:0:
216,72,6285,6,0,B|176:72|176:72|132:104,1,80,0|2,0:0|0:2,0:0:0:0:
132,256,7804,2,0,P|160:284|212:300,1,80,0|2,0:0|0:2,0:0:0:0:
356,309,9323,2,0,B|395:329|395:329|448:329,2,80,0|2|0,0:0|0:0|0:0,0:0:0:0:
334,231,11222,1,0,0:0:0:0:
372,160,11602,2,0,P|431:109|373:63,1,160
144,256,14151,6,0,P|156:180|232:132,1,160,4|0,0:0|0:0,0:0:0:0:
308,268,15434,2,0,P|371:222|384:145,2,160
152,304,17359,1,0,0:0:0:0:
16,220,18001,2,0,B|32:124|32:124|108:140,1,160
176,156,18963,1,2,0:2:0:0:
256,164,19284,6,0,P|232:96|140:84,2,160,4|0|0,0:0|0:0|0:0,0:0:0:0:
212,316,21209,2,0,P|252:324|300:316,1,80,0|2,0:0|0:2,0:0:0:0:
256,192,21851,12,4,22974,0:0:0:0:
164,72,24418,6,0,P|157:123|173:154,1,80,4|0,0:0|0:0,0:0:0:0:
204,220,25060,2,0,L|140:288,2,80,0|2|0,0:0|0:0|0:0,0:0:0:0:
256,160,26022,1,2,0:0:0:0:
316,108,26343,2,0,P|352:88|408:92,1,80,0|2,0:0|0:0,0:0:0:0:
464,112,26985,6,0,B|464:192|464:192|408:260,1,160
352,204,27947,2,0,L|296:268,1,80,2|0,0:0|0:0,0:0:0:0:
228,304,28589,1,2,0:0:0:0:
156,264,28910,2,0,L|212:200,1,80,2|0,0:0|0:0,0:0:0:0:
264,144,29552,6,0,P|332:92|424:124,2,160
196,188,31156,2,0,L|116:236,1,80,2|0,0:0|0:0,0:0:0:0:
60,272,31798,1,2,0:0:0:0:
104,336,32118,6,0,B|184:356|184:356|272:336,1,160
308,276,33081,1,2,0:0:0:0:
388,284,33402,2,0,P|424:216|404:128,1,160
260,76,34685,6,0,B|180:64|180:64|96:116,1,160,4|0,0:0|0:0,0:0:0:0:
116,184,35648,1,2,0:0:0:0:
128,264,35969,2,0,L|48:312,2,80,0|2|0,0:0|0:0|0:0,0:0:0:0:
192,216,36931,2,0,P|226:235|248:276,1,80,2|0,0:0|0:0,0:0:0:0:
380,356,37894,6,0,P|407:282|387:205,1,160
344,140,38856,1,2,0:0:0:0:
304,72,39177,2,0,P|388:44|464:48,2,160
236,112,40782,6,0,B|172:64|172:64|68:124,1,160,2|2,0:0|0:0,0:0:0:0:
64,192,41744,1,0,0:0:0:0:
32,264,42065,1,2,0:2:0:0:
112,260,42386,6,0,B|188:308|228:364|228:364|304:324|420:352,1,320
404,268,43990,1,2,0:0:0:0:
424,192,44311,2,0,B|412:152|412:152|352:132,1,80,0|2,1:0|1:2,0:0:0:0:
308,96,44953,6,0,P|248:76|156:20,2,160,4|0|0,0:0|0:0|0:0,0:0:0:0:
452,168,46878,2,0,B|472:208|464:272,1,80,0|2,0:0|0:0,0:0:0:0:
440,324,47519,5,4,0:0:0:0:
280,324,48161,2,0,B|200:320|200:320|132:264,1,160
32,148,49445,1,0,0:0:0:0:
104,184,49765,1,2,0:0:0:0:
104,104,50086,6,0,B|159:37|246:50|246:50|326:10|413:64,1,320
468,168,52011,2,0,P|472:216|444:264,1,80
392,200,52653,6,0,P|324:248|244:268,1,160,4|0,0:0|0:0,0:0:0:0:
172,284,53616,1,2,0:0:0:0:
100,248,53937,2,0,P|71:177|120:93,1,160
264,72,55220,6,0,P|308:52|360:56,1,80,0|2,0:0|0:0,0:0:0:0:
324,132,55862,2,0,P|368:160|384:192,1,80,0|2,0:0|0:0,0:0:0:0:
304,212,56503,1,0,0:0:0:0:
72,276,57466,1,0,1:0:0:0:
148,248,57787,6,0,P|132:328|44:352,2,160,4|2|2,0:0|0:2|0:2,0:0:0:0:
20,152,59712,2,0,B|64:84|64:84|144:60,1,160,2|2,0:2|0:2,0:0:0:0:
220,60,60675,5,0,0:0:0:0:
300,72,60995,2,0,L|364:124,1,80,2|0,0:2|0:0,0:0:0:0:
424,172,61637,1,2,0:2:0:0:
300,276,62279,2,0,P|344:312|392:328,2,80,2|0|2,0:2|0:0|0:2,0:0:0:0:
252,124,63562,5,2,0:2:0:0:
184,168,63883,1,0,0:0:0:0:
228,232,64204,2,0,B|168:284|168:284|132:376,2,160,2|2|2,0:2|0:2|0:2,0:0:0:0:
348,124,66129,6,0,P|328:80|280:40,2,80,2|0|2,0:2|0:0|0:2,0:0:0:0:
412,272,67413,2,0,P|368:336|280:336,1,160,2|2,0:2|0:2,0:0:0:0:
328,268,68375,5,0,0:0:0:0:
319,185,68696,2,0,P|281:198|256:228,1,80,2|0,0:2|0:0,0:0:0:0:
216,296,69338,1,0,0:0:0:0:
176,224,69659,1,0,0:0:0:0:
152,148,69979,2,0,L|124:48,1,80,2|0,0:2|0:0,0:0:0:0:
208,52,70621,6,0,B|284:72|284:72|372:48,2,160,2|2|2,0:2|0:2|0:2,0:0:0:0:
72,136,72546,1,2,0:2:0:0:
152,148,72867,2,0,P|152:196|140:236,1,80,0|2,0:0|0:2,0:0:0:0:
120,304,73509,5,0,0:0:0:0:
204,316,73830,2,0,P|244:324|296:320,1,80,2|0,0:2|0:0,0:0:0:0:
360,300,74471,2,0,L|360:188,1,80,2|0,0:2|0:0,0:0:0:0:
284,196,75113,2,0,L|284:96,1,80,2|0,0:2|0:0,0:0:0:0:
256,192,75755,12,0,76878,0:0:0:0:
192,228,78322,6,0,P|140:288|64:336,2,160,4|2|2,0:2|0:2|0:2,0:0:0:0:
236,160,79926,1,0,0:0:0:0:
220,80,80247,2,0,P|292:44|376:56,1,160,2|2,0:2|0:2,0:0:0:0:
412,120,81209,5,0,0:0:0:0:
452,188,81530,2,0,B|484:160|484:160|492:120,2,80,2|0|2,0:2|0:0|0:2,0:0:0:0:
292,188,82814,1,2,0:2:0:0:
336,256,83134,1,0,0:0:0:0:
272,304,83455,6,0,P|192:308|120:272,1,160,4|2,0:2|0:2,0:0:0:0:
64,124,84739,2,0,P|132:84|224:92,1,160,2|2,0:2|0:2,0:0:0:0:
284,120,85701,1,0,0:0:0:0:
360,100,86022,2,0,L|404:168,1,80,2|0,0:2|0:0,0:0:0:0:
444,236,86664,2,0,P|460:288|404:352,1,120,2|4,0:2|0:0,0:0:0:0:
256,192,87306,12,0,88910,0:0:0:0:
