osu file format v14

[General]
AudioFilename: audio.mp3
AudioLeadIn: 0
PreviewTime: 53590
Countdown: 0
SampleSet: Soft
StackLeniency: 0.7
Mode: 0
LetterboxInBreaks: 0
WidescreenStoryboard: 1

[Editor]
DistanceSpacing: 0.9
BeatDivisor: 4
GridSize: 4
TimelineZoom: 3.659999

[Metadata]
Title:Eien no Hitotsu (TV Size)
TitleUnicode:永遠のひとつ (TV Size)
Artist:Tamura Yukari
ArtistUnicode:田村ゆかり
Creator:kanpakyin
Version:Normal
Source:ISLAND
Tags:Naichatta frontwing feel. アイランド airando anime jpop j-pop pop jp japanese opening op kusano
BeatmapID:3238557
BeatmapSetID:1543280

[Difficulty]
HPDrainRate:5
CircleSize:4
OverallDifficulty:4.5
ApproachRate:5.5
SliderMultiplier:1
SliderTickRate:1

[Events]
//Background and Video events
Video,285,"video.mp4"
0,0,"BG2.jpg",0,0
//Break Periods
//Storyboard Layer 0 (Background)
//Storyboard Layer 1 (Fail)
//Storyboard Layer 2 (Pass)
//Storyboard Layer 3 (Foreground)
//Storyboard Layer 4 (Overlay)
//Storyboard Sound Samples

[TimingPoints]
1251,530.973451327434,4,2,3,35,1,0
7100,530.973451327434,4,2,1,65,1,8
7630,480,4,2,1,65,1,0
9310,-100,4,2,2,65,0,0
9430,-100,4,2,1,65,0,0
13390,-100,4,3,2,65,0,0
13420,-100,4,2,2,65,0,0
13990,-100,4,2,1,65,0,0
14470,-100,4,2,2,45,0,0
14590,-100,4,2,1,65,0,0
15790,-100,4,2,2,65,0,0
15820,-100,4,2,1,65,0,0
16270,-100,4,2,2,65,0,0
16300,-100,4,2,1,65,0,0
17230,-100,4,2,2,65,0,0
17260,-100,4,2,1,65,0,0
18190,-100,4,2,2,65,0,0
18310,-100,4,2,1,65,0,0
19270,-100,4,2,1,40,0,0
19990,-100,4,2,2,45,0,0
20230,-100,4,2,1,65,0,0
20950,-100,4,2,2,40,0,0
21910,-100,4,2,1,65,0,0
23710,-100,4,2,2,65,0,0
23950,-100,4,2,1,65,0,0
25630,-100,4,2,2,65,0,0
25750,-100,4,2,1,65,0,0
29830,-100,4,2,2,65,0,0
29950,-100,4,2,1,65,0,0
30670,-100,4,2,1,45,0,0
30790,-100,4,2,2,65,0,0
31030,-100,4,2,1,65,0,0
33550,-100,4,2,2,65,0,0
33670,-100,4,2,1,65,0,0
34630,-100,4,2,3,65,0,0
34990,-100,4,2,1,65,0,0
35110,-100,4,2,3,65,0,0
35230,-100,4,2,1,65,0,0
35830,-100,4,2,3,65,0,0
35950,-100,4,2,1,65,0,0
36430,-100,4,2,2,65,0,0
36460,-100,4,2,1,65,0,0
37390,-100,4,2,2,65,0,0
37750,-100,4,2,1,65,0,0
40990,-100,4,2,3,65,0,0
41110,-100,4,2,1,65,0,0
43150,-100,4,2,2,65,0,0
43510,-100,4,2,1,65,0,0
53710,-100,4,2,1,65,0,1
61630,-100,4,2,3,65,0,1
61870,-100,4,2,1,65,0,1
68230,-100,4,2,1,45,0,1
68350,-100,4,2,1,65,0,1
76270,-100,4,2,1,45,0,1
76750,-100,4,2,1,65,0,1
82510,-100,4,2,1,65,0,0
84430,-100,4,2,2,35,0,0
84490,-100,4,2,3,50,0,0
88390,-100,4,2,1,5,0,0

[Colours]
Combo1 : 0,189,95
Combo2 : 48,87,243
Combo3 : 230,252,255
Combo4 : 255,176,60

[HitObjects]
140,331,1251,6,0,L|110:168,1,150,2|2,0:0|0:0,0:0:0:0:
283,37,3374,2,0,B|256:76|256:76|306:118|288:175,2,150,2|2|2,0:0|0:0|0:0,0:0:0:0:
363,77,5498,2,0,P|427:84|490:33,1,142.857142857143,2|2,0:0|0:0,0:0:0:0:
444,167,7100,1,12,1:2:0:0:
357,218,7630,6,0,P|351:263|381:318,1,100,4|0,3:2|3:0,0:0:0:0:
457,344,8590,1,0,3:0:0:0:
504,267,9070,1,8,3:2:0:0:
444,199,9550,2,0,L|285:220,1,150,0|0,3:0|0:0,0:0:0:0:
260,247,10510,6,0,P|218:267|152:255,1,100,0|8,3:0|3:2,0:0:0:0:
128,236,11230,1,2,0:0:0:0:
112,193,11470,2,0,L|29:204,2,75,0|0|0,3:0|0:0|0:0,0:0:0:0:
142,160,12430,2,0,B|152:140|152:140|118:97|141:55,1,100,2|10,3:2|3:2,0:0:0:0:
224,81,13390,2,0,P|228:47|205:-2,2,75,2|0|0,3:2|0:0|0:0,0:0:0:0:
253,115,14350,6,0,B|274:112|339:96|339:96|363:102,1,100,0|8,3:0|3:2,0:0:0:0:
416,160,15310,2,0,P|438:124|435:67,2,100,0|2|2,3:0|3:2|3:2,0:0:0:0:
336,190,16750,1,8,3:2:0:0:
336,190,16990,1,0,0:0:0:0:
336,190,17230,2,0,B|320:212|320:212|349:244|341:283,1,100,2|0,3:2|3:0,0:0:0:0:
314,314,17950,5,0,0:0:0:0:
272,332,18190,2,0,P|247:337|219:334,1,50,2|2,3:2|0:0,0:0:0:0:
180,349,18670,2,0,P|163:343|135:320,1,50,8|2,3:2|0:0,0:0:0:0:
112,286,19150,6,0,B|43:297|43:297|19:291,2,75,4|0|0,3:2|0:0|0:0,0:0:0:0:
256,192,20110,12,8,22030,0:0:0:0:
126,138,22990,6,0,B|155:126|155:126|204:174|275:139,1,150,4|2,3:2|0:0,0:0:0:0:
304,123,23950,2,0,P|319:93|310:29,1,100,0|8,3:0|0:0,0:0:0:0:
228,68,24910,1,0,3:0:0:0:
204,154,25390,6,0,P|211:183|213:207,1,50,8|2,0:2|0:0,0:0:0:0:
190,242,25870,2,0,P|183:279|176:301,1,50,0|2,3:0|0:0,0:0:0:0:
142,317,26350,2,0,P|122:339|103:352,1,50,8|2,0:0|0:0,0:0:0:0:
63,334,26830,2,0,P|20:331|-14:314,2,75,0|0|0,3:0|0:0|0:0,0:0:0:0:
89,297,27790,6,0,L|72:197,1,100,2|10,3:2|3:2,0:0:0:0:
161,207,28750,2,0,B|175:172|175:172|156:108|156:108|174:84|173:54,1,150,0|0,3:0|0:0,0:0:0:0:
208,39,29710,2,0,L|273:52,1,50,0|2,3:0|0:0,0:0:0:0:
299,34,30190,1,8,0:0:0:0:
352,106,30670,5,4,3:2:0:0:
388,79,30910,2,0,P|417:67|437:61,2,50,2|8|2,0:0|0:0|0:0,0:0:0:0:
443,149,31870,5,2,0:0:0:0:
419,187,32110,1,8,0:0:0:0:
424,231,32350,1,2,0:0:0:0:
456,262,32590,2,0,P|476:271|507:277,2,50,0|0|8,3:0|0:0|0:0,0:0:0:0:
394,327,33550,2,0,B|362:338|326:320|326:320|290:331|289:333,1,100,2|8,3:2|0:0,0:0:0:0:
262,356,34270,1,0,0:0:0:0:
217,356,34510,6,0,B|193:351|164:375|164:375|141:331|167:271,1,150,0|0,3:0|0:0,0:0:0:0:
193,253,35470,1,2,3:2:0:0:
114,209,35950,1,10,0:2:0:0:
187,157,36430,6,0,P|177:128|177:99,1,50,2|0,3:2|0:0,0:0:0:0:
202,72,36910,2,0,P|231:62|260:62,1,50,8|0,0:0|0:0,0:0:0:0:
288,85,37390,2,0,P|298:114|298:143,1,50,2|2,3:2|0:0,0:0:0:0:
273,170,37870,2,0,P|243:179|214:179,1,50,8|0,0:0|3:0,0:0:0:0:
187,157,38350,6,0,B|148:141|148:141|87:184|31:143,1,150,4|0,3:2|3:0,0:0:0:0:
12,123,39310,1,0,0:0:0:0:
17,78,39550,1,0,3:0:0:0:
50,47,39790,2,0,P|84:58|104:69,1,50,8|2,0:0|0:0,0:0:0:0:
160,128,40510,5,0,3:0:0:0:
172,171,40750,1,8,0:0:0:0:
185,214,40990,2,0,B|249:233|249:233|275:222|298:224,1,100,2|0,0:0|3:0,0:0:0:0:
323,238,41710,2,0,P|342:205|351:180,1,50,8|0,0:0|0:0,0:0:0:0:
390,202,42190,6,0,P|380:157|373:137,1,50,10|0,0:0|3:0,0:0:0:0:
422,142,42670,2,0,P|396:103|379:85,1,50,10|0,0:0|3:0,0:0:0:0:
315,56,43390,5,2,3:2:0:0:
274,75,43630,1,8,0:0:0:0:
229,82,43870,2,0,B|180:65|141:83|141:83|154:89|160:98,1,100,2|0,0:0|3:0,0:0:0:0:
124,125,44590,1,8,0:0:0:0:
84,147,44830,2,0,P|44:152|3:95,1,100,0|2,0:0|3:2,0:0:0:0:
21,70,45550,2,0,P|13:31|5:9,2,50,8|8|4,0:0|3:0|3:2,0:0:0:0:
106,97,46510,6,0,L|82:247,1,150,8|2,0:0|0:0,0:0:0:0:
104,284,47470,1,8,0:0:0:0:
123,324,47710,2,0,P|126:359|123:380,2,50,2|0|2,0:0|3:0|0:0,0:0:0:0:
158,296,48430,1,8,0:0:0:0:
201,284,48670,2,0,P|238:283|263:286,1,50,2|0,0:0|3:0,0:0:0:0:
320,227,49390,2,0,P|364:242|379:251,1,50,8|8,0:0|0:0,0:0:0:0:
396,277,49870,6,0,B|409:202|409:202|401:185|398:164,1,100,4|10,3:2|0:0,0:0:0:0:
361,157,50590,1,0,3:0:0:0:
347,113,50830,2,0,P|292:94|286:91,1,50,10|0,0:0|3:0,0:0:0:0:
274,60,51310,2,0,P|233:70|206:82,1,50,10|0,0:0|3:0,0:0:0:0:
188,48,51790,6,0,B|161:39|161:39|131:67|90:64,1,100,12|12,0:0|0:0,0:0:0:0:
58,38,52510,2,0,B|42:60|42:60|58:113|65:150,1,100,0|8,3:0|1:2,0:0:0:0:
42,171,53230,1,8,1:2:0:0:
16,257,53710,6,0,P|89:242|134:233,1,100,4|8,3:2|0:0,0:0:0:0:
151,262,54430,1,2,0:0:0:0:
151,307,54670,2,0,P|147:328|106:370,2,75,0|0|2,3:0|0:0|0:0,0:0:0:0:
187,280,55630,2,0,B|206:229|206:229|187:210|181:181,1,100,0|8,3:0|0:0,0:0:0:0:
102,150,56590,1,0,3:0:0:0:
183,110,57070,2,0,P|217:117|246:131,1,50,8|2,0:0|0:0,0:0:0:0:
269,98,57550,6,0,P|257:68|291:-4,1,100,4|8,3:2|0:0,0:0:0:0:
308,38,58270,1,2,0:0:0:0:
351,47,58510,2,0,P|387:42|429:21,2,75,0|0|2,3:0|0:0|0:0,0:0:0:0:
368,88,59470,6,0,B|356:113|356:113|377:150|373:174|373:174|363:192,1,100,0|8,3:0|0:0,0:0:0:0:
307,246,60430,2,0,P|272:246|216:207,1,100,0|8,3:0|0:0,0:0:0:0:
244,124,61390,6,0,L|168:132,2,75,4|2|2,3:2|0:0|0:0,0:0:0:0:
279,96,62350,2,0,P|280:54|255:12,2,75,0|0|2,3:0|0:0|0:0,0:0:0:0:
317,119,63310,2,0,B|385:105|385:105|400:118|428:121,1,100,0|8,3:0|0:0,0:0:0:0:
441,152,64030,1,2,0:0:0:0:
428,195,64270,2,0,B|443:237|432:257|432:257|403:270|412:302,1,100,0|8,3:0|0:0,0:0:0:0:
395,326,64990,1,2,0:0:0:0:
350,324,65230,6,0,B|303:334|296:295|234:313,1,100,4|8,3:2|0:0,0:0:0:0:
213,330,65950,2,0,B|194:313|194:313|194:271|214:227,1,100,2|2,0:0|0:0,0:0:0:0:
228,199,66670,2,0,P|173:210|157:214,1,50,8|2,0:0|0:0,0:0:0:0:
138,188,67150,1,0,3:0:0:0:
117,148,67390,2,0,P|110:126|112:97,1,50,2|8,0:0|0:0,0:0:0:0:
158,22,68110,5,0,3:0:0:0:
190,106,68590,1,8,0:0:0:0:
250,39,69070,6,0,B|294:55|330:45|330:45|342:75|393:99,1,150,4|2,3:2|0:0,0:0:0:0:
418,112,70030,2,0,P|465:105|502:93,2,75,0|0|2,3:0|0:0|0:0,0:0:0:0:
378,134,70990,2,0,B|362:159|362:159|372:169|387:205|375:249,1,100,0|8,3:0|0:0,0:0:0:0:
353,262,71710,1,2,0:0:0:0:
309,273,71950,2,0,P|260:279|206:253,1,100,0|8,3:0|0:0,0:0:0:0:
179,296,72670,5,2,0:0:0:0:
137,313,72910,2,0,P|80:299|67:297,1,50,0|2,3:0|0:0,0:0:0:0:
50,324,73390,2,0,B|30:259|30:259|41:242|44:212,1,100,8|0,0:0|3:0,0:0:0:0:
112,174,74350,2,0,P|68:165|32:121,1,100,8|0,0:0|3:0,0:0:0:0:
79,46,75310,1,8,0:0:0:0:
154,95,75790,1,0,3:0:0:0:
112,174,76270,2,0,L|119:224,1,50,8|8,0:0|0:0,0:0:0:0:
151,255,76750,6,0,B|164:281|164:281|165:327|131:365,1,100,4|8,3:2|0:0,0:0:0:0:
99,344,77470,2,0,B|170:332|184:381|268:361,1,150,4|8,3:2|0:0,0:0:0:0:
281,338,78430,2,0,P|321:348|377:324,1,100,4|0,3:2|3:0,0:0:0:0:
392,285,79150,1,8,0:0:0:0:
475,252,79630,5,0,3:0:0:0:
439,224,79870,1,0,3:0:0:0:
418,183,80110,2,0,P|413:167|414:126,1,50,8|0,0:0|0:0,0:0:0:0:
442,100,80590,2,0,B|364:114|364:114|352:102|334:102,1,100,4|8,3:2|0:0,0:0:0:0:
307,126,81310,2,0,P|294:87|323:25,1,100,8|8,0:0|0:0,0:0:0:0:
358,27,82030,6,0,B|285:15|285:15|270:25|257:28,1,100,8|4,0:0|3:2,0:0:0:0:
134,71,83230,1,0,0:0:0:0:
229,165,83950,1,0,0:0:0:0:
242,254,84430,6,0,P|209:256|154:210,1,100,8|0,0:0|0:0,0:0:0:0:
139,129,85390,2,0,L|117:295,1,150,2|2,0:0|0:0,0:0:0:0:
256,192,86350,12,0,88030,0:0:0:0:
