osu file format v14

[General]
AudioFilename: audio.mp3
AudioLeadIn: 0
PreviewTime: 53590
Countdown: 0
SampleSet: Soft
StackLeniency: 0.3
Mode: 0
LetterboxInBreaks: 0
WidescreenStoryboard: 1

[Editor]
DistanceSpacing: 0.7
BeatDivisor: 4
GridSize: 4
TimelineZoom: 3.659999

[Metadata]
Title:Eien no Hitotsu (TV Size)
TitleUnicode:永遠のひとつ (TV Size)
Artist:Tamura Yukari
ArtistUnicode:田村ゆかり
Creator:kanpakyin
Version:Hard
Source:ISLAND
Tags:Naichatta frontwing feel. アイランド airando anime jpop j-pop pop jp japanese opening op kusano
BeatmapID:3192532
BeatmapSetID:1543280

[Difficulty]
HPDrainRate:6
CircleSize:4
OverallDifficulty:6
ApproachRate:7.5
SliderMultiplier:1.4
SliderTickRate:1

[Events]
//Background and Video events
Video,285,"video.mp4"
0,0,"BG2.jpg",0,0
//Break Periods
//Storyboard Layer 0 (Background)
//Storyboard Layer 1 (Fail)
//Storyboard Layer 2 (Pass)
//Storyboard Layer 3 (Foreground)
//Storyboard Layer 4 (Overlay)
//Storyboard Sound Samples

[TimingPoints]
1251,530.973451327434,4,2,3,35,1,0
1251,-133.333333333333,4,2,3,35,0,0
6295,-250,4,2,3,35,0,0
6693,-250,4,2,3,5,0,0
6958,-250,4,2,1,65,0,0
7100,530.973451327434,4,2,1,65,1,8
7630,480,4,2,1,65,1,0
9310,-100,4,2,2,65,0,0
9430,-100,4,2,1,65,0,0
13390,-100,4,3,2,65,0,0
13420,-100,4,2,2,65,0,0
13990,-100,4,2,1,65,0,0
14470,-100,4,2,2,45,0,0
14590,-100,4,2,1,65,0,0
15790,-100,4,2,2,65,0,0
15820,-100,4,2,1,65,0,0
16270,-100,4,2,2,65,0,0
16300,-100,4,2,1,65,0,0
17230,-100,4,2,2,65,0,0
17260,-100,4,2,1,65,0,0
18190,-100,4,2,2,65,0,0
18310,-100,4,2,1,30,0,0
18430,-100,4,2,1,65,0,0
19270,-100,4,2,1,40,0,0
19990,-100,4,2,2,45,0,0
20230,-100,4,2,1,65,0,0
20950,-100,4,2,2,40,0,0
21910,-100,4,2,1,65,0,0
23710,-100,4,2,2,65,0,0
23950,-100,4,2,1,65,0,0
25630,-100,4,2,2,65,0,0
25750,-100,4,2,1,65,0,0
29830,-100,4,2,2,65,0,0
29950,-100,4,2,1,65,0,0
30670,-100,4,2,1,45,0,0
30790,-100,4,2,2,65,0,0
31030,-100,4,2,1,65,0,0
33550,-100,4,2,2,65,0,0
33670,-100,4,2,1,65,0,0
34630,-100,4,2,3,65,0,0
34990,-100,4,2,1,65,0,0
35110,-100,4,2,3,65,0,0
35230,-100,4,2,1,65,0,0
35830,-100,4,2,3,65,0,0
35950,-100,4,2,1,65,0,0
36430,-100,4,2,2,65,0,0
36460,-100,4,2,1,65,0,0
37390,-100,4,2,2,65,0,0
37510,-100,4,2,1,65,0,0
37990,-166.666666666667,4,2,1,65,0,0
38350,-100,4,2,1,65,0,0
40990,-100,4,2,3,65,0,0
41110,-100,4,2,1,65,0,0
43150,-100,4,2,2,65,0,0
43510,-100,4,2,1,65,0,0
53710,-90.9090909090909,4,2,1,65,0,1
64390,-90.9090909090909,4,2,1,45,0,1
64510,-90.9090909090909,4,2,1,65,0,1
68230,-90.9090909090909,4,2,1,45,0,1
68350,-90.9090909090909,4,2,1,65,0,1
68710,-90.9090909090909,4,2,1,45,0,1
68830,-90.9090909090909,4,2,1,65,0,1
74710,-90.9090909090909,4,2,1,45,0,1
74830,-90.9090909090909,4,2,1,65,0,1
75910,-90.9090909090909,4,2,1,45,0,1
76030,-90.9090909090909,4,2,1,65,0,1
76270,-90.9090909090909,4,2,1,45,0,1
76750,-90.9090909090909,4,2,1,65,0,1
82510,-133.333333333333,4,2,1,65,0,0
84190,-133.333333333333,4,2,2,65,0,0
84430,-133.333333333333,4,2,2,35,0,0
84490,-133.333333333333,4,2,3,50,0,0
88390,-133.333333333333,4,2,1,5,0,0

[Colours]
Combo1 : 0,189,95
Combo2 : 48,87,243
Combo3 : 230,252,255
Combo4 : 255,176,60

[HitObjects]
94,295,1251,6,0,P|140:301|199:265,1,105.000004005432,2|0,0:0|0:0,0:0:0:0:
63,216,2047,2,0,L|81:380,1,157.500006008148,2|0,0:0|0:0,0:0:0:0:
276,191,3374,2,0,B|311:178|311:178|360:180|390:238|390:238|417:222,2,157.500006008148,2|2|2,0:0|0:0|0:0,0:0:0:0:
146,98,5498,2,0,P|76:97|27:29,1,150.000005722046,2|2,0:0|0:0,0:0:0:0:
253,336,7100,5,12,1:2:0:0:
253,336,7630,6,0,L|266:180,1,140,4|0,3:2|3:0,0:0:0:0:
355,185,8350,1,0,0:0:0:0:
355,185,8470,1,0,0:0:0:0:
355,185,8590,2,0,P|401:190|470:151,1,105,0|0,3:0|0:0,0:0:0:0:
481,131,9070,5,8,3:2:0:0:
331,14,9310,1,2,0:0:0:0:
319,27,9430,1,0,0:0:0:0:
311,42,9550,2,0,P|306:72|323:121,1,70,0|0,3:0|0:0,0:0:0:0:
387,205,10030,1,0,3:0:0:0:
452,60,10270,5,0,0:0:0:0:
315,109,10510,1,0,3:0:0:0:
298,127,10630,2,0,P|264:135|216:129,1,70,2|0,0:0|0:0,0:0:0:0:
212,150,10990,2,0,P|176:141|140:118,1,70,8|2,3:2|0:0,0:0:0:0:
4,214,11470,6,0,P|58:218|118:182,1,105,0|0,3:0|0:0,0:0:0:0:
114,220,11950,2,0,L|194:237,1,70,0|0,3:0|0:0,0:0:0:0:
267,339,12430,2,0,B|315:310|371:340|371:340|377:304|340:293,1,140,2|10,3:2|3:2,0:0:0:0:
439,256,13150,1,0,0:0:0:0:
439,256,13270,1,0,0:0:0:0:
439,256,13390,2,0,L|425:175,1,70,2|0,3:2|0:0,0:0:0:0:
499,132,13870,5,2,3:2:0:0:
347,183,14110,1,0,0:0:0:0:
438,80,14350,1,0,3:0:0:0:
438,80,14470,2,0,P|386:91|326:55,1,105,2|8,1:2|3:2,0:0:0:0:
312,34,14950,2,0,P|341:71|328:138,1,105,8|0,0:0|3:0,0:0:0:0:
267,186,15550,6,0,L|175:176,1,70,0|2,0:0|3:2,0:0:0:0:
162,262,16030,1,0,0:0:0:0:
162,262,16150,1,0,0:0:0:0:
162,262,16270,2,0,B|98:250|86:322|20:298,1,140,2|8,3:2|3:2,0:0:0:0:
49,212,16990,5,0,0:0:0:0:
49,212,17110,1,0,0:0:0:0:
49,212,17230,2,0,L|65:64,1,140,2|0,3:2|3:0,0:0:0:0:
145,113,17950,1,0,0:0:0:0:
160,121,18070,1,0,0:0:0:0:
177,124,18190,2,0,P|198:125|220:119,1,35,2|8,3:2|0:0,0:0:0:0:
223,108,18430,2,0,L|304:94,1,70,2|8,0:0|3:2,0:0:0:0:
364,40,18910,1,2,0:0:0:0:
376,195,19150,6,0,P|329:201|274:168,2,105,4|0|0,3:2|0:0|0:0,0:0:0:0:
256,192,19990,12,2,21070,0:0:0:0:
63,279,22030,5,8,0:0:0:0:
95,247,22150,2,0,P|102:222|89:171,1,70,4|0,3:0|0:0,0:0:0:0:
58,150,22510,5,8,0:0:0:0:
91,119,22630,1,8,0:0:0:0:
99,74,22750,1,4,3:0:0:0:
208,98,22990,6,0,L|332:80,1,105,4|0,3:2|0:0,0:0:0:0:
349,108,23470,2,0,P|386:125|430:115,1,70,8|2,0:0|0:0,0:0:0:0:
457,107,23830,1,2,0:0:0:0:
488,74,23950,2,0,L|499:1,1,70,0|2,3:0|0:0,0:0:0:0:
349,108,24430,2,0,B|326:134|326:134|372:180|345:242,2,140,8|0|8,0:0|3:0|0:2,0:0:0:0:
272,208,25630,5,2,0:0:0:0:
272,208,25750,1,0,0:0:0:0:
272,208,25870,2,0,L|185:198,1,70,0|2,3:0|0:0,0:0:0:0:
148,272,26350,2,0,P|106:278|36:211,1,140,8|0,0:0|3:0,0:0:0:0:
90,142,27070,1,0,0:0:0:0:
148,272,27310,5,8,0:0:0:0:
118,358,27550,2,0,L|279:323,1,140
288,243,28270,1,10,3:2:0:0:
208,199,28510,1,0,0:0:0:0:
277,255,28750,6,0,P|331:263|412:215,1,140,0|8,3:0|3:2,0:0:0:0:
452,147,29470,1,0,0:0:0:0:
340,175,29710,1,0,3:0:0:0:
340,175,29830,1,2,0:0:0:0:
340,175,29950,1,2,0:0:0:0:
418,70,30190,1,8,0:0:0:0:
404,224,30430,1,2,0:0:0:0:
256,178,30670,6,0,B|222:188|222:188|162:167|162:167|136:187|106:185,1,140,4|8,3:2|0:0,0:0:0:0:
57,122,31390,2,0,L|-23:135,1,70,2|0,0:0|3:0,0:0:0:0:
36,210,31870,1,2,0:0:0:0:
125,183,32110,1,8,0:0:0:0:
186,250,32350,2,0,P|219:293|194:378,1,140,2|0,0:0|0:0,0:0:0:0:
200,371,33070,6,0,P|217:317|292:286,1,140,8|2,0:0|3:2,0:0:0:0:
364,336,33790,2,0,P|393:326|418:314,1,35,2|0,0:0|0:0,0:0:0:0:
416,324,34030,2,0,P|436:292|450:234,1,70,8|2,0:0|0:0,0:0:0:0:
415,175,34510,2,0,L|398:134,3,35,0|2|0|2,3:0|0:0|0:0|0:0,0:0:0:0:
421,102,34990,2,0,P|372:94|303:22,1,140,8|2,0:0|3:2,0:0:0:0:
78,205,35950,6,0,L|204:179,1,105,10|0,0:2|0:0,0:0:0:0:
215,213,36430,2,0,P|261:226|304:225,1,70,2|0,3:2|0:0,0:0:0:0:
344,159,36910,1,8,0:0:0:0:
344,159,37030,2,0,B|379:147|379:147|416:171|462:169,1,105,0|2,0:0|3:2,0:0:0:0:
480,143,37510,1,2,0:0:0:0:
410,260,37870,1,8,0:0:0:0:
422,284,37990,1,2,0:0:0:0:
434,308,38110,1,0,3:0:0:0:
292,346,38350,6,0,B|257:344|236:306|236:306|203:301|179:329|179:329|156:335,1,140,4|8,3:2|0:0,0:0:0:0:
95,286,39070,2,0,P|64:297|27:306,1,70,0|0,3:0|0:0,0:0:0:0:
38,215,39550,1,0,3:0:0:0:
175,165,39790,1,8,0:0:0:0:
51,223,40030,6,0,L|37:377,1,140,2|0,0:0|3:0,0:0:0:0:
161,325,40750,1,8,0:0:0:0:
128,203,40990,2,0,P|68:207|8:141,1,140,2|0,0:0|3:0,0:0:0:0:
47,71,41710,1,8,0:0:0:0:
128,111,41950,1,0,0:0:0:0:
191,250,42190,6,0,L|342:225,1,140,10|10,0:0|0:0,0:0:0:0:
417,123,42910,1,0,3:0:0:0:
417,123,43390,5,2,3:2:0:0:
386,269,43630,1,8,0:0:0:0:
277,157,43870,2,0,B|230:168|230:168|178:147|178:147|157:162|132:162,1,140,2|0,0:0|3:0,0:0:0:0:
87,231,44590,2,0,P|53:229|1:211,1,70,8|0,0:0|0:0,0:0:0:0:
65,141,45070,5,0,0:0:0:0:
65,141,45190,1,8,0:0:0:0:
65,141,45310,1,2,3:2:0:0:
170,244,45550,1,8,0:0:0:0:
196,280,45670,1,0,0:0:0:0:
210,323,45790,1,8,3:0:0:0:
255,318,45910,1,4,3:0:0:0:
300,323,46030,2,0,P|335:333|375:363,1,70,4|2,3:2|0:0,0:0:0:0:
496,306,46510,6,0,P|431:293|392:232,1,140,8|0,0:0|3:0,0:0:0:0:
494,187,47230,1,2,0:0:0:0:
489,326,47470,6,0,P|424:313|385:252,1,140,8|0,0:0|3:0,0:0:0:0:
352,126,48190,1,2,0:0:0:0:
448,215,48430,1,8,0:0:0:0:
316,282,48670,2,0,L|224:260,1,70,2|0,0:0|3:0,0:0:0:0:
208,288,49030,2,0,P|154:290|102:251,1,105,8|8,0:0|0:0,0:0:0:0:
37,155,49630,5,8,0:0:0:0:
37,155,49750,1,8,0:0:0:0:
37,155,49870,2,0,L|21:77,1,70,4|0,3:2|0:0,0:0:0:0:
154,26,50350,1,10,0:0:0:0:
111,106,50590,1,0,3:0:0:0:
234,72,50830,6,0,P|286:80|328:84,1,70,10|0,0:0|3:0,0:0:0:0:
392,207,51310,2,0,P|344:201|310:194,1,70,10|0,0:0|3:0,0:0:0:0:
306,225,51670,5,0,3:0:0:0:
306,225,51790,1,12,0:0:0:0:
306,225,51910,2,0,P|265:232|223:235,1,70,0|0,3:0|3:0,0:0:0:0:
206,269,52270,1,12,0:0:0:0:
252,156,52510,1,0,3:0:0:0:
252,156,52990,5,8,1:2:0:0:
297,312,53230,1,8,1:2:0:0:
297,312,53710,6,0,B|331:325|331:325|374:304|374:304|411:314|446:304,1,154.000004699707,4|8,3:2|0:0,0:0:0:0:
502,235,54430,1,2,0:0:0:0:
502,235,54550,1,0,0:0:0:0:
502,235,54670,2,0,L|487:93,1,115.50000352478,0|0,3:0|0:0,0:0:0:0:
472,136,55150,2,0,P|433:130|379:106,1,77.0000023498536,8|2,0:0|0:0,0:0:0:0:
361,31,55630,6,0,L|192:54,1,154.000004699707,0|8,3:0|0:0,0:0:0:0:
140,115,56350,1,2,0:0:0:0:
38,37,56590,1,0,3:0:0:0:
43,55,56710,1,0,3:2:0:0:
48,73,56830,1,2,0:0:0:0:
175,195,57070,2,0,P|140:199|82:176,1,77.0000023498536,8|2,0:0|0:0,0:0:0:0:
241,139,57550,6,0,B|267:169|267:169|261:236|219:293,1,154.000004699707,4|8,3:2|0:0,0:0:0:0:
152,325,58270,1,2,0:0:0:0:
152,325,58390,1,0,0:0:0:0:
152,325,58510,2,0,L|76:309,1,77.0000023498536,0|2,3:0|0:0,0:0:0:0:
26,226,58990,1,8,0:0:0:0:
166,170,59230,5,2,0:0:0:0:
166,170,59350,1,0,3:0:0:0:
166,170,59470,2,0,P|222:177|277:129,1,115.50000352478,0|0,3:0|0:0,0:0:0:0:
280,99,59950,2,0,P|258:47|188:23,1,115.50000352478,8|0,0:0|0:0,0:0:0:0:
161,33,60430,2,0,P|126:77|141:149,1,115.50000352478,0|0,3:0|0:0,0:0:0:0:
165,165,60910,2,0,P|184:177|212:183,1,38.5000011749268,8|8,0:0|0:0,0:0:0:0:
327,233,61390,6,0,L|447:219,1,115.50000352478,4|0,3:2|0:0,0:0:0:0:
441,219,61870,1,8,0:0:0:0:
389,142,62110,1,2,0:0:0:0:
418,300,62350,2,0,P|455:305|499:286,1,77.0000023498536,0|2,3:0|0:0,0:0:0:0:
347,355,62830,2,0,B|303:366|254:347|254:347|234:357|204:357,1,115.50000352478,8|0,0:0|0:0,0:0:0:0:
219,364,63310,2,0,L|229:275,1,77.0000023498536,0|2,3:0|0:0,0:0:0:0:
77,305,63790,2,0,P|97:309|156:290,1,77.0000023498536,8|2,0:0|0:0,0:0:0:0:
283,226,64270,5,0,3:0:0:0:
283,226,64390,2,0,L|262:96,1,115.50000352478,0|8,1:0|0:0,0:0:0:0:
337,54,64990,1,2,0:0:0:0:
417,99,65230,2,0,P|389:127|335:138,1,77.0000023498536,4|2,3:2|0:0,0:0:0:0:
285,199,65710,2,0,P|241:194|198:163,1,77.0000023498536,8|2,0:0|0:0,0:0:0:0:
183,90,66190,1,0,3:0:0:0:
94,117,66430,1,2,0:0:0:0:
129,202,66670,2,0,B|104:235|104:235|139:276|109:315|109:315|128:351,1,154.000004699707,8|0,0:0|3:0,0:0:0:0:
238,281,67390,5,2,0:0:0:0:
238,281,67510,1,0,3:0:0:0:
238,281,67630,1,8,0:0:0:0:
238,281,67750,2,0,P|275:279|326:307,1,77.0000023498536,0|0,3:0|0:0,0:0:0:0:
334,307,68110,1,0,3:0:0:0:
354,324,68230,2,0,B|358:305|382:295|382:295|365:191,1,115.50000352478,0|8,1:2|0:0,0:0:0:0:
412,214,68710,2,0,P|378:212|330:180,1,77.0000023498536,0|0,1:0|0:0,0:0:0:0:
321,149,69070,6,0,L|186:175,1,115.50000352478,4|0,3:2|0:0,0:0:0:0:
186,164,69550,2,0,P|144:153|85:144,1,77.0000023498536,8|2,0:0|0:0,0:0:0:0:
20,278,70030,2,0,P|67:280|134:215,1,115.50000352478,0|0,3:0|0:0,0:0:0:0:
121,242,70510,1,8,0:0:0:0:
43,107,70750,1,2,0:0:0:0:
43,107,70990,2,0,P|33:149|47:206,1,77.0000023498536,0|2,3:0|0:0,0:0:0:0:
86,315,71470,5,8,0:0:0:0:
196,238,71710,1,2,0:0:0:0:
158,377,71950,2,0,B|179:382|179:382|213:351|213:351|244:364|290:362,2,115.50000352478,0|0|2,3:0|0:0|0:0,0:0:0:0:
266,277,72910,6,0,L|397:249,1,115.50000352478,0|0,3:0|0:0,0:0:0:0:
404,276,73390,2,0,P|440:292|488:298,1,77.0000023498536,8|2,0:0|0:0,0:0:0:0:
470,205,73870,2,0,B|483:174|483:174|466:134|466:134|485:102|486:70,1,115.50000352478,0|0,3:0|0:0,0:0:0:0:
492,78,74350,2,0,P|446:87|390:92,1,77.0000023498536,8|2,0:0|0:0,0:0:0:0:
370,82,74710,1,0,1:0:0:0:
335,50,74830,6,0,B|310:36|310:36|272:76|206:52,1,115.50000352478,0|0,3:0|3:0,0:0:0:0:
195,89,75310,2,0,P|166:83|134:66,1,38.5000011749268,8|0,0:0|3:0,0:0:0:0:
47,294,75790,1,0,3:0:0:0:
47,294,75910,2,0,P|103:298|162:246,1,115.50000352478,0|8,1:0|0:0,0:0:0:0:
178,227,76390,2,0,P|180:211|173:170,1,38.5000011749268,8|8,0:0|0:0,0:0:0:0:
35,211,76750,6,0,L|17:375,1,154.000004699707,4|8,3:2|0:0,0:0:0:0:
127,315,77470,2,0,B|190:303|215:372|299:341,1,154.000004699707,4|8,3:2|0:0,0:0:0:0:
292,342,78070,1,8,0:0:0:0:
304,327,78190,1,8,0:0:0:0:
431,248,78430,6,0,B|391:256|366:279|366:279|343:238|358:185,1,154.000004699707,4|0,3:2|3:0,0:0:0:0:
418,78,79150,2,0,L|286:102,1,115.50000352478,8|0,0:0|0:0,0:0:0:0:
287,89,79630,2,0,P|250:82|185:81,1,77.0000023498536,0|0,3:0|3:0,0:0:0:0:
118,182,80110,2,0,P|173:188|242:152,1,115.50000352478,8|0,0:0|0:0,0:0:0:0:
233,157,80590,1,4,3:2:0:0:
74,93,80830,6,0,L|38:102,3,25.6666674499512,0|0|0|8,0:0|0:0|0:0|0:0,0:0:0:0:
180,10,81310,1,8,0:0:0:0:
123,157,81550,6,0,L|115:191,3,25.6666674499512,0|0|0|8,3:0|0:0|0:0|0:0,0:0:0:0:
104,23,82030,1,8,0:0:0:0:
201,123,82270,6,0,L|231:116,3,25.6666674499512,8|8|8|4,0:0|0:0|0:0|3:2,0:0:0:0:
318,282,83230,2,0,P|366:267|358:164,1,157.500006008148
269,348,84430,6,0,B|225:331|225:331|166:375|105:330,1,157.500006008148,8|0,0:0|0:0,0:0:0:0:
41,362,85390,2,0,P|28:340|24:302,2,52.5000020027161,2|0|0,0:0|0:0|0:0,0:0:0:0:
169,270,86110,2,0,L|194:144,1,105.000004005432,2|0,0:0|0:0,0:0:0:0:
270,143,86830,1,2,0:0:0:0:
292,61,87070,1,0,0:0:0:0:
143,103,87310,6,0,P|102:106|75:107,1,52.5000020027161,0|0,0:0|0:0,0:0:0:0:
72,188,87790,2,0,P|35:184|10:180,1,52.5000020027161,2|0,0:0|0:0,0:0:0:0:
