osu file format v14

[General]
AudioFilename: audio.mp3
AudioLeadIn: 0
PreviewTime: 53373
Countdown: 0
SampleSet: Soft
StackLeniency: 0.7
Mode: 3
LetterboxInBreaks: 0
SpecialStyle: 0
WidescreenStoryboard: 1

[Editor]
Bookmarks: 20373,22773,38133
DistanceSpacing: 1.5
BeatDivisor: 4
GridSize: 4
TimelineZoom: 2.899999

[Metadata]
Title:Eien no Hitotsu
TitleUnicode:永遠のひとつ
Artist:Tamura Yukari
ArtistUnicode:田村ゆかり
Creator:Ceker_Ayam
Version:Rinne
Source:ISLAND
Tags:anime op ln
BeatmapID:1740491
BeatmapSetID:830739

[Difficulty]
HPDrainRate:7
CircleSize:4
OverallDifficulty:2
ApproachRate:5
SliderMultiplier:1.4
SliderTickRate:1

[Events]
//Background and Video events
0,0,"69598393_p0.jpg",0,0
//Break Periods
//Storyboard Layer 0 (Background)
//Storyboard Layer 1 (Fail)
//Storyboard Layer 2 (Pass)
//Storyboard Layer 3 (Foreground)
//Storyboard Sound Samples

[TimingPoints]
1005,530.973451327434,4,2,0,0,1,0
6314,-133.333333333333,4,2,0,0,0,0
6447,-153.846153846153,4,2,0,0,0,0
6580,-66.6666666666667,4,2,0,0,0,0
6680,-133.333333333333,4,2,0,0,0,0
6845,-100,4,2,0,0,0,0
6933,480,4,2,0,0,1,0
8853,-66.6666666666667,4,2,0,0,0,0
8973,-133.333333333333,4,2,0,0,0,0
9333,-100,4,2,0,0,0,0
12693,-66.6666666666667,4,2,0,0,0,0
12793,-133.333333333333,4,2,0,0,0,0
13173,-100,4,2,0,0,0,0
14733,-66.6666666666667,4,2,0,0,0,0
14833,-133.333333333333,4,2,0,0,0,0
15093,-100,4,2,0,0,0,0
16533,-66.6666666666667,4,2,0,0,0,0
16633,-133.333333333333,4,2,0,0,0,0
17013,-100,4,2,0,0,0,0
18933,-117.647058823529,4,2,0,0,0,0
21813,-66.6666666666667,4,2,0,0,0,0
21933,-133.333333333333,4,2,0,0,0,0
22053,-83.3333333333333,4,2,0,0,0,0
22173,-100,4,2,0,0,0,0
22293,-83.3333333333333,4,2,0,0,0,0
22413,-100,4,2,0,0,0,0
22533,-83.3333333333333,4,2,0,0,0,0
22653,-399.999999999997,4,2,0,0,0,0
22773,-100,4,2,0,0,0,0
53493,-100,4,2,0,0,0,1
60693,-100,4,2,0,0,0,0
61173,-100,4,2,0,0,0,1
68364,-100,4,2,0,0,0,0
68853,-100,4,2,0,0,0,1
84213,-100,4,2,0,0,0,0

[HitObjects]
448,192,208,5,0,0:0:0:0:
320,192,474,1,0,0:0:0:0:
192,192,739,1,0,0:0:0:0:
320,192,1005,1,0,0:0:0:0:
64,192,1005,128,0,1801:0:0:0:0:
448,192,1049,1,0,0:0:0:0:
192,192,1801,1,0,0:0:0:0:
320,192,1801,128,0,3128:0:0:0:0:
448,192,1801,128,0,1934:0:0:0:0:
192,192,3128,128,0,3925:0:0:0:0:
64,192,3128,128,0,3261:0:0:0:0:
448,192,3128,1,0,0:0:0:0:
320,192,3925,128,0,4721:0:0:0:0:
64,192,3925,128,0,4058:0:0:0:0:
448,192,3925,1,0,0:0:0:0:
64,192,4721,128,0,5252:0:0:0:0:
192,192,4721,128,0,4854:0:0:0:0:
448,192,4721,1,0,0:0:0:0:
448,192,5164,1,0,0:0:0:0:
320,192,5208,1,0,0:0:0:0:
192,192,5252,1,0,0:0:0:0:
448,192,5252,128,0,6049:0:0:0:0:
320,192,6049,128,0,6580:0:0:0:0:
64,192,6049,128,0,6314:0:0:0:0:
192,192,6049,128,0,6447:0:0:0:0:
64,192,6845,1,0,0:0:0:0:
192,192,6845,1,0,0:0:0:0:
320,192,7413,1,0,0:0:0:0:
64,192,7413,1,0,0:0:0:0:
448,192,7413,128,0,7653:0:0:0:0:
320,192,7653,1,0,0:0:0:0:
64,192,7653,128,0,7893:0:0:0:0:
192,192,7893,128,0,8133:0:0:0:0:
320,192,7893,1,0,0:0:0:0:
320,192,8133,128,0,8373:0:0:0:0:
64,192,8133,1,0,0:0:0:0:
192,192,8253,1,0,0:0:0:0:
448,192,8373,128,0,9333:0:0:0:0:
320,192,8613,1,0,0:0:0:0:
192,192,8733,1,0,0:0:0:0:
64,192,8853,1,0,0:0:0:0:
320,192,8853,1,0,0:0:0:0:
64,192,9333,1,0,0:0:0:0:
320,192,9333,1,0,0:0:0:0:
192,192,9333,128,0,10053:0:0:0:0:
320,192,9573,128,0,9693:0:0:0:0:
448,192,9693,1,0,0:0:0:0:
64,192,9813,128,0,9933:0:0:0:0:
448,192,9933,1,0,0:0:0:0:
320,192,10053,128,0,10293:0:0:0:0:
448,192,10293,128,0,10773:0:0:0:0:
320,192,10533,1,0,0:0:0:0:
192,192,10653,1,0,0:0:0:0:
320,192,10773,128,0,11013:0:0:0:0:
64,192,10773,1,0,0:0:0:0:
192,192,11013,128,0,11253:0:0:0:0:
64,192,11253,128,0,11733:0:0:0:0:
320,192,11253,1,0,0:0:0:0:
448,192,11253,1,0,0:0:0:0:
320,192,11493,1,0,0:0:0:0:
192,192,11613,1,0,0:0:0:0:
320,192,11733,128,0,11973:0:0:0:0:
448,192,11733,1,0,0:0:0:0:
448,192,11973,128,0,13173:0:0:0:0:
320,192,12213,1,0,0:0:0:0:
192,192,12333,1,0,0:0:0:0:
64,192,12453,1,0,0:0:0:0:
320,192,12453,1,0,0:0:0:0:
320,192,12693,1,0,0:0:0:0:
64,192,12693,1,0,0:0:0:0:
64,192,13173,1,0,0:0:0:0:
192,192,13173,1,0,0:0:0:0:
320,192,13173,128,0,14613:0:0:0:0:
192,192,13413,1,0,0:0:0:0:
64,192,13533,1,0,0:0:0:0:
448,192,13653,1,0,0:0:0:0:
448,192,13893,1,0,0:0:0:0:
64,192,13893,1,0,0:0:0:0:
192,192,14133,1,0,0:0:0:0:
64,192,14253,1,0,0:0:0:0:
448,192,14373,1,0,0:0:0:0:
64,192,14613,1,0,0:0:0:0:
448,192,14613,1,0,0:0:0:0:
192,192,14733,1,0,0:0:0:0:
320,192,14733,1,0,0:0:0:0:
64,192,15093,1,0,0:0:0:0:
320,192,15093,1,0,0:0:0:0:
448,192,15093,1,0,0:0:0:0:
192,192,15093,128,0,15333:0:0:0:0:
320,192,15333,128,0,15573:0:0:0:0:
64,192,15333,128,0,15453:0:0:0:0:
192,192,15453,1,0,0:0:0:0:
448,192,15573,128,0,15813:0:0:0:0:
64,192,15573,128,0,15693:0:0:0:0:
192,192,15693,1,0,0:0:0:0:
320,192,15813,128,0,16053:0:0:0:0:
192,192,15813,128,0,15933:0:0:0:0:
448,192,15933,1,0,0:0:0:0:
64,192,16053,128,0,16293:0:0:0:0:
192,192,16053,1,0,0:0:0:0:
192,192,16293,128,0,17013:0:0:0:0:
448,192,16293,128,0,16413:0:0:0:0:
320,192,16413,1,0,0:0:0:0:
64,192,16533,1,0,0:0:0:0:
448,192,16533,1,0,0:0:0:0:
64,192,17013,1,0,0:0:0:0:
448,192,17013,1,0,0:0:0:0:
320,192,17013,128,0,17733:0:0:0:0:
192,192,17133,1,0,0:0:0:0:
64,192,17253,128,0,17373:0:0:0:0:
192,192,17373,1,0,0:0:0:0:
448,192,17493,1,0,0:0:0:0:
64,192,17493,1,0,0:0:0:0:
192,192,17613,1,0,0:0:0:0:
448,192,17733,128,0,17973:0:0:0:0:
64,192,17733,1,0,0:0:0:0:
192,192,17853,1,0,0:0:0:0:
320,192,17973,128,0,18213:0:0:0:0:
64,192,17973,1,0,0:0:0:0:
448,192,18093,1,0,0:0:0:0:
192,192,18213,128,0,18453:0:0:0:0:
64,192,18213,1,0,0:0:0:0:
320,192,18333,1,0,0:0:0:0:
320,192,18453,128,0,18693:0:0:0:0:
448,192,18453,1,0,0:0:0:0:
64,192,18453,1,0,0:0:0:0:
448,192,18693,128,0,18933:0:0:0:0:
64,192,18693,1,0,0:0:0:0:
320,192,18813,1,0,0:0:0:0:
64,192,18933,128,0,19413:0:0:0:0:
192,192,19173,128,0,19653:0:0:0:0:
320,192,19413,128,0,19893:0:0:0:0:
448,192,19653,128,0,20133:0:0:0:0:
64,192,19773,1,0,0:0:0:0:
192,192,19893,1,0,0:0:0:0:
64,192,20013,1,0,0:0:0:0:
320,192,20133,128,0,20373:0:0:0:0:
192,192,20253,128,0,20373:0:0:0:0:
64,192,20373,1,0,0:0:0:0:
448,192,20373,1,0,0:0:0:0:
64,192,20613,128,0,20853:0:0:0:0:
192,192,20733,128,0,20973:0:0:0:0:
320,192,20853,128,0,21093:0:0:0:0:
448,192,20973,128,0,21213:0:0:0:0:
64,192,21093,128,0,21333:0:0:0:0:
192,192,21213,128,0,21453:0:0:0:0:
448,192,21333,128,0,21573:0:0:0:0:
320,192,21453,128,0,21693:0:0:0:0:
192,192,21573,128,0,21693:0:0:0:0:
64,192,21693,1,0,0:0:0:0:
448,192,21693,1,0,0:0:0:0:
64,192,21813,1,0,0:0:0:0:
192,192,21813,1,0,0:0:0:0:
320,192,21813,1,0,0:0:0:0:
448,192,21813,1,0,0:0:0:0:
64,192,22173,1,0,0:0:0:0:
448,192,22173,1,0,0:0:0:0:
192,192,22293,1,0,0:0:0:0:
320,192,22293,1,0,0:0:0:0:
448,192,22413,1,0,0:0:0:0:
64,192,22413,1,0,0:0:0:0:
64,192,22773,1,0,0:0:0:0:
448,192,22773,1,0,0:0:0:0:
320,192,22773,128,0,23013:0:0:0:0:
192,192,23013,128,0,23253:0:0:0:0:
448,192,23013,1,0,0:0:0:0:
320,192,23133,128,0,23253:0:0:0:0:
64,192,23253,128,0,23493:0:0:0:0:
448,192,23253,1,0,0:0:0:0:
192,192,23373,1,0,0:0:0:0:
320,192,23493,128,0,23733:0:0:0:0:
448,192,23493,1,0,0:0:0:0:
192,192,23613,1,0,0:0:0:0:
448,192,23733,128,0,23973:0:0:0:0:
64,192,23733,128,0,23853:0:0:0:0:
192,192,23853,1,0,0:0:0:0:
320,192,23973,128,0,24213:0:0:0:0:
64,192,23973,1,0,0:0:0:0:
448,192,24093,1,0,0:0:0:0:
64,192,24213,1,0,0:0:0:0:
192,192,24213,128,0,25173:0:0:0:0:
448,192,24333,128,0,24453:0:0:0:0:
320,192,24453,1,0,0:0:0:0:
448,192,24573,1,0,0:0:0:0:
64,192,24693,1,0,0:0:0:0:
448,192,24813,1,0,0:0:0:0:
320,192,24933,1,0,0:0:0:0:
64,192,25053,1,0,0:0:0:0:
448,192,25173,1,0,0:0:0:0:
320,192,25173,128,0,25413:0:0:0:0:
192,192,25293,1,0,0:0:0:0:
448,192,25413,128,0,25653:0:0:0:0:
64,192,25413,128,0,25533:0:0:0:0:
192,192,25533,1,0,0:0:0:0:
320,192,25653,128,0,25893:0:0:0:0:
64,192,25653,128,0,25773:0:0:0:0:
448,192,25773,1,0,0:0:0:0:
192,192,25893,128,0,26133:0:0:0:0:
64,192,25893,128,0,26013:0:0:0:0:
320,192,26013,1,0,0:0:0:0:
64,192,26133,128,0,26373:0:0:0:0:
320,192,26133,128,0,26253:0:0:0:0:
448,192,26253,1,0,0:0:0:0:
320,192,26373,128,0,26613:0:0:0:0:
192,192,26373,1,0,0:0:0:0:
448,192,26373,128,0,26493:0:0:0:0:
64,192,26493,1,0,0:0:0:0:
448,192,26613,128,0,26853:0:0:0:0:
192,192,26613,128,0,26733:0:0:0:0:
320,192,26733,1,0,0:0:0:0:
64,192,26853,128,0,27093:0:0:0:0:
192,192,26853,128,0,26973:0:0:0:0:
320,192,26973,1,0,0:0:0:0:
192,192,27093,128,0,27333:0:0:0:0:
448,192,27093,1,0,0:0:0:0:
64,192,27213,128,0,27333:0:0:0:0:
448,192,27333,1,0,0:0:0:0:
320,192,27333,128,0,28533:0:0:0:0:
192,192,27453,1,0,0:0:0:0:
64,192,27573,1,0,0:0:0:0:
448,192,27573,1,0,0:0:0:0:
192,192,27693,128,0,27813:0:0:0:0:
448,192,27813,1,0,0:0:0:0:
192,192,27933,1,0,0:0:0:0:
64,192,28053,1,0,0:0:0:0:
448,192,28173,128,0,28293:0:0:0:0:
192,192,28293,1,0,0:0:0:0:
64,192,28413,1,0,0:0:0:0:
192,192,28533,1,0,0:0:0:0:
448,192,28533,128,0,29013:0:0:0:0:
192,192,28653,128,0,28773:0:0:0:0:
320,192,28773,1,0,0:0:0:0:
64,192,28893,1,0,0:0:0:0:
192,192,29013,128,0,29493:0:0:0:0:
320,192,29013,1,0,0:0:0:0:
448,192,29133,128,0,29253:0:0:0:0:
320,192,29253,1,0,0:0:0:0:
448,192,29373,1,0,0:0:0:0:
320,192,29493,128,0,29733:0:0:0:0:
64,192,29493,1,0,0:0:0:0:
192,192,29613,1,0,0:0:0:0:
448,192,29733,128,0,29973:0:0:0:0:
64,192,29733,1,0,0:0:0:0:
192,192,29853,1,0,0:0:0:0:
64,192,29973,128,0,30213:0:0:0:0:
320,192,29973,1,0,0:0:0:0:
192,192,30093,128,0,30213:0:0:0:0:
320,192,30213,1,0,0:0:0:0:
64,192,30453,1,0,0:0:0:0:
448,192,30453,1,0,0:0:0:0:
64,192,30693,128,0,30933:0:0:0:0:
192,192,30693,1,0,0:0:0:0:
320,192,30813,1,0,0:0:0:0:
192,192,30933,128,0,31173:0:0:0:0:
448,192,30933,128,0,31053:0:0:0:0:
64,192,31053,1,0,0:0:0:0:
320,192,31173,128,0,31653:0:0:0:0:
448,192,31173,1,0,0:0:0:0:
64,192,31293,128,0,31413:0:0:0:0:
192,192,31413,1,0,0:0:0:0:
448,192,31413,1,0,0:0:0:0:
64,192,31533,1,0,0:0:0:0:
448,192,31653,128,0,31893:0:0:0:0:
192,192,31653,1,0,0:0:0:0:
64,192,31773,1,0,0:0:0:0:
192,192,31893,128,0,32133:0:0:0:0:
320,192,31893,1,0,0:0:0:0:
448,192,32013,128,0,32133:0:0:0:0:
64,192,32133,128,0,32613:0:0:0:0:
320,192,32133,1,0,0:0:0:0:
192,192,32253,1,0,0:0:0:0:
448,192,32373,1,0,0:0:0:0:
320,192,32373,1,0,0:0:0:0:
192,192,32493,1,0,0:0:0:0:
192,192,32613,128,0,32853:0:0:0:0:
448,192,32613,1,0,0:0:0:0:
64,192,32733,1,0,0:0:0:0:
320,192,32853,128,0,33093:0:0:0:0:
448,192,32853,1,0,0:0:0:0:
192,192,32973,128,0,33093:0:0:0:0:
448,192,33093,128,0,33333:0:0:0:0:
64,192,33093,1,0,0:0:0:0:
192,192,33213,1,0,0:0:0:0:
320,192,33333,128,0,33573:0:0:0:0:
64,192,33333,1,0,0:0:0:0:
448,192,33453,1,0,0:0:0:0:
192,192,33573,128,0,33813:0:0:0:0:
64,192,33573,1,0,0:0:0:0:
320,192,33693,1,0,0:0:0:0:
64,192,33813,128,0,34053:0:0:0:0:
320,192,33813,1,0,0:0:0:0:
448,192,33813,1,0,0:0:0:0:
320,192,34053,128,0,35013:0:0:0:0:
192,192,34053,128,0,34173:0:0:0:0:
64,192,34173,1,0,0:0:0:0:
448,192,34293,128,0,34413:0:0:0:0:
64,192,34413,1,0,0:0:0:0:
192,192,34533,128,0,34653:0:0:0:0:
448,192,34653,1,0,0:0:0:0:
64,192,34773,128,0,34893:0:0:0:0:
192,192,34893,1,0,0:0:0:0:
448,192,35013,128,0,36213:0:0:0:0:
64,192,35013,128,0,35133:0:0:0:0:
192,192,35133,128,0,35253:0:0:0:0:
320,192,35253,128,0,35373:0:0:0:0:
64,192,35373,128,0,35493:0:0:0:0:
192,192,35493,128,0,35613:0:0:0:0:
320,192,35613,128,0,35733:0:0:0:0:
192,192,35733,1,0,0:0:0:0:
64,192,35973,1,0,0:0:0:0:
192,192,36093,1,0,0:0:0:0:
64,192,36213,1,0,0:0:0:0:
320,192,36213,1,0,0:0:0:0:
320,192,36333,1,0,0:0:0:0:
192,192,36453,1,0,0:0:0:0:
320,192,36573,1,0,0:0:0:0:
64,192,36693,1,0,0:0:0:0:
192,192,36693,1,0,0:0:0:0:
448,192,36693,1,0,0:0:0:0:
192,192,36813,1,0,0:0:0:0:
320,192,36933,1,0,0:0:0:0:
192,192,37053,1,0,0:0:0:0:
64,192,37173,1,0,0:0:0:0:
448,192,37173,1,0,0:0:0:0:
320,192,37173,1,0,0:0:0:0:
320,192,37293,1,0,0:0:0:0:
192,192,37413,1,0,0:0:0:0:
64,192,37533,1,0,0:0:0:0:
320,192,37653,1,0,0:0:0:0:
448,192,37653,1,0,0:0:0:0:
64,192,37773,1,0,0:0:0:0:
192,192,37773,1,0,0:0:0:0:
320,192,37893,1,0,0:0:0:0:
448,192,37893,1,0,0:0:0:0:
64,192,38133,1,0,0:0:0:0:
192,192,38133,128,0,38253:0:0:0:0:
320,192,38133,128,0,38373:0:0:0:0:
448,192,38133,128,0,38493:0:0:0:0:
64,192,38373,128,0,38613:0:0:0:0:
192,192,38373,128,0,38493:0:0:0:0:
320,192,38613,128,0,38853:0:0:0:0:
448,192,38613,128,0,38733:0:0:0:0:
192,192,38613,128,0,38733:0:0:0:0:
64,192,38853,128,0,39093:0:0:0:0:
192,192,38853,128,0,38973:0:0:0:0:
448,192,38853,128,0,38973:0:0:0:0:
320,192,39093,128,0,39333:0:0:0:0:
192,192,39093,128,0,39213:0:0:0:0:
448,192,39093,128,0,39213:0:0:0:0:
64,192,39333,128,0,39573:0:0:0:0:
192,192,39333,128,0,39453:0:0:0:0:
448,192,39333,128,0,39453:0:0:0:0:
320,192,39573,128,0,39813:0:0:0:0:
192,192,39573,128,0,39693:0:0:0:0:
448,192,39573,128,0,39693:0:0:0:0:
64,192,39813,128,0,40053:0:0:0:0:
192,192,39813,128,0,39933:0:0:0:0:
448,192,39813,128,0,39933:0:0:0:0:
64,192,40293,128,0,40533:0:0:0:0:
192,192,40293,1,0,0:0:0:0:
448,192,40413,1,0,0:0:0:0:
320,192,40533,128,0,40773:0:0:0:0:
192,192,40533,1,0,0:0:0:0:
192,192,40773,128,0,41493:0:0:0:0:
64,192,40773,1,0,0:0:0:0:
448,192,40893,128,0,41013:0:0:0:0:
320,192,41013,1,0,0:0:0:0:
64,192,41013,1,0,0:0:0:0:
448,192,41133,1,0,0:0:0:0:
320,192,41253,1,0,0:0:0:0:
64,192,41373,128,0,41493:0:0:0:0:
448,192,41493,1,0,0:0:0:0:
320,192,41613,1,0,0:0:0:0:
192,192,41733,1,0,0:0:0:0:
448,192,41853,1,0,0:0:0:0:
64,192,41973,1,0,0:0:0:0:
192,192,41973,1,0,0:0:0:0:
320,192,41973,1,0,0:0:0:0:
192,192,42093,1,0,0:0:0:0:
448,192,42213,1,0,0:0:0:0:
320,192,42213,1,0,0:0:0:0:
64,192,42213,1,0,0:0:0:0:
320,192,42333,1,0,0:0:0:0:
64,192,42453,1,0,0:0:0:0:
448,192,42453,1,0,0:0:0:0:
192,192,42453,1,0,0:0:0:0:
192,192,42573,1,0,0:0:0:0:
320,192,42693,1,0,0:0:0:0:
448,192,42693,1,0,0:0:0:0:
64,192,42693,1,0,0:0:0:0:
64,192,42813,1,0,0:0:0:0:
192,192,42933,128,0,43173:0:0:0:0:
320,192,42933,1,0,0:0:0:0:
448,192,43053,128,0,43173:0:0:0:0:
320,192,43173,128,0,43413:0:0:0:0:
64,192,43173,1,0,0:0:0:0:
192,192,43293,1,0,0:0:0:0:
448,192,43413,128,0,43653:0:0:0:0:
64,192,43413,1,0,0:0:0:0:
320,192,43533,128,0,43653:0:0:0:0:
64,192,43653,128,0,43893:0:0:0:0:
192,192,43653,1,0,0:0:0:0:
448,192,43773,1,0,0:0:0:0:
192,192,43893,128,0,44133:0:0:0:0:
320,192,43893,128,0,44013:0:0:0:0:
64,192,44013,1,0,0:0:0:0:
320,192,44133,128,0,44373:0:0:0:0:
448,192,44133,1,0,0:0:0:0:
64,192,44253,1,0,0:0:0:0:
448,192,44373,128,0,44613:0:0:0:0:
192,192,44373,1,0,0:0:0:0:
320,192,44493,128,0,44613:0:0:0:0:
192,192,44613,128,0,45333:0:0:0:0:
64,192,44613,1,0,0:0:0:0:
320,192,44733,1,0,0:0:0:0:
448,192,44853,1,0,0:0:0:0:
64,192,44853,128,0,45093:0:0:0:0:
320,192,44973,128,0,45213:0:0:0:0:
448,192,45093,128,0,45333:0:0:0:0:
64,192,45213,128,0,45453:0:0:0:0:
320,192,45333,128,0,45573:0:0:0:0:
192,192,45453,128,0,45693:0:0:0:0:
448,192,45453,128,0,45813:0:0:0:0:
64,192,45573,128,0,45813:0:0:0:0:
320,192,45693,128,0,45813:0:0:0:0:
192,192,45813,1,0,0:0:0:0:
64,192,46053,128,0,46293:0:0:0:0:
192,192,46053,1,0,0:0:0:0:
320,192,46173,128,0,46293:0:0:0:0:
192,192,46293,128,0,46533:0:0:0:0:
448,192,46293,1,0,0:0:0:0:
64,192,46413,1,0,0:0:0:0:
320,192,46533,128,0,46773:0:0:0:0:
448,192,46533,1,0,0:0:0:0:
192,192,46653,128,0,46773:0:0:0:0:
448,192,46773,128,0,47013:0:0:0:0:
64,192,46773,1,0,0:0:0:0:
320,192,46893,128,0,47013:0:0:0:0:
192,192,47013,128,0,47253:0:0:0:0:
64,192,47013,1,0,0:0:0:0:
448,192,47133,128,0,47253:0:0:0:0:
64,192,47253,128,0,47493:0:0:0:0:
320,192,47253,1,0,0:0:0:0:
448,192,47373,1,0,0:0:0:0:
192,192,47493,128,0,47733:0:0:0:0:
320,192,47493,1,0,0:0:0:0:
448,192,47613,128,0,47733:0:0:0:0:
320,192,47733,128,0,47973:0:0:0:0:
64,192,47733,1,0,0:0:0:0:
192,192,47853,128,0,47973:0:0:0:0:
448,192,47973,128,0,48213:0:0:0:0:
64,192,47973,1,0,0:0:0:0:
192,192,48093,5,0,0:0:0:0:
320,192,48213,128,0,49173:0:0:0:0:
64,192,48213,128,0,48333:0:0:0:0:
192,192,48333,1,0,0:0:0:0:
192,192,48453,128,0,48573:0:0:0:0:
64,192,48573,1,0,0:0:0:0:
448,192,48693,128,0,48813:0:0:0:0:
192,192,48813,1,0,0:0:0:0:
64,192,48933,1,0,0:0:0:0:
448,192,48933,1,0,0:0:0:0:
192,192,49053,1,0,0:0:0:0:
448,192,49173,5,0,0:0:0:0:
64,192,49173,1,0,0:0:0:0:
64,192,49413,1,0,0:0:0:0:
448,192,49413,1,0,0:0:0:0:
192,192,49533,1,0,0:0:0:0:
320,192,49533,1,0,0:0:0:0:
64,192,49653,1,0,0:0:0:0:
320,192,49653,128,0,50133:0:0:0:0:
448,192,49773,1,0,0:0:0:0:
192,192,49893,1,0,0:0:0:0:
64,192,49893,1,0,0:0:0:0:
64,192,50013,1,0,0:0:0:0:
192,192,50133,128,0,50373:0:0:0:0:
448,192,50133,1,0,0:0:0:0:
320,192,50253,1,0,0:0:0:0:
64,192,50373,1,0,0:0:0:0:
448,192,50373,1,0,0:0:0:0:
192,192,50493,5,0,0:0:0:0:
448,192,50613,1,0,0:0:0:0:
320,192,50613,1,0,0:0:0:0:
64,192,50613,1,0,0:0:0:0:
320,192,50733,1,0,0:0:0:0:
64,192,50853,1,0,0:0:0:0:
192,192,50853,1,0,0:0:0:0:
448,192,50853,1,0,0:0:0:0:
192,192,50973,1,0,0:0:0:0:
320,192,51093,1,0,0:0:0:0:
448,192,51093,1,0,0:0:0:0:
64,192,51093,1,0,0:0:0:0:
320,192,51213,1,0,0:0:0:0:
64,192,51333,1,0,0:0:0:0:
192,192,51333,1,0,0:0:0:0:
448,192,51333,1,0,0:0:0:0:
320,192,51453,1,0,0:0:0:0:
64,192,51573,1,0,0:0:0:0:
192,192,51633,1,0,0:0:0:0:
320,192,51693,1,0,0:0:0:0:
448,192,51753,1,0,0:0:0:0:
64,192,51753,1,0,0:0:0:0:
192,192,51813,1,0,0:0:0:0:
320,192,51873,1,0,0:0:0:0:
448,192,51933,1,0,0:0:0:0:
64,192,51933,1,0,0:0:0:0:
192,192,51993,1,0,0:0:0:0:
320,192,52053,1,0,0:0:0:0:
448,192,52113,1,0,0:0:0:0:
64,192,52113,1,0,0:0:0:0:
192,192,52173,1,0,0:0:0:0:
320,192,52233,1,0,0:0:0:0:
448,192,52293,1,0,0:0:0:0:
64,192,52293,1,0,0:0:0:0:
320,192,52353,1,0,0:0:0:0:
192,192,52413,1,0,0:0:0:0:
64,192,52473,1,0,0:0:0:0:
448,192,52473,1,0,0:0:0:0:
320,192,52533,1,0,0:0:0:0:
192,192,52593,1,0,0:0:0:0:
64,192,52653,1,0,0:0:0:0:
448,192,52653,1,0,0:0:0:0:
320,192,52713,1,0,0:0:0:0:
192,192,52773,1,0,0:0:0:0:
64,192,52833,1,0,0:0:0:0:
448,192,52833,1,0,0:0:0:0:
320,192,52893,1,0,0:0:0:0:
192,192,52953,1,0,0:0:0:0:
448,192,53013,128,0,53253:0:0:0:0:
64,192,53013,1,0,0:0:0:0:
320,192,53133,128,0,53373:0:0:0:0:
192,192,53253,128,0,53493:0:0:0:0:
64,192,53373,128,0,53613:0:0:0:0:
448,192,53493,128,0,53613:0:0:0:0:
320,192,53613,128,0,53733:0:0:0:0:
192,192,53733,128,0,53973:0:0:0:0:
448,192,53733,128,0,53853:0:0:0:0:
320,192,53853,128,0,54093:0:0:0:0:
64,192,53973,128,0,54213:0:0:0:0:
448,192,53973,128,0,54093:0:0:0:0:
192,192,54093,128,0,54213:0:0:0:0:
320,192,54213,128,0,54453:0:0:0:0:
448,192,54213,128,0,54333:0:0:0:0:
192,192,54333,128,0,54453:0:0:0:0:
64,192,54453,128,0,54693:0:0:0:0:
448,192,54453,128,0,54573:0:0:0:0:
192,192,54573,128,0,54693:0:0:0:0:
320,192,54693,128,0,54933:0:0:0:0:
448,192,54693,128,0,54813:0:0:0:0:
192,192,54813,128,0,54933:0:0:0:0:
448,192,54933,128,0,55173:0:0:0:0:
64,192,54933,128,0,55053:0:0:0:0:
320,192,55053,128,0,55173:0:0:0:0:
64,192,55173,128,0,55333:0:0:0:0:
192,192,55253,128,0,55413:0:0:0:0:
320,192,55333,128,0,55493:0:0:0:0:
448,192,55413,128,0,55573:0:0:0:0:
64,192,55493,128,0,55653:0:0:0:0:
192,192,55573,128,0,55733:0:0:0:0:
320,192,55653,128,0,55813:0:0:0:0:
448,192,55733,128,0,55893:0:0:0:0:
64,192,55813,128,0,55973:0:0:0:0:
192,192,55893,128,0,56053:0:0:0:0:
320,192,55973,128,0,56133:0:0:0:0:
448,192,56053,128,0,56213:0:0:0:0:
64,192,56133,128,0,56293:0:0:0:0:
192,192,56213,128,0,56373:0:0:0:0:
448,192,56293,128,0,56453:0:0:0:0:
320,192,56373,128,0,56533:0:0:0:0:
192,192,56453,128,0,56613:0:0:0:0:
64,192,56533,128,0,56693:0:0:0:0:
448,192,56613,128,0,56773:0:0:0:0:
320,192,56693,128,0,56853:0:0:0:0:
192,192,56773,128,0,56933:0:0:0:0:
64,192,56853,128,0,57013:0:0:0:0:
448,192,56853,1,0,0:0:0:0:
320,192,56973,1,0,0:0:0:0:
448,192,57093,128,0,57333:0:0:0:0:
320,192,57093,128,0,57213:0:0:0:0:
192,192,57213,128,0,57333:0:0:0:0:
320,192,57333,128,0,57573:0:0:0:0:
64,192,57333,128,0,57453:0:0:0:0:
192,192,57453,128,0,57573:0:0:0:0:
448,192,57573,128,0,57813:0:0:0:0:
64,192,57573,128,0,57693:0:0:0:0:
192,192,57693,128,0,57813:0:0:0:0:
320,192,57813,128,0,58053:0:0:0:0:
64,192,57813,128,0,57933:0:0:0:0:
448,192,57933,128,0,58053:0:0:0:0:
192,192,58053,128,0,58293:0:0:0:0:
64,192,58053,128,0,58173:0:0:0:0:
320,192,58173,128,0,58293:0:0:0:0:
64,192,58293,128,0,58533:0:0:0:0:
448,192,58293,128,0,58413:0:0:0:0:
320,192,58413,128,0,58533:0:0:0:0:
192,192,58533,128,0,58773:0:0:0:0:
448,192,58533,128,0,58653:0:0:0:0:
320,192,58653,128,0,58773:0:0:0:0:
64,192,58773,128,0,59013:0:0:0:0:
448,192,58773,128,0,58893:0:0:0:0:
192,192,58893,128,0,59013:0:0:0:0:
448,192,59013,128,0,59173:0:0:0:0:
320,192,59093,128,0,59253:0:0:0:0:
192,192,59173,128,0,59333:0:0:0:0:
64,192,59253,128,0,59413:0:0:0:0:
448,192,59333,128,0,59493:0:0:0:0:
320,192,59413,128,0,59573:0:0:0:0:
192,192,59493,128,0,59653:0:0:0:0:
64,192,59573,128,0,59733:0:0:0:0:
448,192,59653,128,0,59813:0:0:0:0:
320,192,59733,128,0,59893:0:0:0:0:
192,192,59813,128,0,59973:0:0:0:0:
64,192,59893,128,0,60053:0:0:0:0:
448,192,59973,128,0,60133:0:0:0:0:
320,192,60053,128,0,60213:0:0:0:0:
192,192,60133,128,0,60293:0:0:0:0:
64,192,60213,128,0,60373:0:0:0:0:
448,192,60333,1,0,0:0:0:0:
320,192,60453,1,0,0:0:0:0:
192,192,60453,1,0,0:0:0:0:
448,192,60573,1,0,0:0:0:0:
64,192,60573,1,0,0:0:0:0:
192,192,60693,1,0,0:0:0:0:
320,192,60693,1,0,0:0:0:0:
64,192,60813,1,0,0:0:0:0:
192,192,60813,1,0,0:0:0:0:
320,192,60933,1,0,0:0:0:0:
448,192,60933,1,0,0:0:0:0:
192,192,61053,1,0,0:0:0:0:
64,192,61053,1,0,0:0:0:0:
320,192,61173,1,0,0:0:0:0:
448,192,61173,1,0,0:0:0:0:
64,192,61173,128,0,61413:0:0:0:0:
192,192,61173,128,0,61293:0:0:0:0:
320,192,61293,128,0,61413:0:0:0:0:
448,192,61413,128,0,61653:0:0:0:0:
192,192,61413,128,0,61533:0:0:0:0:
64,192,61533,128,0,61653:0:0:0:0:
320,192,61653,128,0,61893:0:0:0:0:
192,192,61653,128,0,61773:0:0:0:0:
64,192,61773,128,0,61893:0:0:0:0:
448,192,61893,128,0,62133:0:0:0:0:
192,192,61893,128,0,62013:0:0:0:0:
320,192,62013,128,0,62133:0:0:0:0:
64,192,62133,128,0,62373:0:0:0:0:
192,192,62133,128,0,62253:0:0:0:0:
320,192,62253,128,0,62373:0:0:0:0:
448,192,62373,128,0,62613:0:0:0:0:
192,192,62373,128,0,62493:0:0:0:0:
320,192,62493,128,0,62613:0:0:0:0:
192,192,62613,128,0,62853:0:0:0:0:
64,192,62613,128,0,62733:0:0:0:0:
320,192,62733,128,0,62853:0:0:0:0:
448,192,62853,128,0,63013:0:0:0:0:
320,192,62933,128,0,63093:0:0:0:0:
192,192,63013,128,0,63173:0:0:0:0:
64,192,63093,128,0,63253:0:0:0:0:
448,192,63173,128,0,63333:0:0:0:0:
320,192,63253,128,0,63413:0:0:0:0:
192,192,63333,128,0,63493:0:0:0:0:
64,192,63413,128,0,63573:0:0:0:0:
448,192,63493,128,0,63653:0:0:0:0:
320,192,63573,128,0,63733:0:0:0:0:
192,192,63653,128,0,63813:0:0:0:0:
64,192,63733,128,0,63893:0:0:0:0:
448,192,63813,128,0,63973:0:0:0:0:
320,192,63893,128,0,64053:0:0:0:0:
192,192,63973,128,0,64133:0:0:0:0:
64,192,64053,128,0,64213:0:0:0:0:
448,192,64053,1,0,0:0:0:0:
320,192,64173,1,0,0:0:0:0:
192,192,64293,1,0,0:0:0:0:
448,192,64293,1,0,0:0:0:0:
320,192,64413,1,0,0:0:0:0:
64,192,64413,1,0,0:0:0:0:
320,192,64533,128,0,64653:0:0:0:0:
192,192,64533,128,0,64773:0:0:0:0:
448,192,64653,128,0,64773:0:0:0:0:
64,192,64773,128,0,64893:0:0:0:0:
320,192,64773,128,0,65013:0:0:0:0:
192,192,64893,128,0,65013:0:0:0:0:
448,192,65013,128,0,65253:0:0:0:0:
64,192,65013,128,0,65133:0:0:0:0:
320,192,65133,128,0,65253:0:0:0:0:
192,192,65253,128,0,65493:0:0:0:0:
64,192,65253,128,0,65373:0:0:0:0:
320,192,65373,128,0,65493:0:0:0:0:
448,192,65493,128,0,65733:0:0:0:0:
64,192,65493,128,0,65613:0:0:0:0:
320,192,65613,128,0,65733:0:0:0:0:
192,192,65733,128,0,65973:0:0:0:0:
64,192,65733,128,0,65853:0:0:0:0:
320,192,65853,128,0,65973:0:0:0:0:
448,192,65973,128,0,66213:0:0:0:0:
64,192,65973,128,0,66093:0:0:0:0:
320,192,66093,128,0,66213:0:0:0:0:
64,192,66213,128,0,66333:0:0:0:0:
192,192,66213,128,0,66453:0:0:0:0:
320,192,66333,128,0,66453:0:0:0:0:
448,192,66453,128,0,66693:0:0:0:0:
64,192,66453,128,0,66573:0:0:0:0:
320,192,66573,128,0,66693:0:0:0:0:
192,192,66693,128,0,66933:0:0:0:0:
64,192,66693,128,0,66813:0:0:0:0:
320,192,66813,128,0,66933:0:0:0:0:
448,192,66933,128,0,67173:0:0:0:0:
64,192,66933,128,0,67053:0:0:0:0:
320,192,67053,128,0,67173:0:0:0:0:
192,192,67173,128,0,67413:0:0:0:0:
64,192,67173,128,0,67293:0:0:0:0:
320,192,67293,128,0,67413:0:0:0:0:
448,192,67413,128,0,67653:0:0:0:0:
64,192,67413,128,0,67533:0:0:0:0:
320,192,67533,128,0,67653:0:0:0:0:
64,192,67653,128,0,67893:0:0:0:0:
192,192,67653,128,0,67773:0:0:0:0:
320,192,67773,128,0,67893:0:0:0:0:
448,192,67893,1,0,0:0:0:0:
192,192,67893,128,0,68013:0:0:0:0:
64,192,68013,1,0,0:0:0:0:
320,192,68013,128,0,68133:0:0:0:0:
192,192,68133,1,0,0:0:0:0:
448,192,68133,1,0,0:0:0:0:
320,192,68253,1,0,0:0:0:0:
64,192,68373,1,0,0:0:0:0:
448,192,68373,1,0,0:0:0:0:
192,192,68493,1,0,0:0:0:0:
320,192,68613,1,0,0:0:0:0:
64,192,68733,1,0,0:0:0:0:
448,192,68853,128,0,69093:0:0:0:0:
192,192,68853,128,0,68973:0:0:0:0:
320,192,68973,128,0,69093:0:0:0:0:
64,192,69093,128,0,69333:0:0:0:0:
192,192,69093,128,0,69213:0:0:0:0:
320,192,69213,128,0,69333:0:0:0:0:
448,192,69333,128,0,69573:0:0:0:0:
192,192,69333,128,0,69453:0:0:0:0:
64,192,69453,128,0,69573:0:0:0:0:
192,192,69573,128,0,69813:0:0:0:0:
320,192,69573,128,0,69693:0:0:0:0:
64,192,69693,128,0,69813:0:0:0:0:
320,192,69813,128,0,70053:0:0:0:0:
448,192,69813,128,0,69933:0:0:0:0:
192,192,69933,128,0,70053:0:0:0:0:
64,192,70053,128,0,70293:0:0:0:0:
448,192,70053,128,0,70173:0:0:0:0:
192,192,70173,128,0,70293:0:0:0:0:
320,192,70293,128,0,70533:0:0:0:0:
448,192,70293,128,0,70413:0:0:0:0:
192,192,70413,128,0,70533:0:0:0:0:
64,192,70533,128,0,70773:0:0:0:0:
448,192,70533,128,0,70653:0:0:0:0:
192,192,70653,128,0,70773:0:0:0:0:
448,192,70773,128,0,70933:0:0:0:0:
320,192,70853,128,0,71013:0:0:0:0:
192,192,70933,128,0,71093:0:0:0:0:
64,192,71013,128,0,71173:0:0:0:0:
448,192,71093,128,0,71253:0:0:0:0:
320,192,71173,128,0,71333:0:0:0:0:
192,192,71253,128,0,71413:0:0:0:0:
64,192,71333,128,0,71493:0:0:0:0:
448,192,71413,128,0,71573:0:0:0:0:
320,192,71493,128,0,71653:0:0:0:0:
192,192,71573,128,0,71733:0:0:0:0:
64,192,71653,128,0,71813:0:0:0:0:
320,192,71733,128,0,71893:0:0:0:0:
448,192,71813,128,0,71973:0:0:0:0:
64,192,71893,128,0,72053:0:0:0:0:
192,192,71973,128,0,72133:0:0:0:0:
320,192,72053,128,0,72213:0:0:0:0:
448,192,72133,128,0,72293:0:0:0:0:
64,192,72133,128,0,72293:0:0:0:0:
192,192,72213,128,0,72373:0:0:0:0:
320,192,72293,128,0,72453:0:0:0:0:
448,192,72373,128,0,72533:0:0:0:0:
64,192,72453,1,0,0:0:0:0:
192,192,72573,1,0,0:0:0:0:
64,192,72693,128,0,72933:0:0:0:0:
320,192,72693,128,0,72813:0:0:0:0:
192,192,72813,128,0,72933:0:0:0:0:
448,192,72933,128,0,73173:0:0:0:0:
320,192,72933,128,0,73053:0:0:0:0:
192,192,73053,128,0,73173:0:0:0:0:
64,192,73173,128,0,73413:0:0:0:0:
320,192,73173,128,0,73293:0:0:0:0:
192,192,73293,128,0,73413:0:0:0:0:
448,192,73413,128,0,73653:0:0:0:0:
320,192,73413,128,0,73533:0:0:0:0:
64,192,73533,128,0,73653:0:0:0:0:
192,192,73653,128,0,73893:0:0:0:0:
320,192,73653,1,0,0:0:0:0:
64,192,73773,128,0,73893:0:0:0:0:
320,192,73893,128,0,74133:0:0:0:0:
448,192,73893,128,0,74013:0:0:0:0:
192,192,74013,128,0,74133:0:0:0:0:
448,192,74133,128,0,74373:0:0:0:0:
64,192,74133,128,0,74253:0:0:0:0:
320,192,74253,128,0,74373:0:0:0:0:
192,192,74373,128,0,74613:0:0:0:0:
64,192,74493,128,0,74613:0:0:0:0:
448,192,74613,128,0,74773:0:0:0:0:
320,192,74693,128,0,74853:0:0:0:0:
64,192,74773,128,0,74933:0:0:0:0:
192,192,74853,128,0,75013:0:0:0:0:
448,192,74933,128,0,75093:0:0:0:0:
320,192,75013,128,0,75173:0:0:0:0:
64,192,75093,128,0,75253:0:0:0:0:
192,192,75173,128,0,75333:0:0:0:0:
448,192,75253,128,0,75413:0:0:0:0:
320,192,75333,128,0,75493:0:0:0:0:
64,192,75413,128,0,75573:0:0:0:0:
192,192,75493,128,0,75653:0:0:0:0:
448,192,75573,1,0,0:0:0:0:
320,192,75693,1,0,0:0:0:0:
64,192,75813,1,0,0:0:0:0:
192,192,75933,1,0,0:0:0:0:
448,192,75933,1,0,0:0:0:0:
320,192,76053,1,0,0:0:0:0:
64,192,76173,1,0,0:0:0:0:
320,192,76293,1,0,0:0:0:0:
448,192,76293,1,0,0:0:0:0:
192,192,76413,1,0,0:0:0:0:
320,192,76533,128,0,76773:0:0:0:0:
448,192,76533,128,0,76653:0:0:0:0:
192,192,76653,128,0,76773:0:0:0:0:
64,192,76773,128,0,77013:0:0:0:0:
448,192,76773,128,0,76893:0:0:0:0:
320,192,77013,128,0,77253:0:0:0:0:
448,192,77013,128,0,77133:0:0:0:0:
192,192,77013,1,0,0:0:0:0:
64,192,77253,128,0,77733:0:0:0:0:
448,192,77253,128,0,77613:0:0:0:0:
192,192,77253,128,0,77493:0:0:0:0:
192,192,77733,1,0,0:0:0:0:
320,192,77733,1,0,0:0:0:0:
64,192,77853,1,0,0:0:0:0:
448,192,77853,1,0,0:0:0:0:
192,192,77973,1,0,0:0:0:0:
320,192,77973,1,0,0:0:0:0:
64,192,78213,128,0,78373:0:0:0:0:
192,192,78293,128,0,78453:0:0:0:0:
320,192,78373,128,0,78533:0:0:0:0:
448,192,78453,128,0,78613:0:0:0:0:
64,192,78533,128,0,78693:0:0:0:0:
192,192,78613,128,0,78773:0:0:0:0:
320,192,78693,128,0,78853:0:0:0:0:
448,192,78773,128,0,78933:0:0:0:0:
64,192,78853,128,0,79013:0:0:0:0:
192,192,78933,128,0,79093:0:0:0:0:
320,192,79013,128,0,79173:0:0:0:0:
448,192,79093,128,0,79253:0:0:0:0:
64,192,79173,128,0,79333:0:0:0:0:
192,192,79253,128,0,79413:0:0:0:0:
320,192,79333,128,0,79493:0:0:0:0:
448,192,79413,128,0,79573:0:0:0:0:
64,192,79533,1,0,0:0:0:0:
192,192,79653,1,0,0:0:0:0:
320,192,79653,1,0,0:0:0:0:
64,192,79773,1,0,0:0:0:0:
192,192,79893,1,0,0:0:0:0:
320,192,79893,1,0,0:0:0:0:
64,192,80013,1,0,0:0:0:0:
448,192,80013,1,0,0:0:0:0:
192,192,80133,1,0,0:0:0:0:
320,192,80133,1,0,0:0:0:0:
64,192,80253,1,0,0:0:0:0:
448,192,80253,1,0,0:0:0:0:
448,192,80373,1,0,0:0:0:0:
64,192,80373,1,0,0:0:0:0:
192,192,80373,128,0,80853:0:0:0:0:
320,192,80373,128,0,80493:0:0:0:0:
64,192,80613,128,0,80733:0:0:0:0:
448,192,80613,128,0,80733:0:0:0:0:
320,192,80853,128,0,81093:0:0:0:0:
64,192,80853,128,0,80973:0:0:0:0:
448,192,80853,128,0,80973:0:0:0:0:
448,192,81093,128,0,81213:0:0:0:0:
64,192,81093,128,0,81213:0:0:0:0:
192,192,81093,128,0,81573:0:0:0:0:
320,192,81333,1,0,0:0:0:0:
448,192,81333,1,0,0:0:0:0:
64,192,81453,1,0,0:0:0:0:
320,192,81453,1,0,0:0:0:0:
320,192,81573,128,0,82053:0:0:0:0:
448,192,81573,128,0,81693:0:0:0:0:
192,192,81693,128,0,81813:0:0:0:0:
64,192,81813,128,0,81933:0:0:0:0:
448,192,81813,128,0,81933:0:0:0:0:
448,192,82053,128,0,82173:0:0:0:0:
64,192,82053,128,0,82173:0:0:0:0:
192,192,82053,128,0,82533:0:0:0:0:
320,192,82293,1,0,0:0:0:0:
448,192,82293,1,0,0:0:0:0:
448,192,82533,128,0,83013:0:0:0:0:
320,192,82533,128,0,82893:0:0:0:0:
64,192,82533,128,0,82773:0:0:0:0:
192,192,83013,128,0,83493:0:0:0:0:
64,192,83013,128,0,83373:0:0:0:0:
320,192,83013,128,0,83253:0:0:0:0:
448,192,83493,128,0,83733:0:0:0:0:
320,192,83733,128,0,83973:0:0:0:0:
192,192,83973,128,0,84213:0:0:0:0:
448,192,84213,128,0,84933:0:0:0:0:
320,192,84213,128,0,84333:0:0:0:0:
64,192,84333,1,0,0:0:0:0:
192,192,84453,128,0,84573:0:0:0:0:
64,192,84573,1,0,0:0:0:0:
320,192,84693,128,0,84813:0:0:0:0:
192,192,84813,1,0,0:0:0:0:
320,192,84933,128,0,85173:0:0:0:0:
64,192,84933,128,0,85053:0:0:0:0:
448,192,85053,128,0,85173:0:0:0:0:
64,192,85173,128,0,85293:0:0:0:0:
192,192,85173,128,0,88173:0:0:0:0:
320,192,85293,1,0,0:0:0:0:
448,192,85413,128,0,85533:0:0:0:0:
320,192,85533,1,0,0:0:0:0:
64,192,85653,128,0,85773:0:0:0:0:
320,192,85773,1,0,0:0:0:0:
448,192,85893,128,0,86013:0:0:0:0:
320,192,86013,1,0,0:0:0:0:
64,192,86133,128,0,86253:0:0:0:0:
448,192,86253,1,0,0:0:0:0:
320,192,86373,128,0,86493:0:0:0:0:
448,192,86493,1,0,0:0:0:0:
64,192,86613,128,0,86733:0:0:0:0:
320,192,86733,1,0,0:0:0:0:
448,192,86853,128,0,86973:0:0:0:0:
320,192,86973,1,0,0:0:0:0:
64,192,87093,128,0,87333:0:0:0:0:
320,192,87213,128,0,87453:0:0:0:0:
448,192,87333,128,0,87573:0:0:0:0:
64,192,87453,128,0,87693:0:0:0:0:
320,192,87573,128,0,87813:0:0:0:0:
448,192,87813,128,0,88173:0:0:0:0:
64,192,87933,128,0,88173:0:0:0:0:
320,192,88053,128,0,88173:0:0:0:0:
