osu file format v14

[General]
AudioFilename: audio.ogg
AudioLeadIn: 0
PreviewTime: 68138
Countdown: 0
SampleSet: Soft
StackLeniency: 0.7
Mode: 2
LetterboxInBreaks: 0
WidescreenStoryboard: 1

[Editor]
DistanceSpacing: 1.4
BeatDivisor: 4
GridSize: 4
TimelineZoom: 1.7

[Metadata]
Title:Yamato Nadeshiko Hanakotoba (Short Ver.)
TitleUnicode:ヤマトナデシコ花言葉 (Short Ver.)
Artist:Tamiyasu Tomoe
ArtistUnicode:民安ともえ
Creator:Kukkai
Version:Rew's Overdose
Source:ナデレボ!
Tags:bigh bighzonda -luminate rew0825 Naderevo! jitaku studio j-studio eroge visual novel opening short version Naderebo! revolution video game japanese
BeatmapID:3834555
BeatmapSetID:1864493

[Difficulty]
HPDrainRate:6
CircleSize:3.8
OverallDifficulty:9.3
ApproachRate:9.3
SliderMultiplier:2.84
SliderTickRate:2

[Events]
//Background and Video events
0,0,"bgbgbgbgbgb.jpg",0,0
//Break Periods
//Storyboard Layer 0 (Background)
//Storyboard Layer 1 (Fail)
//Storyboard Layer 2 (Pass)
//Storyboard Layer 3 (Foreground)
//Storyboard Layer 4 (Overlay)
//Storyboard Sound Samples

[TimingPoints]
1250,444.444444444444,4,2,1,30,1,0
15468,444.444444444444,4,2,1,30,1,0
15468,-100,4,2,1,70,0,0
15940,444.444444444444,4,2,1,40,1,0
15940,-100,4,2,1,40,0,0
17249,444.444444444444,4,2,1,30,1,0
17249,-100,4,2,1,70,0,0
17717,444.444444444444,4,2,1,40,1,0
17717,-100,4,2,1,40,0,0
19027,444.444444444444,4,2,1,30,1,0
19027,-100,4,2,1,70,0,0
19495,444.444444444444,4,2,1,40,1,0
19495,-100,4,2,1,40,0,0
20811,444.444444444444,4,2,1,35,1,0
20811,-100,4,2,2,35,0,0
22588,-100,4,2,1,80,0,0
28810,-100,4,2,1,85,0,0
29699,-100,4,2,1,80,0,0
40477,-100,4,2,1,60,0,0
52810,-100,4,2,1,70,0,0
54588,-100,4,2,1,55,0,0
59921,-100,4,2,1,60,0,0
61699,-100,4,2,1,80,0,0
67032,-89.2857142857143,4,2,1,80,0,0
68143,-100,4,2,1,68,0,0
68810,-100,4,2,1,95,0,1
83033,-100,4,2,1,80,0,0
83921,-100,4,2,1,85,0,0
84810,-100,4,2,1,80,0,0
85699,-100,4,2,1,85,0,0
86588,-100,4,2,1,80,0,0
93699,-100,4,2,1,90,0,1
93810,-100,4,2,1,90,0,0
93921,-100,4,2,1,60,0,0
94032,-100,4,2,1,63,0,0
94143,-100,4,2,1,66,0,0
94254,-100,4,2,1,69,0,0
94366,-100,4,2,1,72,0,0
94477,-100,4,2,1,75,0,0
94588,-100,4,2,1,77,0,0
94699,-100,4,2,1,79,0,0
94810,-100,4,2,1,81,0,0
94921,-100,4,2,1,83,0,0
95032,-100,4,2,1,85,0,0
95143,-100,4,2,1,88,0,0
95254,-100,4,2,1,90,0,0
97254,-100,4,2,1,65,0,0
97699,-100,4,2,1,80,0,0
103477,-100,4,2,1,85,0,0
104366,-100,4,2,1,80,0,0
115699,-100,4,2,1,30,0,0
117699,-100,4,2,1,20,0,0
119254,-100,4,2,1,10,0,0

[Colours]
Combo1 : 250,190,230
Combo2 : 130,200,230
Combo3 : 255,230,140
Combo4 : 170,245,170

[HitObjects]
256,192,11916,12,0,15027,0:0:0:0:
408,192,15468,5,8,0:1:0:0:
212,192,15690,1,8,0:1:0:0:
284,192,15823,1,0,0:0:0:0:
176,192,15940,1,0,0:0:0:0:
104,192,16050,1,0,0:0:0:0:
108,128,16161,1,0,0:0:0:0:
180,128,16272,1,0,0:0:0:0:
286,128,16384,1,0,0:0:0:0:
214,128,16495,1,0,0:0:0:0:
286,128,16606,1,0,0:0:0:0:
214,128,16717,1,0,0:0:0:0:
320,128,16828,2,0,L|464:128,1,142,0|0,0:0|0:0,0:0:0:0:
108,128,17249,5,8,0:1:0:0:
304,128,17471,1,8,0:1:0:0:
232,128,17604,1,0,0:0:0:0:
340,128,17717,1,0,0:0:0:0:
412,128,17828,1,0,0:0:0:0:
340,128,17939,1,0,0:0:0:0:
412,128,18050,1,0,0:0:0:0:
304,128,18161,1,0,0:0:0:0:
232,128,18272,1,0,0:0:0:0:
304,128,18383,1,0,0:0:0:0:
376,128,18494,1,0,0:0:0:0:
268,128,18605,2,0,L|124:128,1,142,0|0,0:0|0:0,0:0:0:0:
480,128,19027,5,8,0:1:0:0:
284,128,19249,1,8,0:1:0:0:
356,128,19382,1,0,0:0:0:0:
248,128,19495,2,0,L|244:200,1,71,0|0,0:0|0:0,0:0:0:0:
316,200,19716,2,0,L|320:272,1,71,0|0,0:0|0:0,0:0:0:0:
212,272,19938,1,0,0:0:0:0:
140,272,20049,1,0,0:0:0:0:
212,272,20160,1,0,0:0:0:0:
140,272,20271,1,0,0:0:0:0:
248,272,20383,2,0,L|400:272,1,142,0|0,0:0|0:0,0:0:0:0:
176,272,20811,6,0,L|172:128,1,142,8|8,0:1|0:1,0:0:0:0:
332,128,21255,1,8,0:1:0:0:
224,128,21367,2,0,P|180:144|224:200,1,142,8|0,0:1|0:0,0:0:0:0:
332,200,21700,2,0,L|408:200,3,71,8|0|8|8,0:1|0:0|0:1|0:1,0:0:0:0:
296,200,22144,1,8,0:1:0:0:
208,200,22255,1,8,0:1:0:0:
296,200,22367,1,8,0:1:0:0:
208,200,22478,1,8,0:1:0:0:
456,200,22588,6,0,L|460:48,1,142,4|8,0:0|0:1,0:0:0:0:
264,56,23032,2,0,L|260:132,1,71,8|0,0:0|0:0,0:0:0:0:
348,128,23254,2,0,L|352:200,1,71,8|8,0:1|0:0,0:0:0:0:
140,200,23477,2,0,P|68:200|52:140,1,142,8|8,0:0|0:1,0:0:0:0:
248,140,23921,1,8,0:0:0:0:
320,140,24032,1,8,0:0:0:0:
372,96,24143,1,8,0:1:0:0:
52,96,24366,6,0,L|48:240,1,142,8|8,0:0|0:1,0:0:0:0:
244,240,24810,2,0,L|320:240,1,71,8|0,0:0|0:0,0:0:0:0:
224,240,25032,2,0,L|148:240,1,71,8|8,0:1|0:0,0:0:0:0:
368,240,25254,2,0,P|440:240|456:180,1,142,8|8,0:0|0:1,0:0:0:0:
260,180,25699,1,8,0:0:0:0:
348,180,25810,1,8,0:1:0:0:
436,180,25921,1,8,0:0:0:0:
80,180,26143,6,0,L|76:32,1,142,6|8,0:0|0:1,0:0:0:0:
272,36,26588,1,8,0:0:0:0:
360,36,26699,1,0,0:0:0:0:
352,112,26810,1,8,0:1:0:0:
264,112,26921,1,8,0:0:0:0:
52,112,27032,2,0,L|200:112,1,142,0|8,0:0|0:1,0:0:0:0:
388,112,27477,2,0,L|460:112,2,71,8|8|8,0:0|0:0|0:1,0:0:0:0:
32,112,27921,6,0,L|28:256,1,142,4|8,0:0|0:1,0:0:0:0:
223,252,28366,1,8,0:1:0:0:
135,252,28477,1,8,0:1:0:0:
223,252,28588,1,8,0:3:0:0:
135,252,28699,1,8,0:0:0:0:
348,252,28810,2,0,P|420:252|436:192,1,142,4|0,0:3|0:0,0:0:0:0:
152,192,29254,2,0,P|80:192|64:132,1,142,6|0,0:0|0:0,0:0:0:0:
420,136,29699,6,0,L|424:280,1,142,14|8,0:0|0:1,0:0:0:0:
228,280,30143,2,0,L|300:280,1,71,8|8,0:0|0:0,0:0:0:0:
388,280,30366,2,0,L|312:280,1,71,8|0,0:1|0:0,0:0:0:0:
104,280,30588,2,0,P|56:256|104:208,1,142,8|8,0:0|0:1,0:0:0:0:
300,208,31032,1,8,0:0:0:0:
371,208,31143,1,8,0:0:0:0:
424,148,31254,1,8,0:1:0:0:
104,148,31477,6,0,L|100:292,1,142,8|8,0:0|0:1,0:0:0:0:
296,292,31921,1,8,0:0:0:0:
383,292,32032,1,8,0:0:0:0:
376,216,32143,1,8,0:1:0:0:
289,216,32254,1,0,0:0:0:0:
76,216,32366,2,0,P|60:164|128:136,1,142,8|8,0:0|0:1,0:0:0:0:
324,136,32810,1,8,0:0:0:0:
236,136,32921,1,8,0:1:0:0:
148,136,33032,1,8,0:1:0:0:
484,136,33254,6,0,P|468:196|396:196,1,142,12|8,0:0|0:1,0:0:0:0:
204,200,33699,2,0,L|128:200,1,71,8|8,0:3|0:0,0:0:0:0:
380,200,33921,2,0,P|476:148|380:56,1,284,12|8,0:1|0:0,0:0:0:0:
184,56,34588,1,8,0:1:0:0:
272,56,34699,1,8,0:1:0:0:
60,56,34810,6,0,P|24:148|164:152,1,284,4|8,0:0|0:1,0:0:0:0:
252,156,35366,1,8,0:1:0:0:
162,155,35477,1,8,0:0:0:0:
72,156,35588,1,8,0:0:0:0:
320,156,35699,2,0,P|420:228|320:300,1,284,12|8,0:1|0:0,0:0:0:0:
128,300,36366,1,8,0:1:0:0:
216,300,36477,1,8,0:1:0:0:
128,300,36588,2,0,L|124:228,1,71,8|8,0:0|0:0,0:0:0:0:
336,228,36810,6,0,P|432:176|336:84,1,284,8|8,0:1|0:0,0:0:0:0:
140,84,37477,1,8,0:0:0:0:
336,84,37699,1,8,0:0:0:0:
140,84,37921,1,8,0:0:0:0:
336,84,38143,1,8,0:0:0:0:
52,84,38366,1,8,0:1:0:0:
212,192,39921,5,8,0:1:0:0:
124,192,40032,1,8,0:1:0:0:
212,192,40143,1,8,0:1:0:0:
424,192,40254,6,0,P|472:168|424:120,1,142,10|0,0:0|0:0,0:0:0:0:
336,120,40588,2,0,L|332:196,1,71,2|0,0:0|0:0,0:0:0:0:
420,192,40810,1,8,0:0:0:0:
332,192,40921,1,2,0:0:0:0:
48,192,41254,2,0,L|192:192,1,142,10|0,0:0|0:0,0:0:0:0:
280,192,41588,1,2,0:0:0:0:
190,192,41699,2,0,L|44:192,1,142,0|8,0:0|0:0,0:0:0:0:
260,192,42032,6,0,L|408:192,1,142,2|0,0:0|0:0,0:0:0:0:
312,192,42366,2,0,L|308:264,1,71,8|0,0:0|0:0,0:0:0:0:
400,264,42588,2,0,P|472:264|488:204,1,142,2|0,0:0|0:0,0:0:0:0:
276,204,43032,2,0,L|196:204,1,71,2|0,0:0|0:0,0:0:0:0:
296,204,43254,2,0,L|300:132,1,71,8|2,0:0|0:0,0:0:0:0:
212,132,43477,1,0,0:0:0:0:
299,133,43588,1,8,0:0:0:0:
16,132,43810,6,0,P|44:232|140:232,1,213,10|0,0:0|0:0,0:0:0:0:
316,232,44366,2,0,L|320:88,1,142,2|0,0:0|0:0,0:0:0:0:
124,88,44810,2,0,L|272:88,1,142,2|0,0:0|0:0,0:0:0:0:
460,88,45254,1,8,0:1:0:0:
372,88,45366,1,8,0:1:0:0:
460,88,45477,1,8,0:1:0:0:
212,88,45588,6,0,P|140:128|212:196,1,213,12|2,0:0|0:0,0:0:0:0:
388,196,46143,2,0,L|384:272,1,71,2|2,0:0|0:0,0:0:0:0:
172,268,46477,1,2,0:0:0:0:
384,268,47254,1,8,0:1:0:0:
136,268,47366,6,0,P|64:228|136:160,1,213,4|2,0:0|0:0,0:0:0:0:
224,160,47810,1,0,0:0:0:0:
312,160,47921,1,10,0:1:0:0:
224,160,48032,1,2,0:0:0:0:
136,160,48143,1,2,0:0:0:0:
332,160,48366,2,0,P|380:184|332:232,1,142,10|0,0:0|0:0,0:0:0:0:
244,232,48699,1,10,0:1:0:0:
333,232,48810,2,0,L|476:232,1,142,0|8,0:0|0:0,0:0:0:0:
264,232,49143,6,0,L|116:232,1,142,2|0,0:0|0:0,0:0:0:0:
212,232,49477,1,8,0:0:0:0:
408,232,49699,2,0,L|412:88,1,142,10|2,0:1|0:0,0:0:0:0:
236,88,50143,1,0,0:0:0:0:
148,88,50254,2,0,P|100:112|148:160,1,142,2|0,0:0|0:0,0:0:0:0:
236,160,50588,1,8,0:1:0:0:
146,160,50699,1,8,0:0:0:0:
468,160,50921,6,0,L|244:160,1,213,10|0,0:0|0:0,0:0:0:0:
432,160,51477,2,0,L|436:304,1,142,8|0,0:1|0:0,0:0:0:0:
348,304,51810,1,8,0:0:0:0:
260,304,51921,1,10,0:0:0:0:
436,304,52143,1,6,0:0:0:0:
260,304,52366,2,0,L|256:232,1,71,8|8,0:1|0:1,0:0:0:0:
344,232,52588,2,0,L|348:160,1,71,8|8,0:0|0:0,0:0:0:0:
100,160,52810,5,4,0:0:0:0:
276,160,53032,1,10,0:0:0:0:
100,160,53254,1,8,0:1:0:0:
276,160,53477,1,10,0:0:0:0:
80,160,53699,1,8,0:1:0:0:
436,160,54143,2,0,P|432:252|328:252,1,213,2|0,0:0|0:0,0:0:0:0:
116,252,54588,6,0,P|152:132|292:132,1,284,4|8,0:0|0:0,0:0:0:0:
468,132,55254,2,0,L|312:132,1,142,2|8,0:1|0:1,0:0:0:0:
148,132,55699,2,0,L|144:276,1,142,2|8,0:0|0:0,0:0:0:0:
320,276,56143,1,2,0:0:0:0:
124,276,56366,6,0,P|44:208|160:136,1,284,10|0,0:0|0:0,0:0:0:0:
316,136,57032,1,8,0:0:0:0:
140,136,57254,1,8,0:1:0:0:
460,136,57699,2,0,L|464:280,1,142,8|0,0:0|0:0,0:0:0:0:
268,276,58143,6,0,P|128:276|92:156,1,284,10|0,0:0|0:0,0:0:0:0:
268,156,58810,2,0,L|420:156,1,142,8|8,0:0|0:1,0:0:0:0:
232,156,59254,2,0,L|228:300,1,142,2|8,0:0|0:0,0:0:0:0:
408,300,59699,1,2,0:0:0:0:
88,300,59921,5,12,0:0:0:0:
248,300,60143,2,0,L|328:300,2,71,8|8|8,0:0|0:0|0:1,0:0:0:0:
88,300,60588,2,0,L|84:156,1,142,8|10,0:0|0:1,0:0:0:0:
252,156,61032,1,0,0:0:0:0:
84,156,61254,1,8,0:0:0:0:
172,156,61366,1,8,0:0:0:0:
244,156,61477,1,8,0:1:0:0:
172,156,61588,1,8,0:1:0:0:
84,156,61699,1,8,0:0:0:0:
440,158,61921,5,12,0:1:0:0:
260,156,62143,1,0,0:0:0:0:
368,156,62254,1,8,0:1:0:0:
440,156,62366,1,8,0:0:0:0:
476,156,62477,1,8,0:1:0:0:
440,156,62588,1,8,0:0:0:0:
84,160,62810,5,12,0:1:0:0:
264,160,63032,1,8,0:0:0:0:
156,160,63143,1,8,0:1:0:0:
84,160,63255,1,8,0:0:0:0:
48,160,63366,1,8,0:1:0:0:
84,160,63477,1,8,0:0:0:0:
384,160,63699,5,12,0:1:0:0:
206,160,63921,1,8,0:0:0:0:
488,160,64143,1,12,0:1:0:0:
308,160,64366,1,8,0:0:0:0:
24,160,64588,1,12,0:1:0:0:
204,160,64811,1,8,0:0:0:0:
488,160,65032,1,8,0:1:0:0:
204,160,65254,6,0,L|58:150,1,142,6|8,0:1|0:0,0:0:0:0:
247,150,65699,2,0,L|104:139,1,142,8|8,0:1|0:0,0:0:0:0:
289,139,66143,2,0,L|442:126,1,142,8|8,0:0|0:0,0:0:0:0:
230,126,66588,2,0,L|85:116,1,142,8|8,0:1|0:0,0:0:0:0:
376,160,67033,6,0,L|60:110,2,318.080003882813,8|10|10,0:1|0:1|0:1,0:0:0:0:
180,160,68143,1,0,0:0:0:0:
36,160,68366,1,0,0:0:0:0:
180,160,68588,1,0,0:0:0:0:
476,160,68810,6,0,L|480:88,1,71,12|0,0:0|0:0,0:0:0:0:
372,88,69032,2,0,L|288:88,1,71,8|0,0:1|0:0,0:0:0:0:
124,88,69254,2,0,L|120:160,1,71,10|8,0:0|0:0,0:0:0:0:
228,160,69477,1,8,0:1:0:0:
440,160,69588,2,0,P|488:184|440:232,1,142,10|8,0:0|0:0,0:0:0:0:
352,232,69921,1,8,0:1:0:0:
441,232,70032,1,8,0:0:0:0:
264,232,70143,2,0,L|192:232,1,71,8|0,0:0|0:0,0:0:0:0:
300,232,70366,2,0,L|380:232,1,71,8|0,0:1|0:0,0:0:0:0:
156,232,70588,6,0,L|152:160,1,71,10|0,0:0|0:0,0:0:0:0:
260,160,70810,2,0,L|336:160,1,71,8|0,0:1|0:0,0:0:0:0:
152,160,71032,2,0,L|72:160,1,71,10|8,0:0|0:0,0:0:0:0:
188,160,71254,1,8,0:1:0:0:
400,160,71366,2,0,P|448:136|400:88,1,142,10|8,0:0|0:0,0:0:0:0:
296,88,71699,2,0,L|224:88,1,71,8|0,0:1|0:0,0:0:0:0:
48,88,71921,2,0,L|44:160,1,71,8|0,0:0|0:0,0:0:0:0:
152,160,72143,2,0,L|80:160,1,71,8|0,0:1|0:0,0:0:0:0:
328,160,72366,6,0,L|332:232,1,71,12|0,0:0|0:0,0:0:0:0:
440,232,72588,2,0,L|436:304,1,71,8|0,0:1|0:0,0:0:0:0:
256,304,72810,2,0,L|176:304,1,71,10|8,0:0|0:0,0:0:0:0:
292,304,73032,1,8,0:1:0:0:
80,304,73143,2,0,P|32:280|80:232,1,142,10|8,0:0|0:0,0:0:0:0:
184,232,73477,2,0,L|260:232,1,71,8|0,0:1|0:0,0:0:0:0:
432,232,73699,2,0,L|436:160,1,71,10|8,0:0|0:0,0:0:0:0:
328,160,73921,2,0,L|248:160,1,71,8|0,0:1|0:0,0:0:0:0:
44,160,74143,6,0,P|60:100|132:100,1,142,10|8,0:0|0:1,0:0:0:0:
44,100,74477,1,8,0:0:0:0:
256,100,74588,2,0,L|112:100,1,142,10|8,0:0|0:1,0:0:0:0:
364,100,74921,2,0,P|412:124|364:172,1,142,14|8,0:0|0:0,0:0:0:0:
260,172,75254,2,0,L|184:172,1,71,8|8,0:1|0:1,0:0:0:0:
364,172,75477,2,0,L|448:172,1,71,8|8,0:1|0:1,0:0:0:0:
328,172,75699,2,0,L|404:172,1,71,8|8,0:1|0:1,0:0:0:0:
188,172,75921,6,0,L|184:248,1,71,12|0,0:0|0:0,0:0:0:0:
292,244,76143,2,0,L|296:316,1,71,8|0,0:1|0:0,0:0:0:0:
120,316,76366,2,0,L|48:316,1,71,10|8,0:0|0:0,0:0:0:0:
155,316,76588,1,8,0:1:0:0:
332,316,76699,2,0,P|404:316|420:256,1,142,10|8,0:0|0:0,0:0:0:0:
316,256,77032,2,0,L|240:256,1,71,8|0,0:1|0:0,0:0:0:0:
68,256,77254,2,0,L|64:184,1,71,8|0,0:0|0:0,0:0:0:0:
172,184,77477,2,0,L|252:184,1,71,8|0,0:1|0:0,0:0:0:0:
456,184,77699,6,0,L|380:184,1,71,8|0,0:0|0:0,0:0:0:0:
280,184,77921,2,0,L|352:184,1,71,8|0,0:1|0:0,0:0:0:0:
172,184,78143,2,0,L|168:112,1,71,10|8,0:0|0:0,0:0:0:0:
276,112,78366,1,8,0:1:0:0:
64,112,78477,2,0,P|80:172|152:172,1,142,10|8,0:0|0:0,0:0:0:0:
256,172,78810,2,0,L|260:244,1,71,8|0,0:1|0:0,0:0:0:0:
84,244,79032,2,0,L|80:168,1,71,8|0,0:0|0:0,0:0:0:0:
188,172,79254,2,0,L|104:172,1,71,8|0,0:1|0:0,0:0:0:0:
364,172,79477,6,0,L|368:100,1,71,12|0,0:0|0:0,0:0:0:0:
476,100,79699,2,0,L|472:24,1,71,8|8,0:1|0:0,0:0:0:0:
296,28,79921,2,0,L|220:28,1,71,8|0,0:0|0:0,0:0:0:0:
436,28,80143,1,10,0:1:0:0:
348,28,80254,2,0,L|496:28,1,142,0|8,0:0|0:0,0:0:0:0:
276,28,80588,2,0,L|200:28,1,71,8|0,0:1|0:0,0:0:0:0:
311,28,80810,2,0,L|392:28,1,71,8|8,0:0|0:0,0:0:0:0:
204,28,81032,2,0,L|200:104,1,71,8|8,0:1|0:0,0:0:0:0:
448,100,81254,5,6,0:0:0:0:
288,100,81477,1,8,0:1:0:0:
112,100,81699,1,8,0:0:0:0:
200,100,81810,1,8,0:0:0:0:
448,100,81921,2,0,L|452:248,1,142,14|0,0:1|0:0,0:0:0:0:
168,240,82366,1,8,0:1:0:0:
364,240,82588,1,8,0:1:0:0:
44,240,82810,1,8,0:1:0:0:
132,240,82921,1,8,0:1:0:0:
344,240,83032,5,14,0:0:0:0:
168,240,83254,2,0,L|172:96,1,142,8|8,0:0|0:1,0:0:0:0:
348,100,83699,1,10,0:0:0:0:
152,100,83921,2,0,P|80:100|64:160,1,142,8|0,0:0|0:0,0:0:0:0:
416,160,84366,1,12,0:1:0:0:
132,160,84810,5,10,0:0:0:0:
308,160,85032,1,8,0:0:0:0:
132,160,85254,2,0,L|128:304,1,142,8|10,0:1|0:0,0:0:0:0:
324,304,85699,2,0,P|396:304|412:244,1,142,8|0,0:0|0:0,0:0:0:0:
72,244,86143,1,12,0:1:0:0:
412,244,86588,5,14,0:0:0:0:
114,244,86810,1,12,0:0:0:0:
412,244,87032,1,12,0:0:0:0:
236,244,87254,1,12,0:0:0:0:
432,244,87477,2,0,L|436:100,1,142,8|8,0:1|0:0,0:0:0:0:
256,100,87921,1,8,0:1:0:0:
436,100,88143,1,8,0:0:0:0:
80,100,88366,5,14,0:1:0:0:
256,100,88588,1,8,0:3:0:0:
236,160,88662,1,8,0:0:0:0:
184,192,88736,1,8,0:0:0:0:
124,192,88810,1,8,0:1:0:0:
408,192,89032,2,0,L|124:192,1,284,6|0,0:0|0:0,0:0:0:0:
300,192,89699,1,8,0:1:0:0:
212,192,89810,1,8,0:1:0:0:
124,192,89921,1,8,0:3:0:0:
444,192,90143,6,0,L|448:44,1,142,4|8,0:0|0:1,0:0:0:0:
272,48,90588,2,0,L|192:48,1,71,8|0,0:0|0:0,0:0:0:0:
308,48,90810,2,0,L|392:48,1,71,8|0,0:1|0:0,0:0:0:0:
200,48,91032,2,0,L|196:120,1,71,8|0,0:0|0:0,0:0:0:0:
304,120,91254,2,0,L|308:192,1,71,8|0,0:1|0:0,0:0:0:0:
416,192,91477,2,0,L|412:264,1,71,8|8,0:0|0:0,0:0:0:0:
304,264,91699,2,0,L|224:264,1,71,8|0,0:1|0:0,0:0:0:0:
56,264,91921,6,0,L|52:192,1,71,8|0,0:0|0:0,0:0:0:0:
160,192,92143,2,0,L|240:192,1,71,8|0,0:1|0:0,0:0:0:0:
336,192,92366,2,0,L|340:120,1,71,8|0,0:0|0:0,0:0:0:0:
232,120,92588,2,0,L|156:120,1,71,8|0,0:1|0:0,0:0:0:0:
340,120,92810,2,0,L|344:48,1,71,8|0,0:0|0:0,0:0:0:0:
236,48,93032,2,0,L|232:120,1,71,8|0,0:1|0:0,0:0:0:0:
124,120,93254,2,0,L|128:192,1,71,8|8,0:0|0:0,0:0:0:0:
236,192,93477,2,0,L|316:192,1,71,8|0,0:1|0:0,0:0:0:0:
56,192,93699,6,0,P|72:252|144:252,1,142,12|8,0:0|0:0,0:0:0:0:
232,252,94032,1,8,0:0:0:0:
142,253,94143,1,0,0:0:0:0:
53,252,94254,1,0,0:0:0:0:
142,253,94366,1,0,0:0:0:0:
53,252,94477,1,0,0:0:0:0:
152,252,94588,2,0,L|156:180,1,71,0|0,0:0|0:0,0:0:0:0:
60,180,94810,1,0,0:0:0:0:
155,181,94921,1,0,0:0:0:0:
252,180,95032,1,0,0:0:0:0:
155,181,95143,1,0,0:0:0:0:
404,180,95254,1,12,0:1:0:0:
252,180,97254,5,2,0:0:0:0:
76,180,97477,1,2,0:0:0:0:
396,180,97699,6,0,L|400:108,1,71,12|0,0:0|0:0,0:0:0:0:
312,108,97921,2,0,L|232:108,1,71,8|8,0:1|0:0,0:0:0:0:
64,108,98143,2,0,L|60:256,1,142,10|8,0:0|0:1,0:0:0:0:
236,252,98588,1,8,0:0:0:0:
164,252,98699,1,8,0:0:0:0:
112,208,98810,1,8,0:1:0:0:
432,208,99032,6,0,L|436:60,1,142,10|8,0:0|0:1,0:0:0:0:
260,64,99477,2,0,L|184:64,1,71,10|0,0:0|0:0,0:0:0:0:
100,64,99699,2,0,L|184:64,1,71,8|8,0:1|0:0,0:0:0:0:
348,64,99921,2,0,P|396:88|348:136,1,142,10|8,0:0|0:1,0:0:0:0:
172,136,100366,1,10,0:0:0:0:
83,136,100477,1,8,0:1:0:0:
172,136,100588,1,8,0:2:0:0:
492,136,100810,6,0,L|344:136,1,142,12|8,0:0|0:1,0:0:0:0:
172,136,101254,2,0,L|256:136,1,71,10|0,0:0|0:0,0:0:0:0:
332,136,101477,2,0,L|336:208,1,71,8|0,0:1|0:0,0:0:0:0:
160,208,101699,2,0,P|84:212|80:268,1,142,10|8,0:0|0:1,0:0:0:0:
264,264,102143,2,0,L|336:264,1,71,8|8,0:0|0:0,0:0:0:0:
388,208,102366,1,8,0:1:0:0:
36,208,102588,6,0,L|192:208,1,142,14|0,0:0|0:0,0:0:0:0:
356,208,103032,1,10,0:1:0:0:
268,208,103143,1,8,0:1:0:0:
356,208,103254,1,8,0:0:0:0:
444,208,103365,1,8,0:0:0:0:
232,208,103477,2,0,L|76:208,1,142,10|0,0:1|0:0,0:0:0:0:
444,208,103921,2,0,L|448:60,1,142,12|0,0:1|0:0,0:0:0:0:
128,64,104366,6,0,L|284:64,1,142,12|8,0:0|0:1,0:0:0:0:
92,64,104810,2,0,L|88:136,1,71,10|8,0:0|0:0,0:0:0:0:
176,132,105032,2,0,L|260:132,1,71,8|0,0:1|0:0,0:0:0:0:
424,132,105254,2,0,L|428:276,1,142,10|8,0:0|0:1,0:0:0:0:
252,276,105699,1,8,0:0:0:0:
324,276,105810,1,8,0:0:0:0:
376,232,105921,1,8,0:1:0:0:
56,232,106143,6,0,L|52:88,1,142,10|8,0:0|0:1,0:0:0:0:
232,88,106588,2,0,L|308:88,1,71,10|8,0:0|0:0,0:0:0:0:
216,88,106810,2,0,L|144:88,1,71,8|0,0:1|0:0,0:0:0:0:
324,88,107032,2,0,P|392:88|408:152,1,142,10|8,0:0|0:1,0:0:0:0:
232,152,107477,1,10,0:0:0:0:
320,152,107588,1,8,0:0:0:0:
408,152,107699,1,8,0:1:0:0:
52,152,107921,6,0,P|56:208|132:224,1,142,14|8,0:0|0:1,0:0:0:0:
308,200,108366,2,0,L|384:200,1,71,8|0,0:3|0:0,0:0:0:0:
132,200,108588,2,0,P|36:148|132:56,1,284,14|8,0:1|0:0,0:0:0:0:
328,56,109255,1,8,0:1:0:0:
240,56,109366,1,8,0:1:0:0:
452,56,109477,6,0,P|488:148|348:152,1,284,12|8,0:0|0:1,0:0:0:0:
260,156,110033,1,8,0:1:0:0:
350,155,110144,1,8,0:1:0:0:
440,156,110255,1,8,0:1:0:0:
192,156,110366,2,0,P|92:228|192:300,1,284,12|8,0:1|0:2,0:0:0:0:
384,300,111033,1,8,0:1:0:0:
296,300,111144,1,8,0:1:0:0:
384,300,111255,2,0,L|388:228,1,71,8|0,0:2|0:0,0:0:0:0:
176,228,111477,6,0,P|80:176|176:84,1,284,12|0,0:0|0:0,0:0:0:0:
372,84,112143,1,8,0:0:0:0:
176,84,112365,1,8,0:0:0:0:
372,84,112587,1,8,0:0:0:0:
176,84,112811,1,8,0:0:0:0:
460,84,113033,1,12,0:1:0:0:
140,84,113477,5,8,0:1:0:0:
324,84,113699,1,8,0:1:0:0:
140,84,113921,1,8,0:1:0:0:
424,84,114143,1,8,0:1:0:0:
336,84,114254,1,8,0:1:0:0:
424,84,114366,1,8,0:1:0:0:
336,84,114477,1,8,0:1:0:0:
156,84,114588,1,8,0:1:0:0:
244,84,114699,1,8,0:1:0:0:
156,84,114811,1,8,0:1:0:0:
68,84,114922,1,8,0:1:0:0:
496,84,115477,5,6,0:0:0:0:
256,192,115699,12,2,119254,0:0:0:0:
