osu file format v14

[General]
AudioFilename: audio.ogg
AudioLeadIn: 0
PreviewTime: 68138
Countdown: 0
SampleSet: Soft
StackLeniency: 0.7
Mode: 2
LetterboxInBreaks: 0
WidescreenStoryboard: 1

[Editor]
DistanceSpacing: 1.3
BeatDivisor: 4
GridSize: 4
TimelineZoom: 1.7

[Metadata]
Title:Yamato Nadeshiko Hanakotoba (Short Ver.)
TitleUnicode:ヤマトナデシコ花言葉 (Short Ver.)
Artist:Tamiyasu Tomoe
ArtistUnicode:民安ともえ
Creator:Kukkai
Version:Platter
Source:ナデレボ!
Tags:bigh bighzonda -luminate rew0825 Naderevo! jitaku studio j-studio eroge visual novel opening short version Naderebo! revolution video game japanese
BeatmapID:3835372
BeatmapSetID:1864493

[Difficulty]
HPDrainRate:4
CircleSize:3
OverallDifficulty:8
ApproachRate:8
SliderMultiplier:2
SliderTickRate:1

[Events]
//Background and Video events
0,0,"bgbgbgbgbgb.jpg",0,0
//Break Periods
//Storyboard Layer 0 (Background)
//Storyboard Layer 1 (Fail)
//Storyboard Layer 2 (Pass)
//Storyboard Layer 3 (Foreground)
//Storyboard Layer 4 (Overlay)
//Storyboard Sound Samples

[TimingPoints]
1250,444.444444444444,4,2,1,30,1,0
15468,444.444444444444,4,2,1,30,1,0
15468,-100,4,2,1,70,0,0
15940,444.444444444444,4,2,1,40,1,0
15940,-100,4,2,1,40,0,0
17249,444.444444444444,4,2,1,30,1,0
17249,-100,4,2,1,70,0,0
17717,444.444444444444,4,2,1,40,1,0
17717,-100,4,2,1,40,0,0
19027,444.444444444444,4,2,1,30,1,0
19027,-100,4,2,1,70,0,0
19495,444.444444444444,4,2,1,40,1,0
19495,-100,4,2,1,40,0,0
20811,444.444444444444,4,2,1,35,1,0
20811,-100,4,2,2,35,0,0
22588,-90.9090909090909,4,2,1,80,0,0
28810,-90.9090909090909,4,2,1,85,0,0
29699,-90.9090909090909,4,2,1,80,0,0
39921,-100,4,2,1,60,0,0
47477,-100,4,2,1,60,0,0
52810,-100,4,2,1,70,0,0
54588,-100,4,2,1,55,0,0
59921,-90.9090909090909,4,2,1,60,0,0
61699,-90.9090909090909,4,2,1,80,0,0
67032,-90.9090909090909,4,2,1,80,0,0
68143,-90.9090909090909,4,2,1,68,0,0
68810,-90.9090909090909,4,2,1,95,0,1
83033,-90.9090909090909,4,2,1,80,0,0
83921,-90.9090909090909,4,2,1,85,0,0
84810,-90.9090909090909,4,2,1,80,0,0
85699,-90.9090909090909,4,2,1,85,0,0
86588,-90.9090909090909,4,2,1,80,0,0
93699,-90.9090909090909,4,2,1,90,0,1
93810,-90.9090909090909,4,2,1,90,0,0
93921,-90.9090909090909,4,2,1,60,0,0
94032,-90.9090909090909,4,2,1,63,0,0
94143,-90.9090909090909,4,2,1,66,0,0
94254,-90.9090909090909,4,2,1,69,0,0
94366,-90.9090909090909,4,2,1,72,0,0
94477,-90.9090909090909,4,2,1,75,0,0
94588,-90.9090909090909,4,2,1,77,0,0
94699,-90.9090909090909,4,2,1,79,0,0
94810,-90.9090909090909,4,2,1,81,0,0
94921,-90.9090909090909,4,2,1,83,0,0
95032,-90.9090909090909,4,2,1,85,0,0
95143,-90.9090909090909,4,2,1,88,0,0
95254,-90.9090909090909,4,2,1,90,0,0
97254,-90.9090909090909,4,2,1,65,0,0
97699,-90.9090909090909,4,2,1,80,0,0
103477,-90.9090909090909,4,2,1,85,0,0
104366,-90.9090909090909,4,2,1,80,0,0
115699,-90.9090909090909,4,2,1,30,0,0
117699,-90.9090909090909,4,2,1,20,0,0
119254,-90.9090909090909,4,2,1,10,0,0

[Colours]
Combo1 : 250,190,230
Combo2 : 130,200,230
Combo3 : 255,230,140
Combo4 : 170,245,170

[HitObjects]
256,192,11916,12,0,15027,0:0:0:0:
144,264,15468,5,8,0:1:0:0:
344,268,15690,1,8,0:1:0:0:
344,268,15940,1,0,0:0:0:0:
248,168,16161,1,0,0:0:0:0:
344,168,16384,1,0,0:0:0:0:
392,168,16495,1,0,0:0:0:0:
344,168,16606,1,0,0:0:0:0:
248,168,16828,2,0,L|248:44,1,100
428,216,17249,5,8,0:1:0:0:
248,220,17471,1,8,0:1:0:0:
248,220,17717,1,0,0:0:0:0:
348,320,17939,1,0,0:0:0:0:
248,320,18161,1,0,0:0:0:0:
200,320,18272,1,0,0:0:0:0:
148,320,18383,1,0,0:0:0:0:
248,320,18605,2,0,L|376:320,1,100,0|0,0:0|0:0,0:0:0:0:
168,224,19027,5,8,0:1:0:0:
348,316,19249,1,8,0:1:0:0:
348,316,19495,1,0,0:0:0:0:
248,208,19717,1,0,0:0:0:0:
148,208,19939,1,0,0:0:0:0:
148,160,20050,1,0,0:0:0:0:
148,112,20161,1,0,0:0:0:0:
248,104,20384,2,0,L|360:104,1,100,0|0,0:0|0:0,0:0:0:0:
144,364,20811,6,0,L|144:232,1,100,8|8,0:1|0:1,0:0:0:0:
244,264,21255,1,8,0:1:0:0:
296,264,21367,2,0,L|104:264,1,150,8|8,0:1|0:1,0:0:0:0:
148,164,21922,1,8,0:1:0:0:
344,104,22144,2,0,L|420:104,2,50,8|8|8,0:1|0:1|0:1,0:0:0:0:
52,348,22588,6,0,L|52:216,1,110.000003356934,4|8,0:0|0:1,0:0:0:0:
256,184,23032,2,0,L|384:184,1,110.000003356934,8|8,0:0|0:1,0:0:0:0:
312,184,23366,1,8,0:0:0:0:
188,196,23477,2,0,L|188:56,1,110.000003356934,8|8,0:0|0:1,0:0:0:0:
296,92,23921,2,0,L|376:92,2,55.0000016784668,8|8|8,0:0|0:0|0:1,0:0:0:0:
72,344,24366,6,0,L|72:208,1,110.000003356934,8|8,0:0|0:1,0:0:0:0:
182,344,24810,2,0,L|66:344,1,110.000003356934,8|8,0:0|0:1,0:0:0:0:
280,240,25254,2,0,L|280:92,1,110.000003356934,8|8,0:0|0:1,0:0:0:0:
72,344,25699,2,0,L|0:344,2,55.0000016784668,8|8|8,0:0|0:1|0:0,0:0:0:0:
364,352,26143,6,0,L|364:228,1,110.000003356934,6|8,0:0|0:1,0:0:0:0:
152,188,26588,2,0,L|300:188,1,110.000003356934,8|8,0:0|0:1,0:0:0:0:
316,188,26921,1,8,0:0:0:0:
192,364,27032,2,0,L|192:248,1,110.000003356934,0|8,0:0|0:1,0:0:0:0:
300,260,27477,1,8,0:0:0:0:
355,260,27588,1,8,0:0:0:0:
412,260,27699,1,8,0:1:0:0:
120,168,27921,6,0,L|120:52,1,110.000003356934,4|8,0:0|0:1,0:0:0:0:
230,58,28366,1,8,0:1:0:0:
175,58,28477,1,8,0:1:0:0:
120,58,28588,1,8,0:3:0:0:
330,354,28810,2,0,P|382:322|314:266,1,165.000005035401,4|0,0:3|0:0,0:0:0:0:
270,262,29254,2,0,L|142:262,1,110.000003356934,6|0,0:0|0:0,0:0:0:0:
460,216,29699,6,0,L|460:92,1,110.000003356934,14|8,0:0|0:1,0:0:0:0:
252,96,30143,2,0,L|124:96,1,110.000003356934,8|8,0:0|0:1,0:0:0:0:
196,96,30477,1,0,0:0:0:0:
320,96,30588,2,0,L|320:216,1,110.000003356934,8|8,0:0|0:1,0:0:0:0:
208,212,31032,1,8,0:0:0:0:
153,212,31143,1,8,0:0:0:0:
98,212,31254,1,8,0:1:0:0:
304,344,31477,6,0,L|304:216,1,110.000003356934,8|8,0:0|0:1,0:0:0:0:
192,220,31921,2,0,L|192:100,1,110.000003356934,8|8,0:0|0:1,0:0:0:0:
400,100,32366,2,0,L|276:100,1,110.000003356934,8|8,0:0|0:1,0:0:0:0:
400,100,32810,2,0,L|480:100,2,55.0000016784668,8|8|8,0:0|0:1|0:1,0:0:0:0:
112,236,33254,6,0,L|112:116,1,110.000003356934,12|8,0:0|0:1,0:0:0:0:
224,132,33699,1,8,0:3:0:0:
432,308,33921,2,0,L|192:308,1,220.000006713867,12|8,0:1|0:0,0:0:0:0:
324,308,34588,1,8,0:1:0:0:
116,312,34810,6,0,P|60:288|144:192,1,220.000006713867,4|8,0:0|0:1,0:0:0:0:
176,184,35366,1,8,0:1:0:0:
232,184,35477,1,8,0:0:0:0:
436,108,35699,6,0,L|192:112,1,220.000006713867,12|8,0:1|0:0,0:0:0:0:
328,108,36366,2,0,L|404:108,2,55.0000016784668,8|8|8,0:1|0:1|0:0,0:0:0:0:
32,360,36810,6,0,L|32:128,1,220.000006713867,8|8,0:1|0:0,0:0:0:0:
32,28,37477,1,8,0:0:0:0:
244,160,37699,1,8,0:0:0:0:
136,160,37921,1,8,0:0:0:0:
28,160,38143,1,8,0:0:0:0:
320,92,38366,1,8,0:1:0:0:
184,320,39922,6,0,L|108:320,2,50,8|8|8,0:1|0:1|0:1,0:0:0:0:
312,320,40254,6,0,P|352:276|280:204,1,150,10|2,0:0|0:0,0:0:0:0:
208,208,40810,1,8,0:0:0:0:
160,208,40921,2,0,L|320:212,1,150,2|10,0:0|0:0,0:0:0:0:
208,208,41477,1,0,0:0:0:0:
160,208,41588,1,2,0:0:0:0:
112,208,41699,2,0,L|112:92,1,100,0|8,0:0|0:0,0:0:0:0:
240,100,42032,6,0,L|400:100,1,150,2|8,0:0|0:0,0:0:0:0:
288,100,42588,2,0,P|220:168|292:216,1,200,2|2,0:0|0:0,0:0:0:0:
384,268,43254,1,8,0:0:0:0:
436,268,43366,2,0,L|436:144,1,100,2|8,0:0|0:0,0:0:0:0:
224,112,43810,6,0,L|392:112,1,150,10|0,0:0|0:0,0:0:0:0:
272,108,44366,2,0,L|272:224,1,100,2|0,0:0|0:0,0:0:0:0:
172,208,44810,2,0,L|172:96,1,100,2|0,0:0|0:0,0:0:0:0:
372,96,45254,2,0,L|428:96,1,50,8|8,0:1|0:1,0:0:0:0:
128,320,45588,6,0,L|300:320,1,150,12|2,0:0|0:0,0:0:0:0:
376,320,46143,1,2,0:0:0:0:
328,320,46254,1,2,0:0:0:0:
120,200,46477,1,2,0:0:0:0:
120,240,47254,5,8,0:1:0:0:
248,240,47366,2,0,P|288:192|228:128,1,150,4|2,0:0|0:0,0:0:0:0:
192,128,47810,1,0,0:0:0:0:
144,128,47921,2,0,L|144:240,1,100,10|2,0:1|0:0,0:0:0:0:
244,224,48366,1,10,0:0:0:0:
344,224,48588,1,0,0:0:0:0:
344,176,48699,1,10,0:1:0:0:
296,176,48810,2,0,L|180:176,1,100,0|8,0:0|0:0,0:0:0:0:
324,356,49143,6,0,P|368:320|304:256,1,150,2|8,0:0|0:0,0:0:0:0:
224,248,49699,1,10,0:1:0:0:
124,248,49921,1,2,0:0:0:0:
224,248,50143,1,0,0:0:0:0:
272,248,50254,2,0,L|272:108,1,100,2|0,0:0|0:0,0:0:0:0:
220,148,50588,2,0,L|156:148,1,50,8|8,0:1|0:0,0:0:0:0:
380,360,50921,6,0,P|416:324|360:240,1,150,10|0,0:0|0:0,0:0:0:0:
280,240,51477,2,0,L|280:124,1,100,8|0,0:1|0:0,0:0:0:0:
328,144,51810,1,8,0:0:0:0:
376,144,51921,1,10,0:0:0:0:
276,88,52143,1,6,0:0:0:0:
376,144,52366,2,0,L|436:144,2,50,8|8|8,0:1|0:1|0:0,0:0:0:0:
76,360,52810,6,0,L|76:220,1,100,4|10,0:0|0:0,0:0:0:0:
264,192,53254,2,0,L|144:192,1,100,8|10,0:1|0:0,0:0:0:0:
464,184,53699,1,8,0:1:0:0:
464,184,54143,1,2,0:0:0:0:
72,200,54588,6,0,L|320:200,1,200,4|8,0:0|0:0,0:0:0:0:
372,200,55254,2,0,L|372:76,1,100,2|8,0:1|0:1,0:0:0:0:
272,104,55699,2,0,L|152:104,2,100,2|8|2,0:0|0:0|0:0,0:0:0:0:
472,60,56366,6,0,L|240:60,1,200,10|0,0:0|0:0,0:0:0:0:
372,60,57032,1,8,0:0:0:0:
272,60,57254,2,0,L|56:64,1,200,8|8,0:1|0:0,0:0:0:0:
72,63,57921,1,0,0:0:0:0:
280,348,58143,6,0,P|328:304|260:200,1,200,10|0,0:0|0:0,0:0:0:0:
172,204,58810,2,0,L|172:96,1,100,8|8,0:0|0:1,0:0:0:0:
272,108,59254,1,2,0:0:0:0:
372,112,59477,2,0,L|372:8,1,100,8|2,0:0|0:0,0:0:0:0:
80,352,59922,6,0,L|80:212,1,110.000003356934,12|8,0:0|0:0,0:0:0:0:
190,248,60366,1,8,0:1:0:0:
80,248,60588,2,0,L|216:248,1,110.000003356934,8|10,0:0|0:1,0:0:0:0:
296,248,61032,2,0,L|296:128,1,110.000003356934,0|8,0:0|0:0,0:0:0:0:
240,136,61366,1,8,0:0:0:0:
184,136,61477,1,8,0:1:0:0:
128,136,61588,1,8,0:1:0:0:
184,136,61699,1,8,0:0:0:0:
476,356,61921,6,0,L|476:220,1,110.000003356934,12|0,0:1|0:0,0:0:0:0:
420,248,62254,1,8,0:1:0:0:
364,248,62366,1,8,0:0:0:0:
420,248,62477,1,8,0:1:0:0:
472,248,62588,1,8,0:0:0:0:
272,164,62810,6,0,L|432:164,1,110.000003356934,12|8,0:1|0:0,0:0:0:0:
432,164,63143,1,8,0:1:0:0:
480,164,63254,1,8,0:0:0:0:
432,164,63366,1,8,0:1:0:0:
380,164,63477,1,8,0:0:0:0:
80,360,63699,6,0,L|80:220,1,110.000003356934,12|8,0:1|0:0,0:0:0:0:
276,248,64143,2,0,L|276:128,1,110.000003356934,12|8,0:1|0:0,0:0:0:0:
472,136,64588,2,0,L|472:12,1,110.000003356934,12|8,0:1|0:0,0:0:0:0:
360,28,65032,1,8,0:1:0:0:
64,360,65254,6,0,L|64:236,1,110.000003356934,6|8,0:1|0:0,0:0:0:0:
272,240,65699,2,0,L|272:108,1,110.000003356934,8|8,0:1|0:0,0:0:0:0:
156,128,66143,2,0,L|156:12,1,110.000003356934,8|8,0:0|0:0,0:0:0:0:
364,12,66588,2,0,L|476:12,1,110.000003356934,8|8,0:1|0:0,0:0:0:0:
176,336,67032,5,8,0:1:0:0:
320,268,67477,1,10,0:1:0:0:
136,336,67921,1,10,0:1:0:0:
32,336,68143,2,0,L|152:336,1,110.000003356934,0|0,0:0|0:0,0:0:0:0:
32,336,68588,1,0,0:0:0:0:
328,224,68810,6,0,L|456:224,2,110.000003356934,12|8|10,0:0|0:1|0:0,0:0:0:0:
120,228,69477,2,0,L|52:228,2,55.0000016784668,8|10|0,0:1|0:0|0:0,0:0:0:0:
328,212,69921,1,8,0:1:0:0:
272,212,70032,1,8,0:0:0:0:
216,212,70143,1,8,0:0:0:0:
104,212,70366,1,8,0:1:0:0:
312,124,70588,6,0,L|432:124,2,110.000003356934,10|8|10,0:0|0:1|0:0,0:0:0:0:
104,64,71254,1,8,0:1:0:0:
159,64,71365,1,10,0:0:0:0:
214,64,71476,1,0,0:0:0:0:
324,64,71699,1,8,0:1:0:0:
116,360,71921,2,0,L|116:224,1,110.000003356934,8|8,0:0|0:1,0:0:0:0:
416,360,72366,6,0,L|292:360,2,110.000003356934,12|8|10,0:0|0:1|0:0,0:0:0:0:
208,280,73032,2,0,L|136:280,2,55.0000016784668,8|10|0,0:1|0:0|0:0,0:0:0:0:
320,280,73477,1,8,0:1:0:0:
112,236,73699,2,0,L|112:92,1,110.000003356934,10|8,0:0|0:1,0:0:0:0:
408,120,74143,6,0,L|272:120,1,110.000003356934,10|8,0:0|0:1,0:0:0:0:
88,124,74588,2,0,L|88:244,1,110.000003356934,10|8,0:0|0:1,0:0:0:0:
212,240,74921,2,0,P|256:180|188:124,1,165.000005035401,14|8,0:0|0:1,0:0:0:0:
143,124,75366,1,8,0:1:0:0:
88,124,75477,1,8,0:1:0:0:
148,72,75588,1,8,0:1:0:0:
203,72,75699,1,8,0:1:0:0:
496,360,75921,6,0,L|496:216,1,110.000003356934,12|8,0:0|0:1,0:0:0:0:
380,248,76366,1,10,0:0:0:0:
168,176,76588,1,8,0:1:0:0:
113,176,76699,1,10,0:0:0:0:
58,176,76810,1,0,0:0:0:0:
168,176,77032,1,8,0:1:0:0:
372,176,77254,2,0,L|372:56,1,110.000003356934,8|8,0:0|0:1,0:0:0:0:
168,120,77699,6,0,L|40:120,2,110.000003356934,8|8|10,0:0|0:1|0:0,0:0:0:0:
376,336,78366,1,8,0:1:0:0:
321,336,78477,1,10,0:0:0:0:
266,336,78588,1,0,0:0:0:0:
156,336,78810,1,8,0:1:0:0:
360,256,79032,2,0,L|492:256,1,110.000003356934,8|8,0:0|0:1,0:0:0:0:
172,256,79477,6,0,P|116:224|208:120,1,220.000006713867,12|8,0:0|0:0,0:0:0:0:
380,328,80143,2,0,L|380:192,1,110.000003356934,10|0,0:1|0:0,0:0:0:0:
168,224,80588,2,0,L|44:224,2,110.000003356934,8|8|8,0:1|0:0|0:1,0:0:0:0:
460,236,81254,6,0,P|480:148|364:92,1,220.000006713867,6|8,0:0|0:0,0:0:0:0:
184,312,81921,2,0,L|184:192,1,110.000003356934,14|0,0:1|0:0,0:0:0:0:
392,208,82366,2,0,L|268:208,2,110.000003356934,8|8|8,0:1|0:1|0:1,0:0:0:0:
100,348,83032,6,0,L|100:224,1,110.000003356934,14|8,0:0|0:0,0:0:0:0:
212,240,83477,2,0,L|360:240,2,110.000003356934,8|10|8,0:1|0:0|0:0,0:0:0:0:
500,164,84366,1,12,0:1:0:0:
192,240,84810,6,0,L|192:120,1,110.000003356934,10|8,0:0|0:0,0:0:0:0:
300,132,85254,2,0,L|172:132,2,110.000003356934,8|10|8,0:1|0:0|0:0,0:0:0:0:
16,72,86143,1,12,0:1:0:0:
304,132,86588,6,0,L|428:132,1,110.000003356934,14|12,0:0|0:0,0:0:0:0:
208,132,87032,2,0,L|72:132,1,110.000003356934,12|12,0:0|0:0,0:0:0:0:
304,132,87477,2,0,L|304:272,1,110.000003356934,8|8,0:1|0:0,0:0:0:0:
196,244,87921,2,0,L|196:120,1,110.000003356934,8|8,0:1|0:0,0:0:0:0:
492,128,88366,6,0,L|336:128,1,110.000003356934,14|8,0:1|0:3,0:0:0:0:
418,128,88662,1,8,0:0:0:0:
454,128,88736,1,8,0:0:0:0:
492,128,88810,1,8,0:1:0:0:
284,352,89032,6,0,P|212:316|300:244,1,220.000006713867,6|0,0:0|0:0,0:0:0:0:
392,236,89699,1,8,0:1:0:0:
447,236,89810,1,8,0:1:0:0:
448,192,89921,1,8,0:3:0:0:
160,248,90143,5,4,0:0:0:0:
48,252,90366,2,0,L|48:120,1,110.000003356934,8|8,0:1|0:0,0:0:0:0:
156,152,90810,1,8,0:1:0:0:
264,152,91032,2,0,L|264:36,1,110.000003356934,8|8,0:0|0:1,0:0:0:0:
156,152,91477,1,8,0:0:0:0:
452,316,91699,6,0,L|452:160,1,110.000003356934,8|8,0:1|0:0,0:0:0:0:
344,204,92143,2,0,L|216:204,2,110.000003356934,8|8|8,0:1|0:0|0:1,0:0:0:0:
144,224,92810,1,8,0:0:0:0:
34,224,93032,1,8,0:1:0:0:
34,224,93254,1,8,0:0:0:0:
144,224,93476,1,8,0:1:0:0:
440,356,93699,6,0,L|440:244,1,110.000003356934,12|8,0:0|0:0,0:0:0:0:
392,248,94032,1,8,0:0:0:0:
344,248,94143,1,8,0:1:0:0:
392,248,94254,1,8,0:1:0:0:
440,248,94366,1,8,0:1:0:0:
236,188,94588,5,8,0:1:0:0:
188,188,94699,1,8,0:1:0:0:
236,188,94810,1,8,0:1:0:0:
284,188,94921,1,8,0:1:0:0:
340,188,95032,1,8,0:1:0:0:
44,132,95254,1,12,0:1:0:0:
372,224,97254,5,2,0:0:0:0:
372,224,97477,1,2,0:0:0:0:
80,228,97699,6,0,L|80:104,1,110.000003356934,12|8,0:0|0:1,0:0:0:0:
128,120,98032,1,8,0:0:0:0:
252,120,98143,2,0,L|380:120,1,110.000003356934,10|8,0:0|0:1,0:0:0:0:
252,120,98588,1,8,0:0:0:0:
197,120,98699,1,8,0:0:0:0:
142,120,98810,1,8,0:1:0:0:
348,344,99032,6,0,L|348:224,1,110.000003356934,10|8,0:0|0:1,0:0:0:0:
248,236,99477,2,0,L|248:88,1,110.000003356934,10|8,0:0|0:1,0:0:0:0:
456,76,99921,2,0,L|312:76,1,110.000003356934,10|8,0:0|0:1,0:0:0:0:
248,72,100366,1,10,0:0:0:0:
303,72,100477,1,8,0:1:0:0:
358,72,100588,1,8,0:2:0:0:
64,356,100810,6,0,L|64:228,1,110.000003356934,12|8,0:0|0:1,0:0:0:0:
268,176,101254,2,0,L|128:176,1,110.000003356934,10|8,0:0|0:1,0:0:0:0:
104,172,101588,1,0,0:0:0:0:
228,360,101699,2,0,L|228:240,1,110.000003356934,10|8,0:0|0:1,0:0:0:0:
120,244,102143,2,0,L|40:244,2,55.0000016784668,8|8|8,0:0|0:0|0:1,0:0:0:0:
416,240,102588,6,0,L|416:128,1,110.000003356934,14|0,0:0|0:0,0:0:0:0:
308,132,103032,1,10,0:1:0:0:
363,132,103143,1,8,0:1:0:0:
418,132,103254,1,8,0:0:0:0:
212,304,103477,2,0,P|168:264|232:192,1,165.000005035401,10|0,0:1|0:0,0:0:0:0:
276,192,103921,2,0,L|404:192,1,110.000003356934,12|0,0:1|0:0,0:0:0:0:
88,344,104366,6,0,L|88:220,1,110.000003356934,12|8,0:0|0:1,0:0:0:0:
296,228,104810,2,0,L|432:228,1,110.000003356934,10|8,0:0|0:1,0:0:0:0:
352,224,105143,1,0,0:0:0:0:
228,228,105254,2,0,L|228:108,1,110.000003356934,10|8,0:0|0:1,0:0:0:0:
340,116,105699,2,0,L|400:116,2,55.0000016784668,8|8|8,0:0|0:0|0:1,0:0:0:0:
136,344,106143,6,0,L|136:224,1,110.000003356934,10|8,0:0|0:1,0:0:0:0:
248,236,106588,2,0,L|372:236,1,110.000003356934,10|8,0:0|0:1,0:0:0:0:
148,144,107032,2,0,L|148:16,1,110.000003356934,10|8,0:0|0:1,0:0:0:0:
260,32,107477,1,10,0:0:0:0:
205,32,107588,1,8,0:0:0:0:
150,32,107699,1,8,0:1:0:0:
444,352,107921,6,0,L|444:212,1,110.000003356934,14|8,0:0|0:1,0:0:0:0:
332,240,108366,1,8,0:3:0:0:
132,264,108588,6,0,P|64:228|144:152,1,220.000006713867,14|8,0:1|0:0,0:0:0:0:
248,156,109254,1,8,0:1:0:0:
456,92,109477,6,0,L|216:92,1,220.000006713867,12|0,0:0|0:0,0:0:0:0:
292,92,110032,1,8,0:1:0:0:
348,92,110143,1,8,0:1:0:0:
140,364,110366,6,0,P|80:336|156:240,1,220.000006713867,12|8,0:1|0:2,0:0:0:0:
256,236,111032,1,8,0:1:0:0:
201,236,111143,1,8,0:1:0:0:
146,236,111254,1,8,0:2:0:0:
440,368,111477,6,0,L|440:144,1,220.000006713867,12|0,0:0|0:0,0:0:0:0:
440,368,112143,1,8,0:0:0:0:
232,184,112366,2,0,L|232:44,1,110.000003356934,8|8,0:0|0:0,0:0:0:0:
340,80,112810,1,8,0:0:0:0:
48,92,113032,5,12,0:1:0:0:
224,352,113477,2,0,L|224:220,1,110.000003356934,8|8,0:1|0:1,0:0:0:0:
116,236,113921,1,8,0:1:0:0:
412,240,114143,5,8,0:1:0:0:
461,220,114254,1,8,0:1:0:0:
482,171,114365,1,8,0:1:0:0:
461,121,114476,1,8,0:1:0:0:
411,102,114587,1,8,0:1:0:0:
356,104,114699,1,8,0:1:0:0:
411,102,114810,1,8,0:1:0:0:
467,102,114921,1,8,0:1:0:0:
88,88,115477,5,6,0:0:0:0:
256,192,115699,12,2,119254,0:0:0:0:
