osu file format v14

[General]
AudioFilename: audio.ogg
AudioLeadIn: 0
PreviewTime: 68138
Countdown: 0
SampleSet: Soft
StackLeniency: 0.7
Mode: 2
LetterboxInBreaks: 0
WidescreenStoryboard: 1

[Editor]
DistanceSpacing: 1.2
BeatDivisor: 4
GridSize: 4
TimelineZoom: 1.7

[Metadata]
Title:Yamato Nadeshiko Hanakotoba (Short Ver.)
TitleUnicode:ヤマトナデシコ花言葉 (Short Ver.)
Artist:Tamiyasu Tomoe
ArtistUnicode:民安ともえ
Creator:Kukkai
Version:Lumi's Overdose
Source:ナデレボ!
Tags:bigh bighzonda -luminate rew0825 Naderevo! jitaku studio j-studio eroge visual novel opening short version Naderebo! revolution video game japanese
BeatmapID:3834552
BeatmapSetID:1864493

[Difficulty]
HPDrainRate:6
CircleSize:4.1
OverallDifficulty:9.5
ApproachRate:9.5
SliderMultiplier:2.9
SliderTickRate:2

[Events]
//Background and Video events
0,0,"bgbgbgbgbgb.jpg",0,0
//Break Periods
//Storyboard Layer 0 (Background)
//Storyboard Layer 1 (Fail)
//Storyboard Layer 2 (Pass)
//Storyboard Layer 3 (Foreground)
//Storyboard Layer 4 (Overlay)
//Storyboard Sound Samples

[TimingPoints]
1250,444.444444444444,4,2,1,30,1,0
15468,444.444444444444,4,2,1,30,1,0
15468,-100,4,2,1,70,0,0
15940,444.444444444444,4,2,1,40,1,0
15940,-100,4,2,1,40,0,0
17249,444.444444444444,4,2,1,30,1,0
17249,-100,4,2,1,70,0,0
17717,444.444444444444,4,2,1,40,1,0
17717,-100,4,2,1,40,0,0
19027,444.444444444444,4,2,1,30,1,0
19027,-100,4,2,1,70,0,0
19495,444.444444444444,4,2,1,40,1,0
19495,-100,4,2,1,40,0,0
20811,444.444444444444,4,2,1,35,1,0
20811,-100,4,2,2,35,0,0
22588,-100,4,2,1,80,0,0
28810,-25,4,2,1,85,0,0
29699,-100,4,2,1,80,0,0
40477,-100,4,2,1,60,0,0
52810,-100,4,2,1,70,0,0
54588,-100,4,2,1,55,0,0
59921,-100,4,2,1,60,0,0
61699,-100,4,2,1,80,0,0
68143,-100,4,2,1,68,0,0
68810,-89.2857142857143,4,2,1,95,0,1
83033,-100,4,2,1,80,0,0
83921,-25,4,2,1,85,0,0
84810,-100,4,2,1,80,0,0
85699,-25,4,2,1,85,0,0
86588,-100,4,2,1,80,0,0
93699,-100,4,2,1,90,0,1
93810,-100,4,2,1,90,0,0
93921,-100,4,2,1,60,0,0
94032,-100,4,2,1,63,0,0
94143,-100,4,2,1,66,0,0
94254,-100,4,2,1,69,0,0
94366,-100,4,2,1,72,0,0
94477,-100,4,2,1,75,0,0
94588,-100,4,2,1,77,0,0
94699,-100,4,2,1,79,0,0
94810,-100,4,2,1,81,0,0
94921,-100,4,2,1,83,0,0
95032,-100,4,2,1,85,0,0
95143,-100,4,2,1,88,0,0
95254,-100,4,2,1,90,0,0
97254,-100,4,2,1,65,0,0
97699,-100,4,2,1,80,0,0
103476,-25,4,2,1,85,0,0
104365,-100,4,2,1,80,0,0
115699,-100,4,2,1,30,0,0
117699,-100,4,2,1,20,0,0
119254,-100,4,2,1,10,0,0

[Colours]
Combo1 : 250,190,230
Combo2 : 130,200,230
Combo3 : 255,230,140
Combo4 : 170,245,170

[HitObjects]
256,192,11916,12,0,15027,0:0:0:0:
96,208,15468,5,8,0:1:0:0:
440,208,15690,1,8,0:1:0:0:
312,312,15940,2,0,L|304:232,1,72.5,0|0,0:0|0:0,0:0:0:0:
400,224,16162,1,0,0:0:0:0:
328,184,16273,1,0,0:0:0:0:
400,144,16385,1,0,0:0:0:0:
288,128,16496,1,0,0:0:0:0:
400,88,16607,1,0,0:0:0:0:
320,56,16718,1,0,0:0:0:0:
400,24,16829,1,0,0:0:0:0:
176,32,17051,1,0,0:0:0:0:
472,264,17249,5,8,0:1:0:0:
96,248,17472,1,8,0:1:0:0:
248,208,17717,2,0,L|256:128,1,72.5
176,96,17939,1,0,0:0:0:0:
264,72,18050,1,0,0:0:0:0:
352,56,18161,1,0,0:0:0:0:
272,240,18272,1,0,0:0:0:0:
352,296,18383,1,0,0:0:0:0:
264,328,18494,1,0,0:0:0:0:
392,344,18605,2,0,P|432:288|368:232,1,145,0|0,0:0|0:0,0:0:0:0:
88,208,19027,5,8,0:1:0:0:
432,144,19249,1,8,0:1:0:0:
280,256,19495,1,0,0:0:0:0:
360,224,19606,1,0,0:0:0:0:
248,192,19717,1,0,0:0:0:0:
320,136,19828,1,0,0:0:0:0:
240,96,19939,1,0,0:0:0:0:
360,64,20050,1,0,0:0:0:0:
240,288,20161,1,0,0:0:0:0:
336,256,20272,1,0,0:0:0:0:
424,224,20384,1,0,0:0:0:0:
232,208,20606,1,0,0:0:0:0:
464,112,20811,5,8,0:1:0:0:
304,72,21033,1,8,0:1:0:0:
464,232,21255,1,8,0:1:0:0:
376,232,21367,2,0,L|184:232,1,145,8|0,0:1|0:0,0:0:0:0:
320,192,21700,1,8,0:1:0:0:
160,184,21922,1,8,0:1:0:0:
72,144,22033,1,8,0:1:0:0:
176,104,22144,1,8,0:1:0:0:
88,64,22255,1,8,0:1:0:0:
192,32,22367,1,8,0:1:0:0:
96,16,22478,1,8,0:1:0:0:
336,320,22588,6,0,L|496:320,1,145,4|8,0:0|0:1,0:0:0:0:
400,288,22921,1,8,0:0:0:0:
176,208,23032,2,0,L|384:208,1,145,8|8,0:0|0:1,0:0:0:0:
408,208,23366,1,8,0:0:0:0:
168,144,23477,2,0,L|160:48,1,72.5,8|0,0:0|0:0,0:0:0:0:
256,88,23699,2,0,L|264:0,1,72.5,8|0,0:1|0:0,0:0:0:0:
160,264,23921,2,8,L|256:264,1,72.5,8|8,0:0|0:0,0:0:0:0:
128,176,24143,2,0,L|40:176,1,72.5,8|0,0:1|0:0,0:0:0:0:
352,112,24366,6,0,L|144:112,1,145,8|8,0:0|0:1,0:0:0:0:
288,80,24699,1,8,0:0:0:0:
120,280,24810,2,0,L|280:280,1,145,8|8,0:0|0:1,0:0:0:0:
184,240,25143,1,8,0:0:0:0:
360,240,25254,2,0,L|368:152,1,72.5,8|0,0:0|0:0,0:0:0:0:
240,136,25477,1,8,0:1:0:0:
328,104,25588,1,0,0:0:0:0:
232,64,25699,1,8,0:0:0:0:
328,32,25810,1,8,0:1:0:0:
152,336,25921,2,8,L|56:336,1,72.5,8|8,0:0|0:0,0:0:0:0:
352,288,26143,6,0,L|360:176,1,72.5,6|0,0:0|0:0,0:0:0:0:
472,160,26366,2,0,L|376:160,1,72.5,8|0,0:1|0:0,0:0:0:0:
200,280,26588,2,0,L|367:286,1,145,8|8,0:0|0:1,0:0:0:0:
280,224,26921,1,8,0:0:0:0:
104,168,27032,2,0,L|88:72,1,72.5,0|8,0:0|0:0,0:0:0:0:
192,64,27254,2,0,L|112:64,1,72.5,8|0,0:1|0:0,0:0:0:0:
16,96,27477,1,8,0:0:0:0:
104,144,27588,1,8,0:0:0:0:
312,240,27699,2,0,L|416:240,1,72.5,8|0,0:1|0:0,0:0:0:0:
176,336,27921,6,0,L|48:336,1,72.5,4|0,0:0|0:0,0:0:0:0:
280,176,28143,2,0,L|400:176,1,72.5,8|0,0:1|0:0,0:0:0:0:
104,136,28366,1,8,0:1:0:0:
352,120,28477,1,8,0:1:0:0:
184,72,28588,1,8,0:3:0:0:
280,32,28699,1,8,0:0:0:0:
72,352,28811,6,0,B|16:256|104:112|104:112|48:-16|48:32|48:152|56:296|56:296|216:224|352:376|472:296|472:296|488:208|448:0,1,1160,4|6,0:3|0:0,0:0:0:0:
140,24,29700,6,0,L|136:108,1,72.5,14|0,0:0|0:0,0:0:0:0:
212,96,29921,2,0,L|104:112,1,72.5,8|0,0:1|0:0,0:0:0:0:
312,344,30143,2,0,L|320:232,1,72.5,8|8,0:0|0:0,0:0:0:0:
216,232,30366,2,0,L|344:232,1,72.5,8|0,0:1|0:0,0:0:0:0:
480,160,30588,2,0,L|464:88,1,72.5,8|0,0:0|0:0,0:0:0:0:
352,128,30810,2,0,L|336:24,1,72.5,8|0,0:1|0:0,0:0:0:0:
168,232,31032,2,0,L|296:232,1,72.5,8|8,0:0|0:0,0:0:0:0:
144,344,31254,2,0,L|136:232,1,72.5,8|0,0:1|0:0,0:0:0:0:
376,272,31477,6,0,L|464:272,1,72.5,8|0,0:0|0:0,0:0:0:0:
352,192,31699,2,0,L|464:192,1,72.5,8|0,0:1|0:0,0:0:0:0:
200,144,31921,2,0,L|72:144,1,72.5,8|8,0:0|0:0,0:0:0:0:
216,56,32143,2,0,L|128:56,1,72.5,8|0,0:1|0:0,0:0:0:0:
336,336,32366,2,0,L|352:224,1,72.5,8|0,0:0|0:0,0:0:0:0:
456,256,32588,2,0,L|472:160,1,72.5,8|0,0:1|0:0,0:0:0:0:
160,176,32810,1,8,0:0:0:0:
328,104,32921,1,8,0:1:0:0:
160,296,33032,2,0,L|48:296,1,72.5,8|0,0:1|0:0,0:0:0:0:
336,320,33254,6,0,L|496:320,1,145,12|8,0:0|0:1,0:0:0:0:
312,240,33699,1,8,0:3:0:0:
408,208,33810,1,8,0:0:0:0:
184,224,33921,2,0,P|152:136|312:72,1,290,12|8,0:1|0:0,0:0:0:0:
128,328,34588,1,8,0:1:0:0:
232,304,34699,1,8,0:1:0:0:
16,232,34810,6,4,L|304:224,1,217.5,4|0,0:0|0:0,0:0:0:0:
328,192,35254,1,8,0:1:0:0:
232,152,35366,1,8,0:1:0:0:
464,96,35477,1,8,0:0:0:0:
376,56,35588,1,8,0:0:0:0:
136,80,35699,2,0,L|448:80,1,290,12|8,0:1|0:0,0:0:0:0:
224,208,36366,1,8,0:1:0:0:
424,264,36477,1,8,0:1:0:0:
224,304,36588,1,8,0:0:0:0:
312,320,36699,1,8,0:0:0:0:
80,280,36810,6,0,P|48:200|112:176,1,145,8|0,0:1|0:0,0:0:0:0:
256,136,37254,1,8,0:0:0:0:
72,80,37477,1,8,0:0:0:0:
296,240,37699,1,8,0:0:0:0:
56,320,37921,1,8,0:0:0:0:
456,288,38143,1,8,0:0:0:0:
48,184,38366,1,8,0:1:0:0:
144,264,39921,5,8,0:1:0:0:
248,208,40032,1,8,0:1:0:0:
144,168,40143,1,8,0:1:0:0:
368,272,40254,6,0,P|472:208|472:152,1,145,10|0,0:0|0:0,0:0:0:0:
368,192,40588,1,2,0:0:0:0:
200,168,40810,1,8,0:0:0:0:
304,160,40921,2,0,P|344:96|272:56,1,145,2|0,0:0|0:0,0:0:0:0:
192,40,41254,2,0,L|392:40,1,145,10|0,0:0|0:0,0:0:0:0:
256,96,41588,1,2,0:0:0:0:
440,240,41921,1,8,0:0:0:0:
192,248,42032,6,0,P|88:192|80:128,1,145,2|0,0:0|0:0,0:0:0:0:
192,152,42366,1,8,0:0:0:0:
56,80,42588,2,0,L|288:80,1,217.5,2|0,0:0|0:0,0:0:0:0:
160,312,43032,2,0,P|120:256|184:192,1,145,2|8,0:0|0:0,0:0:0:0:
248,200,43366,1,2,0:0:0:0:
72,168,43588,2,0,L|168:168,1,72.5,8|0,0:0|0:0,0:0:0:0:
400,312,43810,6,0,L|176:312,1,217.5,10|0,0:0|0:0,0:0:0:0:
400,232,44366,2,0,L|408:72,1,145,2|0,0:0|0:0,0:0:0:0:
192,96,44810,2,0,L|400:96,1,145,2|0,0:0|0:0,0:0:0:0:
136,264,45254,1,8,0:1:0:0:
224,208,45366,1,8,0:1:0:0:
128,160,45477,1,8,0:1:0:0:
392,168,45588,6,10,P|424:128|360:56,1,145,12|10,0:0|0:0,0:0:0:0:
248,56,45921,1,2,0:0:0:0:
408,240,46143,1,2,0:0:0:0:
320,216,46254,2,0,L|312:120,1,72.5,2|0,0:0|0:0,0:0:0:0:
464,144,46477,1,2,0:0:0:0:
120,280,47254,5,8,0:1:0:0:
336,224,47366,2,0,L|184:224,1,145,4|0,0:0|0:0,0:0:0:0:
88,208,47699,1,2,0:0:0:0:
184,160,47810,1,0,0:0:0:0:
88,136,47921,1,10,0:1:0:0:
184,80,48032,1,2,0:0:0:0:
88,64,48143,1,2,0:0:0:0:
320,320,48366,2,0,P|352:248|288:192,1,145,10|0,0:0|0:0,0:0:0:0:
208,168,48699,2,0,L|400:168,1,145,10|0,0:1|0:0,0:0:0:0:
440,168,49032,1,8,0:0:0:0:
216,320,49143,6,0,P|80:248|64:168,1,217.5,2|8,0:0|0:0,0:0:0:0:
240,96,49699,1,10,0:1:0:0:
56,72,49921,1,2,0:0:0:0:
272,240,50143,1,0,0:0:0:0:
184,192,50254,2,0,L|352:192,1,145,2|0,0:0|0:0,0:0:0:0:
248,128,50588,1,8,0:1:0:0:
416,288,50699,2,0,L|296:288,1,72.5,8|0,0:0|0:0,0:0:0:0:
80,160,50921,6,0,L|304:160,1,217.5,10|0,0:0|0:0,0:0:0:0:
88,336,51477,2,0,L|80:176,1,145,8|0,0:1|0:0,0:0:0:0:
184,176,51810,1,8,0:0:0:0:
280,168,51921,1,10,0:0:0:0:
72,128,52143,1,6,0:0:0:0:
376,320,52366,1,8,0:1:0:0:
456,280,52477,1,8,0:1:0:0:
456,192,52588,1,8,0:0:0:0:
376,160,52699,1,8,0:0:0:0:
96,176,52810,5,4,0:0:0:0:
432,104,53032,1,10,0:0:0:0:
88,80,53254,1,8,0:1:0:0:
440,264,53477,1,10,0:0:0:0:
88,296,53699,1,8,0:1:0:0:
320,336,54143,2,0,P|376:264|288:208,1,217.5,2|0,0:0|0:0,0:0:0:0:
88,208,54588,6,0,P|32:128|168:32,1,290,4|8,0:0|0:0,0:0:0:0:
336,200,55254,2,0,L|176:200,1,145,2|8,0:1|0:1,0:0:0:0:
400,320,55699,2,8,L|416:136,1,145,2|8,0:0|0:0,0:0:0:0:
232,168,56143,1,2,0:0:0:0:
440,128,56366,6,0,P|408:56|216:8,1,290,10|0,0:0|0:0,0:0:0:0:
328,160,57032,1,8,0:0:0:0:
128,160,57254,1,8,0:1:0:0:
352,336,57699,2,0,P|392:272|312:232,1,145,8|0,0:0|0:0,0:0:0:0:
136,200,58143,6,0,P|216:88|376:80,1,290,10|0,0:0|0:0,0:0:0:0:
256,336,58810,2,0,L|248:184,1,145,8|8,0:0|0:1,0:0:0:0:
472,144,59254,2,0,L|296:120,1,145,2|8,0:0|0:0,0:0:0:0:
112,112,59699,1,2,0:0:0:0:
440,288,59921,5,12,0:0:0:0:
296,232,60143,1,8,0:0:0:0:
360,216,60254,1,8,0:0:0:0:
424,200,60366,1,8,0:1:0:0:
264,112,60588,1,8,0:0:0:0:
448,64,60810,1,10,0:1:0:0:
144,344,61254,2,8,L|136:232,1,72.5,8|8,0:0|0:0,0:0:0:0:
256,264,61477,2,8,L|264:192,1,72.5,8|8,0:1|0:1,0:0:0:0:
136,192,61699,1,8,0:0:0:0:
488,152,61921,6,0,L|312:152,1,145,12|0,0:1|0:0,0:0:0:0:
136,152,62254,1,8,0:1:0:0:
344,112,62366,1,8,0:0:0:0:
248,64,62477,1,8,0:1:0:0:
344,24,62588,1,8,0:0:0:0:
24,272,62810,6,0,L|200:272,1,145,12|8,0:1|0:0,0:0:0:0:
384,272,63143,1,8,0:1:0:0:
168,224,63255,1,8,0:0:0:0:
256,168,63366,1,8,0:1:0:0:
160,128,63477,2,0,L|152:24,1,72.5,8|8,0:0|0:0,0:0:0:0:
336,48,63699,6,0,L|456:48,1,72.5,12|0,0:1|0:0,0:0:0:0:
304,120,63921,2,0,L|296:232,1,72.5,8|0,0:0|0:0,0:0:0:0:
472,272,64143,2,0,L|384:272,1,72.5,12|0,0:1|0:0,0:0:0:0:
208,280,64366,2,0,L|104:280,1,72.5,8|8,0:0|0:0,0:0:0:0:
304,128,64588,2,0,L|208:128,1,72.5,12|0,0:1|0:0,0:0:0:0:
320,40,64810,2,0,L|424:40,1,72.5,8|8,0:0|0:0,0:0:0:0:
144,320,65032,2,0,L|264:320,1,72.5,8|0,0:1|0:0,0:0:0:0:
464,280,65254,5,6,0:1:0:0:
240,216,65477,1,8,0:0:0:0:
400,128,65699,1,8,0:1:0:0:
160,96,65921,1,8,0:0:0:0:
464,344,66143,1,8,0:0:0:0:
288,288,66366,1,8,0:0:0:0:
104,232,66588,1,8,0:1:0:0:
304,160,66810,1,8,0:0:0:0:
8,120,67032,5,8,0:1:0:0:
272,192,67477,2,0,L|-8:192,1,217.5,10|0,0:1|0:0,0:0:0:0:
280,336,67921,1,10,0:1:0:0:
120,280,68143,5,0,0:0:0:0:
288,200,68366,1,0,0:0:0:0:
80,144,68588,1,0,0:0:0:0:
368,304,68811,6,0,L|456:304,1,81.2000009912109,12|0,0:0|0:0,0:0:0:0:
240,184,69033,2,0,L|328:184,1,81.2000009912109,8|0,0:1|0:0,0:0:0:0:
496,96,69255,2,0,L|408:96,1,81.2000009912109,10|8,0:0|0:0,0:0:0:0:
240,288,69477,1,8,0:1:0:0:
344,280,69588,6,0,P|384:248|328:168,1,162.400001982422,10|8,0:0|0:0,0:0:0:0:
128,224,69921,1,8,0:1:0:0:
232,200,70032,1,8,0:0:0:0:
128,176,70143,2,0,L|128:88,1,81.2000009912109,8|0,0:0|0:0,0:0:0:0:
32,120,70366,2,0,L|32:24,1,81.2000009912109,8|0,0:1|0:0,0:0:0:0:
288,272,70588,6,0,L|176:272,1,81.2000009912109,10|0,0:0|0:0,0:0:0:0:
312,184,70810,2,0,L|424:184,1,81.2000009912109,8|0,0:1|0:0,0:0:0:0:
128,88,71032,2,0,L|240:88,1,81.2000009912109,10|8,0:0|0:0,0:0:0:0:
392,80,71254,1,8,0:1:0:0:
288,280,71366,6,0,P|248:208|304:168,1,162.400001982422,10|8,0:0|0:0,0:0:0:0:
392,176,71699,2,0,L|400:80,1,81.2000009912109,8|0,0:1|0:0,0:0:0:0:
296,360,71921,2,0,L|284:248,1,81.2000009912109,8|0,0:0|0:0,0:0:0:0:
96,224,72143,2,0,L|216:224,1,81.2000009912109,8|0,0:1|0:0,0:0:0:0:
432,168,72366,6,0,L|312:168,1,81.2000009912109,12|0,0:0|0:0,0:0:0:0:
176,96,72588,2,0,L|312:96,1,81.2000009912109,8|0,0:1|0:0,0:0:0:0:
152,160,72810,2,0,L|56:160,1,81.2000009912109,10|8,0:0|0:0,0:0:0:0:
296,280,73032,1,8,0:1:0:0:
192,280,73143,6,0,P|152:216|208:160,1,162.400001982422,10|8,0:0|0:0,0:0:0:0:
400,168,73477,2,0,L|504:168,1,81.2000009912109,8|0,0:1|0:0,0:0:0:0:
368,136,73699,2,8,L|360:48,1,81.2000009912109,10|8,0:0|0:0,0:0:0:0:
152,48,73921,2,0,L|16:48,1,81.2000009912109,8|0,0:1|0:0,0:0:0:0:
272,272,74143,6,0,L|96:272,1,162.400001982422,10|8,0:0|0:1,0:0:0:0:
40,224,74477,1,8,0:0:0:0:
288,128,74588,2,0,L|104:128,1,162.400001982422,10|8,0:0|0:1,0:0:0:0:
392,304,74921,6,0,P|432:256|376:184,1,162.400001982422,14|8,0:0|0:0,0:0:0:0:
184,192,75254,2,0,L|96:192,1,81.2000009912109,8|8,0:1|0:1,0:0:0:0:
296,128,75477,1,8,0:1:0:0:
200,112,75588,1,8,0:1:0:0:
368,296,75699,1,8,0:1:0:0:
152,296,75810,1,8,0:1:0:0:
448,208,75921,6,0,L|456:88,1,81.2000009912109,12|0,0:0|0:0,0:0:0:0:
248,152,76143,2,0,L|152:152,1,81.2000009912109,8|0,0:1|0:0,0:0:0:0:
368,336,76366,2,0,L|376:232,1,81.2000009912109,10|8,0:0|0:0,0:0:0:0:
280,256,76588,1,8,0:1:0:0:
464,128,76699,6,0,L|288:128,1,162.400001982422,10|8,0:0|0:0,0:0:0:0:
120,336,77032,2,0,L|128:200,1,81.2000009912109,8|0,0:1|0:0,0:0:0:0:
376,328,77254,2,8,L|480:328,1,81.2000009912109,8|0,0:0|0:0,0:0:0:0:
256,216,77477,2,0,L|360:216,1,81.2000009912109,8|0,0:1|0:0,0:0:0:0:
160,152,77699,6,0,L|152:48,1,81.2000009912109,8|0,0:0|0:0,0:0:0:0:
352,32,77921,2,0,L|248:32,1,81.2000009912109,8|0,0:1|0:0,0:0:0:0:
96,352,78143,2,0,L|104:240,1,81.2000009912109,10|8,0:0|0:0,0:0:0:0:
200,264,78366,1,8,0:1:0:0:
16,168,78477,6,0,L|216:168,1,162.400001982422,10|8,0:0|0:0,0:0:0:0:
352,232,78810,2,0,L|248:232,1,81.2000009912109,8|0,0:1|0:0,0:0:0:0:
448,152,79032,2,0,L|456:40,1,81.2000009912109,8|0,0:0|0:0,0:0:0:0:
168,48,79254,2,0,L|272:48,1,81.2000009912109,8|0,0:1|0:0,0:0:0:0:
448,296,79477,6,0,L|240:296,1,162.400001982422,12|8,0:0|0:1,0:0:0:0:
376,256,79810,1,8,0:0:0:0:
200,240,79921,2,0,L|192:120,1,81.2000009912109,8|0,0:0|0:0,0:0:0:0:
448,168,80143,2,0,P|496:112|424:56,1,162.400001982422,10|0,0:1|0:0,0:0:0:0:
352,72,80477,1,8,0:0:0:0:
176,320,80588,1,8,0:1:0:0:
272,296,80699,1,0,0:0:0:0:
176,248,80810,1,8,0:0:0:0:
272,216,80921,1,8,0:0:0:0:
80,208,81032,2,0,L|64:88,1,81.2000009912109,8|8,0:1|0:0,0:0:0:0:
400,192,81254,6,0,P|440:120|384:72,1,162.400001982422,6|8,0:0|0:1,0:0:0:0:
288,72,81588,1,8,0:0:0:0:
192,48,81699,1,8,0:0:0:0:
288,32,81810,1,8,0:0:0:0:
48,280,81921,6,0,P|144:144|208:144,1,243.600002973633,14|0,0:1|0:0,0:0:0:0:
440,256,82366,2,0,L|320:256,1,81.2000009912109,8|0,0:1|0:0,0:0:0:0:
72,240,82588,2,0,L|192:240,1,81.2000009912109,8|0,0:1|0:0,0:0:0:0:
336,168,82810,1,8,0:1:0:0:
232,144,82921,1,8,0:1:0:0:
456,328,83032,5,14,0:0:0:0:
272,288,83254,1,8,0:0:0:0:
64,232,83477,1,8,0:1:0:0:
272,152,83699,1,10,0:0:0:0:
72,336,83922,6,0,B|80:208|56:16|56:16|32:208|72:296|72:296|256:232|432:312|432:312|488:64,1,1160,8|12,0:0|0:1,0:0:0:0:
148,332,84810,5,10,0:0:0:0:
304,268,85032,1,8,0:0:0:0:
464,220,85255,1,8,0:1:0:0:
256,152,85477,1,10,0:0:0:0:
464,336,85700,6,0,B|488:312|488:312|480:16|480:16|504:64|496:112|496:112|432:232|480:296|480:296|176:216|360:344|88:352|88:352|128:216|16:128,1,1160,8|12,0:0|0:1,0:0:0:0:
416,248,86588,5,14,0:0:0:0:
56,240,86810,1,12,0:0:0:0:
416,112,87032,1,12,0:0:0:0:
56,112,87254,1,12,0:0:0:0:
240,160,87477,1,8,0:1:0:0:
424,128,87699,1,8,0:0:0:0:
248,64,87921,1,8,0:1:0:0:
432,24,88143,1,8,0:0:0:0:
72,88,88366,5,14,0:1:0:0:
216,144,88588,1,8,0:3:0:0:
144,168,88662,1,8,0:0:0:0:
216,216,88736,1,8,0:0:0:0:
144,240,88810,1,8,0:1:0:0:
424,328,89032,2,0,P|504:256|368:136,1,290,6|0,0:0|0:0,0:0:0:0:
184,208,89699,1,8,0:1:0:0:
272,152,89810,1,8,0:1:0:0:
168,104,89921,1,8,0:3:0:0:
464,272,90143,5,4,0:0:0:0:
256,296,90366,2,0,L|248:192,1,72.5,8|0,0:1|0:0,0:0:0:0:
352,216,90588,2,0,L|344:112,1,72.5,8|0,0:0|0:0,0:0:0:0:
448,136,90810,2,0,L|440:32,1,72.5,8|0,0:1|0:0,0:0:0:0:
200,272,91032,2,0,L|184:152,1,72.5,8|0,0:0|0:0,0:0:0:0:
80,208,91254,2,0,L|64:72,1,72.5,8|0,0:1|0:0,0:0:0:0:
312,96,91477,2,0,L|232:96,1,72.5,8|8,0:0|0:0,0:0:0:0:
56,312,91699,2,0,L|128:312,1,72.5,8|0,0:1|0:0,0:0:0:0:
344,312,91921,5,8,0:0:0:0:
160,264,92143,2,0,L|144:144,1,72.5,8|0,0:1|0:0,0:0:0:0:
40,200,92365,2,0,L|24:64,1,72.5,8|0,0:0|0:0,0:0:0:0:
144,128,92587,2,0,L|168:16,1,72.5,8|0,0:1|0:0,0:0:0:0:
360,288,92811,2,0,L|464:288,1,72.5,8|0,0:0|0:0,0:0:0:0:
240,208,93033,2,0,L|168:208,1,72.5,8|0,0:1|0:0,0:0:0:0:
280,112,93255,2,0,L|376:112,1,72.5,8|8,0:0|0:0,0:0:0:0:
112,304,93477,2,0,L|32:304,1,72.5,8|0,0:1|0:0,0:0:0:0:
368,288,93700,5,12,0:0:0:0:
208,256,93922,1,8,0:0:0:0:
304,216,94032,1,8,0:0:0:0:
208,168,94143,1,8,0:1:0:0:
304,136,94254,1,8,0:1:0:0:
104,96,94366,1,8,0:1:0:0:
304,64,94477,1,8,0:1:0:0:
200,40,94588,1,8,0:1:0:0:
416,96,94699,1,8,0:1:0:0:
200,240,94810,1,8,0:1:0:0:
304,208,94921,1,8,0:1:0:0:
80,192,95032,1,8,0:1:0:0:
424,200,95143,1,8,0:1:0:0:
128,352,95254,1,12,0:1:0:0:
112,304,97254,5,2,0:0:0:0:
336,288,97477,1,2,0:0:0:0:
24,152,97699,6,0,L|176:152,1,145,12|8,0:0|0:1,0:0:0:0:
96,112,98032,1,8,0:0:0:0:
344,144,98143,2,0,L|272:144,1,72.5,10|0,0:0|0:0,0:0:0:0:
176,80,98365,2,0,L|264:80,1,72.5,8|0,0:1|0:0,0:0:0:0:
448,296,98587,2,0,L|456:208,1,72.5,8|8,0:0|0:0,0:0:0:0:
368,168,98811,2,0,L|456:168,1,72.5,8|0,0:1|0:0,0:0:0:0:
176,200,99033,6,0,L|16:200,1,145,10|8,0:0|0:1,0:0:0:0:
104,168,99365,1,8,0:0:0:0:
288,352,99476,2,0,L|136:352,1,145,10|8,0:0|0:1,0:0:0:0:
216,312,99810,1,8,0:0:0:0:
384,240,99921,2,0,L|392:144,1,72.5,10|0,0:0|0:0,0:0:0:0:
288,152,100144,1,8,0:1:0:0:
200,128,100255,1,0,0:0:0:0:
288,64,100366,1,10,0:0:0:0:
200,48,100477,1,8,0:1:0:0:
376,336,100588,2,0,L|472:336,1,72.5,8|8,0:2|0:0,0:0:0:0:
160,288,100811,6,0,L|152:176,1,72.5,12|0,0:0|0:0,0:0:0:0:
264,200,101033,2,0,L|272:104,1,72.5,8|0,0:1|0:0,0:0:0:0:
48,328,101255,2,0,L|215:334,1,145,10|8,0:0|0:1,0:0:0:0:
120,264,101587,1,0,0:0:0:0:
328,240,101700,2,0,L|344:144,1,72.5,10|0,0:0|0:0,0:0:0:0:
440,176,101922,2,0,L|456:88,1,72.5,8|0,0:1|0:0,0:0:0:0:
368,64,102144,1,8,0:0:0:0:
456,32,102255,1,8,0:0:0:0:
288,312,102366,2,0,L|200:280,1,72.5,8|0,0:1|0:0,0:0:0:0:
48,352,102587,6,0,L|176:352,1,72.5,14|0,0:0|0:0,0:0:0:0:
376,288,102811,2,0,L|256:288,1,72.5
120,208,103033,1,10,0:1:0:0:
304,152,103144,1,8,0:1:0:0:
112,112,103255,1,8,0:0:0:0:
200,72,103366,1,8,0:0:0:0:
440,344,103477,6,0,B|496:104|416:8|416:8|504:104|456:232|456:232|72:312|48:200|48:200|40:-32,1,1160,10|12,0:1|0:1,0:0:0:0:
408,64,104366,6,0,L|512:72,1,72.5,12|0,0:0|0:0,0:0:0:0:
368,120,104588,2,0,L|344:208,1,72.5,8|0,0:1|0:0,0:0:0:0:
136,352,104811,2,0,L|216:352,1,72.5,10|8,0:0|0:0,0:0:0:0:
112,272,105034,2,0,L|8:272,1,72.5,8|0,0:1|0:0,0:0:0:0:
288,272,105256,2,8,L|368:272,1,72.5,10|0,0:0|0:0,0:0:0:0:
240,176,105478,2,0,L|328:176,1,72.5,8|0,0:1|0:0,0:0:0:0:
424,112,105700,2,0,L|296:112,1,72.5,8|8,0:0|0:0,0:0:0:0:
448,320,105922,2,0,L|456:208,1,72.5,8|0,0:1|0:0,0:0:0:0:
192,264,106145,6,0,L|104:264,1,72.5,10|0,0:0|0:0,0:0:0:0:
216,184,106367,2,0,L|104:184,1,72.5,8|0,0:1|0:0,0:0:0:0:
368,136,106589,2,0,L|496:136,1,72.5,10|8,0:0|0:0,0:0:0:0:
352,48,106811,2,0,L|440:48,1,72.5,8|0,0:1|0:0,0:0:0:0:
176,336,107034,2,0,L|160:224,1,72.5,10|0,0:0|0:0,0:0:0:0:
272,240,107256,2,0,L|256:144,1,72.5,8|0,0:1|0:0,0:0:0:0:
88,152,107478,1,10,0:0:0:0:
256,96,107589,1,8,0:0:0:0:
64,248,107700,2,0,L|176:248,1,72.5,8|0,0:1|0:0,0:0:0:0:
360,328,107922,6,8,L|200:328,1,145,14|8,0:0|0:1,0:0:0:0:
360,256,108366,1,8,0:3:0:0:
264,216,108477,1,8,0:0:0:0:
456,208,108588,2,0,P|488:120|328:56,1,290,14|8,0:1|0:0,0:0:0:0:
480,320,109254,1,8,0:1:0:0:
392,288,109365,1,8,0:1:0:0:
168,224,109476,6,0,L|456:216,1,217.5,12|0,0:0|0:0,0:0:0:0:
296,192,109922,1,8,0:1:0:0:
384,160,110033,1,8,0:1:0:0:
216,112,110144,1,8,0:1:0:0:
304,80,110255,1,8,0:1:0:0:
112,288,110366,2,8,P|32:192|152:104,1,290,12|8,0:1|0:2,0:0:0:0:
288,208,111032,1,8,0:1:0:0:
88,264,111143,1,8,0:1:0:0:
288,304,111254,1,8,0:2:0:0:
200,320,111365,1,8,0:2:0:0:
432,280,111476,6,0,P|472:200|400:176,1,145,12|0,0:0|0:0,0:0:0:0:
256,136,111922,1,0,0:0:0:0:
440,80,112145,1,8,0:0:0:0:
216,240,112367,1,8,0:0:0:0:
456,320,112589,1,8,0:0:0:0:
56,288,112811,1,8,0:0:0:0:
472,224,113033,6,8,L|144:184,1,290,12|8,0:1|0:1,0:0:0:0:
400,168,113700,1,8,0:1:0:0:
184,256,113922,1,8,0:1:0:0:
464,320,114144,1,8,0:1:0:0:
368,288,114255,1,8,0:1:0:0:
464,240,114367,1,8,0:1:0:0:
368,208,114478,1,8,0:1:0:0:
160,200,114589,1,8,0:1:0:0:
368,128,114700,1,8,0:1:0:0:
160,80,114811,1,8,0:1:0:0:
464,40,114922,1,8,0:1:0:0:
40,208,115477,5,6,0:0:0:0:
256,192,115699,12,2,119254,0:0:0:0:
