osu file format v14

[General]
AudioFilename: audio.mp3
AudioLeadIn: 0
PreviewTime: -1
Countdown: 1
SampleSet: Normal
StackLeniency: 0.7
Mode: 0
LetterboxInBreaks: 0
SkinPreference:#TECHNOCANDY v3
WidescreenStoryboard: 0

[Editor]
DistanceSpacing: 2.1
BeatDivisor: 4
GridSize: 4
TimelineZoom: 1

[Metadata]
Title:The Less I Know The Better
TitleUnicode:The Less I Know The Better
Artist:Tame Impala
ArtistUnicode:Tame Impala
Creator:Blubehriluv
Version:Insane
Source:
Tags:
BeatmapID:1429787
BeatmapSetID:675947

[Difficulty]
HPDrainRate:5
CircleSize:5
OverallDifficulty:5
ApproachRate:8.5
SliderMultiplier:1.4
SliderTickRate:1

[Events]
//Background and Video events
0,0,"The Less I Know The Better.jpg",0,0
//Break Periods
2,56454,63792
//Storyboard Layer 0 (Background)
//Storyboard Layer 1 (Fail)
//Storyboard Layer 2 (Pass)
//Storyboard Layer 3 (Foreground)
//Storyboard Sound Samples

[TimingPoints]
1329.53471316819,513.320512820513,4,1,1,100,1,0

[HitObjects]
376,260,1335,5,4,0:0:0:0:
264,232,1714,2,0,L|232:204,1,35,0|8,0:0|0:0,0:0:0:0:
144,96,2356,1,4,0:0:0:0:
288,148,2869,2,0,P|304:60|368:52,1,140,8|4,0:0|0:0,0:0:0:0:
444,164,3896,1,12,0:0:0:0:
336,272,4409,2,0,L|268:332,1,70,4|0,0:0|0:0,0:0:0:0:
232,260,4922,2,8,L|176:316,1,70,8|0,0:0|0:0,0:0:0:0:
112,280,5436,5,4,0:0:0:0:
112,164,5821,2,0,L|112:108,1,35,0|8,0:0|0:0,0:0:0:0:
220,240,6462,2,0,L|388:240,1,140,4|8,0:0|0:0,0:0:0:0:
340,144,7489,1,8,0:0:0:0:
204,72,8002,1,8,0:0:0:0:
108,192,8516,1,8,0:0:0:0:
248,256,9029,1,8,0:0:0:0:
400,264,9542,6,0,P|388:208|344:172,1,105,4|0,0:0|0:0,0:0:0:0:
320,160,10055,1,8,0:0:0:0:
364,100,10312,1,0,0:0:0:0:
292,68,10569,2,0,L|208:104,1,70,4|0,0:0|0:0,0:0:0:0:
152,80,11082,2,0,P|64:112|60:156,1,140,8|4,0:0|0:0,0:0:0:0:
80,300,12109,1,8,0:0:0:0:
176,180,12622,2,0,L|120:256,1,70,4|0,0:0|0:0,0:0:0:0:
184,296,13135,2,0,L|276:268,1,70,8|0,0:0|0:0,0:0:0:0:
312,228,13649,5,4,0:0:0:0:
364,172,13905,1,0,0:0:0:0:
304,124,14162,1,8,0:0:0:0:
152,120,14675,1,4,0:0:0:0:
252,212,15189,1,8,0:0:0:0:
404,200,15702,2,0,P|376:140|348:120,1,70,4|0,0:0|0:0,0:0:0:0:
300,112,16215,2,0,P|236:136|220:160,1,70,8|0,0:0|0:0,0:0:0:0:
176,180,16729,2,0,P|128:240|64:252,1,140,4|8,0:0|0:0,0:0:0:0:
132,112,17755,6,0,P|204:72|264:80,1,140,4|8,0:0|0:0,0:0:0:0:
348,104,18525,1,0,0:0:0:0:
432,96,18782,1,4,0:0:0:0:
392,184,19039,1,0,0:0:0:0:
364,260,19295,2,0,L|404:340,1,70,8|0,0:0|0:0,0:0:0:0:
308,324,19809,2,0,L|276:256,1,70,4|0,0:0|0:0,0:0:0:0:
196,264,20322,2,0,L|228:336,1,70,8|0,0:0|0:0,0:0:0:0:
144,328,20835,2,4,L|112:256,1,70,4|0,0:0|0:0,0:0:0:0:
256,96,21349,1,8,0:0:0:0:
304,196,21862,6,0,P|336:232|400:236,1,105,4|0,0:0|0:0,0:0:0:0:
424,232,22375,1,8,0:0:0:0:
336,80,22888,1,4,0:0:0:0:
280,56,23145,2,0,P|224:40|208:40,1,70,0|8,0:0|0:0,0:0:0:0:
148,60,23658,1,0,0:0:0:0:
216,120,23915,1,4,0:0:0:0:
384,80,24428,1,8,0:0:0:0:
260,300,24942,2,0,B|244:268|164:244|364:240|244:212|248:160,1,140,4|12,0:0|0:0,0:0:0:0:
256,32,25968,5,4,0:0:0:0:
192,72,26225,2,0,L|120:128,1,70,0|8,0:0|0:0,0:0:0:0:
156,188,26738,2,0,L|88:248,1,70,0|4,0:0|0:0,0:0:0:0:
164,284,27252,1,0,0:0:0:0:
240,280,27508,2,0,P|344:272|368:244,1,140,8|4,0:0|0:0,0:0:0:0:
428,164,28278,1,0,0:0:0:0:
328,136,28535,1,8,0:0:0:0:
428,72,28792,1,0,0:0:0:0:
344,36,29048,2,0,P|264:40|216:76,1,140,4|8,0:0|0:0,0:0:0:0:
144,144,29818,6,0,L|80:72,2,70,0|4|0,0:0|0:0|0:0,0:0:0:0:
220,232,30588,1,8,0:0:0:0:
332,256,30845,2,0,P|384:248|404:224,1,70,0|4,0:0|0:0,0:0:0:0:
428,152,31358,1,0,0:0:0:0:
348,116,31615,2,0,P|284:128|216:92,1,140,8|4,0:0|0:0,0:0:0:0:
200,76,32385,1,0,0:0:0:0:
180,176,32642,2,0,L|120:216,1,70,8|0,0:0|0:0,0:0:0:0:
176,308,33155,2,0,L|260:308,1,70,4|0,0:0|0:0,0:0:0:0:
368,312,33668,2,0,P|420:264|420:192,1,140,8|4,0:0|0:0,0:0:0:0:
368,96,34438,6,0,L|324:160,1,70,0|8,0:0|0:0,0:0:0:0:
232,120,34952,2,0,L|260:192,1,70,0|4,0:0|0:0,0:0:0:0:
216,244,35465,2,0,L|160:196,1,70,0|8,0:0|0:0,0:0:0:0:
124,320,35978,2,0,L|212:320,1,70,0|4,0:0|0:0,0:0:0:0:
312,320,36491,1,0,0:0:0:0:
328,320,36748,1,8,0:0:0:0:
344,320,37005,1,0,0:0:0:0:
360,320,37261,2,0,P|440:308|484:248,1,140,4|8,0:0|0:0,0:0:0:0:
416,192,38031,6,0,L|348:152,1,70,0|4,0:0|0:0,0:0:0:0:
328,48,38545,1,0,0:0:0:0:
192,100,38801,1,8,0:0:0:0:
224,256,39058,2,4,P|148:240|92:172,1,140,0|0,0:0|0:0,0:0:0:0:
104,128,39828,2,0,P|204:76|256:88,1,140,8|4,0:0|0:0,0:0:0:0:
328,160,40598,2,0,L|380:224,2,70,0|12|0,0:0|0:0|0:0,0:0:0:0:
152,48,41368,1,0,0:0:0:0:
228,232,41881,1,0,0:0:0:0:
404,264,42395,6,0,B|400:196|380:176|332:172|300:200,1,140
204,228,43165,1,0,0:0:0:0:
184,236,43293,1,0,0:0:0:0:
160,244,43421,1,0,0:0:0:0:
264,268,43678,2,0,L|360:304,1,70
440,216,44191,1,0,0:0:0:0:
344,120,44448,2,0,P|316:96|272:104,1,70
132,188,44961,1,0,0:0:0:0:
260,88,45475,6,0,L|308:148,1,70
448,156,45988,2,0,L|432:236,1,70
344,296,46501,2,0,L|268:268,1,70
212,164,47015,1,0,0:0:0:0:
120,148,47271,2,0,P|72:172|80:192,1,70
140,280,47785,1,0,0:0:0:0:
228,204,48041,2,0,B|256:128|296:72|272:308|324:228|340:72|376:152|356:300|392:216|380:252,1,210
400,300,49068,1,0,0:0:0:0:
248,320,49581,6,0,L|152:320,1,70
160,240,50094,2,0,L|96:212,1,70
112,136,50608,2,0,L|68:72,1,70
200,76,51121,1,0,0:0:0:0:
16,148,51378,1,0,0:0:0:0:
76,280,51634,2,0,L|164:280,2,70
0,256,52404,1,0,0:0:0:0:
56,192,52661,2,0,P|124:108|128:72,1,140
288,88,53688,6,0,B|192:192|192:192|292:288,1,280
440,300,55228,2,0,L|476:236,1,70
428,176,55741,2,0,L|356:128,1,70
296,96,56254,1,0,0:0:0:0:
256,192,64467,12,0,66521,0:0:0:0:
