osu file format v14

[General]
AudioFilename: audio.mp3
AudioLeadIn: 0
PreviewTime: 51522
Countdown: 0
SampleSet: Soft
StackLeniency: 0.7
Mode: 0
LetterboxInBreaks: 0
WidescreenStoryboard: 0

[Editor]
Bookmarks: 113857,232134
DistanceSpacing: 2.4
BeatDivisor: 4
GridSize: 32
TimelineZoom: 2.1

[Metadata]
Title:Posthumous Forgiveness
TitleUnicode:Posthumous Forgiveness
Artist:Tame Impala
ArtistUnicode:Tame Impala
Creator:Leader
Version:Insane
Source:
Tags:senseabel rho kieg enri kevin parker the slow rush psychedelic pop synthpop neo-psychedelia english
BeatmapID:3261860
BeatmapSetID:1597145

[Difficulty]
HPDrainRate:5
CircleSize:4
OverallDifficulty:8
ApproachRate:8
SliderMultiplier:1.4
SliderTickRate:1

[Events]
//Background and Video events
0,0,"the slow rush.jpg",0,0
//Break Periods
2,226259,231384
//Storyboard Layer 0 (Background)
//Storyboard Layer 1 (Fail)
//Storyboard Layer 2 (Pass)
//Storyboard Layer 3 (Foreground)
//Storyboard Layer 4 (Overlay)
//Storyboard Sound Samples

[TimingPoints]
97,389.590151160979,4,2,1,25,1,0
924,-100,4,2,1,40,0,0
1655,-166.666666666667,4,2,1,40,0,0
51522,-125,4,2,1,40,0,0
76456,-100,4,2,1,45,0,0
79573,-125,4,2,1,40,0,0
82690,-100,4,2,1,45,0,0
85806,-125,4,2,1,40,0,0
107623,-166.666666666667,4,2,1,40,0,0
113857,-166.666666666667,4,2,1,40,0,0
138791,-100,4,2,1,45,0,0
141907,-125,4,2,1,40,0,0
145024,-100,4,2,1,45,0,0
148141,-125,4,2,1,40,0,0
151257,-100,4,2,1,45,0,0
163724,-76.9230769230769,4,2,1,40,0,0
164504,-100,4,2,1,40,0,0
165283,-76.9230769230769,4,2,1,40,0,0
166062,-100,4,2,1,40,0,0
166841,-71.4285714285714,4,2,1,40,0,0
167620,-100,4,2,1,40,0,0
168399,-71.4285714285714,4,2,1,40,0,0
169179,-100,4,2,1,40,0,0
169958,-58.8235294117647,4,2,1,40,0,0
170737,-100,4,2,1,40,0,0
171516,-58.8235294117647,4,2,1,40,0,0
172295,-100,4,2,1,40,0,0
173063,-58.8235294117647,4,2,1,40,0,0
173842,-100,4,2,1,40,0,0
174633,-55.5555555555556,4,2,1,40,0,0
175412,-100,4,2,1,40,0,0
176191,-133.333333333333,4,2,1,40,0,0
177360,-100,4,2,1,40,0,0
177750,-133.333333333333,4,2,1,40,0,0
178918,-100,4,2,1,40,0,0
179308,-153.846153846153,4,2,1,40,0,0
180477,-117.647058823529,4,2,1,40,0,0
180866,-153.846153846153,4,2,1,40,0,0
182035,-200,4,2,1,40,0,0
182425,-200,4,2,1,40,0,0
183593,-222.222222222221,4,2,1,40,0,0
183983,-200,4,2,1,40,0,0
185152,-333.333333333333,4,2,1,40,0,0
185541,-222.222222222222,4,2,1,40,0,0
186710,-400,4,2,1,40,0,0
187100,-250,4,2,1,40,0,0
188269,-500,4,2,1,40,0,0
201125,-86.9565217391304,4,2,1,45,0,0
202683,-66.6666666666667,4,2,1,45,0,0
203073,-86.9565217391304,4,2,1,45,0,0
205800,-66.6666666666667,4,2,1,45,0,0
206190,-86.9565217391304,4,2,1,45,0,0
208917,-66.6666666666667,4,2,1,45,0,0
209306,-86.9565217391304,4,2,1,45,0,0
212034,-58.8235294117647,4,2,1,45,0,0
212423,-86.9565217391304,4,2,1,45,0,0
215150,-62.5,4,2,1,45,0,0
215540,-86.9565217391304,4,2,1,45,0,0
218267,-66.6666666666667,4,2,1,45,0,0
218657,-86.9565217391304,4,2,1,45,0,0
219825,-100,4,2,1,40,0,0
222942,-100,4,2,1,40,0,0
224500,-76.9230769230769,4,2,1,40,0,0
226059,374.981250937453,4,2,1,40,1,0
229058,384.595661760935,4,2,1,40,1,0
232089,389.61038961039,4,2,1,40,1,0
232134,361.44578313253,4,2,1,40,1,0
232134,-500,4,2,1,30,0,0
242977,-166.666666666667,4,2,1,40,0,0
243700,359.281437125748,4,2,1,40,1,0
243700,-166.666666666667,4,2,1,40,0,0
249448,363.636363636364,4,2,1,40,1,0
249448,-166.666666666667,4,2,1,40,0,0
252357,359.281437125748,4,2,1,40,1,0
252357,-166.666666666667,4,2,1,40,0,0
256668,365.853658536585,4,2,1,40,1,0
256668,-166.666666666667,4,2,1,40,0,0
258131,361.44578313253,4,2,1,40,1,0
258131,-166.666666666667,4,2,1,40,0,0
270058,-100,4,2,1,60,0,0
271414,-100,4,2,1,5,0,0
271504,-100,4,2,1,60,0,0
273221,-100,4,2,1,5,0,0
273311,-100,4,2,1,60,0,0
275028,-100,4,2,1,5,0,0
275118,-100,4,2,1,60,0,0
275751,-100,4,2,1,5,0,0
275841,-100,4,2,1,60,0,0
277558,-100,4,2,1,5,0,0
277649,-100,4,2,1,60,0,0
278281,-100,4,2,1,5,0,0
278371,-100,4,2,1,60,0,0
279365,-100,4,2,1,5,0,0
279456,-100,4,2,1,60,0,0
281534,-100,4,2,1,5,0,0
281624,-100,4,2,1,60,0,0
289124,-100,4,2,1,5,0,0
289215,-100,4,2,1,60,0,0
292016,-100,4,2,1,5,0,0
292106,-100,4,2,1,60,0,0
295721,-200,4,2,1,30,0,0
299516,-200,4,2,1,5,0,0
300058,-200,4,2,1,30,0,0
300215,361.44578313253,4,2,1,30,1,0
300215,-200,4,2,1,30,0,0
300847,361.44578313253,4,2,1,30,1,0
301233,361.44578313253,4,2,1,30,1,0
301504,361.44578313253,4,2,1,30,1,0
301504,-400,4,2,1,30,0,0
306574,361.44578313253,4,2,1,30,1,0
307287,361.44578313253,4,2,1,30,1,0
307287,-200,4,2,1,30,0,0
310179,-133.333333333333,4,2,1,30,0,0
310902,-100,4,2,1,60,0,0
311896,-100,4,2,1,5,0,0
311986,-100,4,2,1,60,0,0
312980,-100,4,2,1,5,0,0
313070,-100,4,2,1,60,0,0
315871,-100,4,2,1,5,0,0
315962,-100,4,2,1,60,0,0
318402,-100,4,2,1,5,0,0
318492,-100,4,2,1,60,0,0
318763,-100,4,2,1,5,0,0
318853,-100,4,2,1,60,0,0
320932,-100,4,2,1,5,0,0
321022,-100,4,2,1,60,0,0
322016,-100,4,2,1,5,0,0
322106,-100,4,2,1,60,0,0
322739,-100,4,2,1,5,0,0
322829,-100,4,2,1,60,0,0
324185,-100,4,2,1,5,0,0
324275,-100,4,2,1,60,0,0
327438,-100,4,2,1,5,0,0
327528,-100,4,2,1,60,0,0
328161,-100,4,2,1,5,0,0
328251,-100,4,2,1,60,0,0
329606,-100,4,2,1,5,0,0
329697,-100,4,2,1,60,0,0
334034,-100,4,2,1,50,0,0
334757,-100,4,2,1,40,0,0
335480,-100,4,2,1,50,0,0
335841,-100,4,2,1,40,0,0
336203,-100,4,2,1,60,0,0
337920,-100,4,2,1,5,0,0
338010,-100,4,2,1,60,0,0
338643,-100,4,2,1,5,0,0
338733,-100,4,2,1,60,0,0
341173,-100,4,2,1,5,0,0
341263,-100,4,2,1,60,0,0
344426,-100,4,2,1,5,0,0
344516,-100,4,2,1,60,0,0
345149,-100,4,2,1,5,0,0
345239,-100,4,2,1,60,0,0
346956,-100,4,2,1,5,0,0
347046,-100,4,2,1,60,0,0
352377,-100,4,2,1,5,0,0
352468,-100,4,2,1,60,0,0
352739,-100,4,2,1,5,0,0
352829,-100,4,2,1,60,0,0
353100,-100,4,2,1,5,0,0
353191,-100,4,2,1,60,0,0
353462,-100,4,2,1,5,0,0
353552,-100,4,2,1,60,0,0
354185,-100,4,2,1,5,0,0
354275,-100,4,2,1,60,0,0
356715,-100,4,2,1,5,0,0
356805,-100,4,2,1,60,0,0
359335,-400,4,2,1,40,0,0
360781,-400,4,2,1,5,0,0
361504,-100,4,2,1,40,0,0

[Colours]
Combo1 : 92,164,228
Combo2 : 254,239,206
Combo3 : 243,249,175
Combo4 : 255,128,64
Combo5 : 255,70,70
Combo6 : 96,196,136

[HitObjects]
47,45,876,6,0,L|51:73,1,17.5,2|2,0:0|0:0,0:0:0:0:
50,63,1655,2,0,B|94:67|224:82,1,167.999994873047,0|2,1:0|2:0,0:0:0:0:
50,320,3213,6,0,B|89:316|221:305|221:305,1,167.999994873047,2|2,2:0|2:0,0:0:0:0:
217,305,4382,1,0,3:0:0:0:
327,174,4772,6,0,B|366:177|496:188|497:188,1,167.999994873047,0|2,1:0|2:0,0:0:0:0:
494,188,5940,1,2,2:0:0:0:
494,188,6330,2,0,P|450:194|404:203,1,83.9999974365235,2|2,2:0|2:0,0:0:0:0:
411,201,7109,1,2,2:0:0:0:
425,281,7499,1,0,3:0:0:0:
266,350,7888,6,0,P|260:270|246:182,1,167.999994873047,0|2,1:0|2:0,0:0:0:0:
246,183,9057,1,2,2:0:0:0:
85,211,9447,6,0,P|98:293|104:377,1,167.999994873047,2|2,2:0|2:0,0:0:0:0:
104,377,10615,1,0,3:0:0:0:
13,296,11005,6,0,P|96:289|179:276,1,167.999994873047,0|2,1:0|2:0,0:0:0:0:
179,276,12174,1,2,2:0:0:0:
167,207,12563,1,2,2:0:0:0:
167,207,13343,6,0,P|125:213|83:216,1,83.9999974365235,2|0,2:2|3:0,0:0:0:0:
83,216,14122,6,0,P|133:215|190:316,1,167.999994873047,0|2,1:0|2:0,0:0:0:0:
192,305,15291,2,0,B|164:309|146:315,1,41.9999987182618,2|0,2:0|0:0,0:0:0:0:
187,381,15680,2,0,P|233:372|359:356,1,167.999994873047,2|2,2:0|2:0,0:0:0:0:
353,356,16849,1,0,3:0:0:0:
343,276,17238,6,0,P|260:291|177:300,1,167.999994873047,0|2,1:0|2:0,0:0:0:0:
177,300,18407,1,2,2:0:0:0:
106,315,18797,2,0,P|101:276|90:217,1,83.9999974365235,2|2,2:0|2:0,0:0:0:0:
93,232,19576,1,2,2:2:0:0:
174,225,19966,2,0,P|176:244|182:274,1,41.9999987182618,0|0,3:0|0:0,0:0:0:0:
259,231,20355,6,0,B|315:234|367:175|330:106,1,167.999994873047,0|2,1:0|2:0,0:0:0:0:
333,113,21524,1,2,2:0:0:0:
315,192,21914,2,0,P|355:197|485:221,1,167.999994873047,2|2,2:0|2:0,0:0:0:0:
480,219,23082,1,0,3:0:0:0:
422,178,23472,2,0,P|339:194|256:205,1,167.999994873047,0|2,1:0|2:0,0:0:0:0:
256,205,24641,1,2,2:0:0:0:
256,205,25030,5,2,2:0:0:0:
245,131,25809,2,0,P|239:89|225:39,1,83.9999974365235,2|0,2:2|3:0,0:0:0:0:
321,81,26589,6,0,P|403:65|486:55,1,167.999994873047,0|2,1:0|2:0,0:0:0:0:
486,54,27757,1,2,2:0:0:0:
429,148,28147,2,0,P|444:230|455:331,1,167.999994873047,2|0,2:0|0:0,0:0:0:0:
454,313,29316,1,0,3:0:0:0:
380,325,29705,6,0,B|335:279|338:213|378:167,1,167.999994873047,0|2,1:0|2:0,0:0:0:0:
373,171,30874,1,2,2:0:0:0:
412,242,31264,2,0,P|383:245|232:275,1,167.999994873047,2|2,2:0|2:2,0:0:0:0:
246,270,32432,1,0,3:0:0:0:
216,346,32822,2,0,P|246:350|309:362,1,83.9999974365235,0|2,1:0|2:0,0:0:0:0:
321,256,33601,2,0,P|291:252|228:240,1,83.9999974365235,2|2,2:0|2:0,0:0:0:0:
165,166,34380,6,0,P|172:124|178:83,1,83.9999974365235,2|2,2:0|2:0,0:0:0:0:
328,31,35160,2,0,P|333:72|341:113,1,83.9999974365235,2|0,2:0|3:0,0:0:0:0:
486,170,35939,6,0,P|403:183|321:205,1,167.999994873047,0|2,1:0|2:0,0:0:0:0:
321,205,37108,1,2,2:0:0:0:
380,262,37497,2,0,B|449:275|495:218|478:164,1,167.999994873047,2|2,2:0|2:2,0:0:0:0:
409,134,38666,2,0,P|404:109|399:75,1,41.9999987182618,0|0,3:0|0:0,0:0:0:0:
329,132,39056,6,0,P|268:139|162:160,1,167.999994873047,0|2,1:0|2:0,0:0:0:0:
163,159,40224,1,2,2:0:0:0:
59,268,40614,2,0,P|63:236|67:218,1,41.9999987182618,2|0,2:0|0:0,0:0:0:0:
144,239,41003,2,0,P|140:259|138:280,1,41.9999987182618,2|0,2:0|0:0,0:0:0:0:
215,301,41393,1,2,2:0:0:0:
215,301,41783,1,0,3:0:0:0:
51,360,42172,6,0,P|96:350|303:315,1,251.999992309571,0|2,1:0|2:0,0:0:0:0:
445,198,43731,6,0,P|400:208|193:243,1,251.999992309571,2|0,2:0|3:0,0:0:0:0:
193,347,45289,6,0,P|227:346|257:301,1,83.9999974365235,0|2,1:0|2:0,0:0:0:0:
299,209,46068,5,2,2:0:0:0:
238,117,46458,5,2,2:0:0:0:
270,29,46847,6,0,P|330:31|355:34,1,83.9999974365235,2|2,2:0|2:0,0:0:0:0:
219,92,47626,2,0,P|159:94|134:97,1,83.9999974365235,2|0,2:0|3:0,0:0:0:0:
274,158,48406,6,0,B|266:213|312:271|393:241,1,167.999994873047,0|2,1:0|2:0,0:0:0:0:
462,227,49445,1,0,3:0:0:0:
462,227,49510,1,0,3:0:0:0:
462,227,49574,1,0,1:0:0:0:
512,285,49964,1,2,2:0:0:0:
379,265,50354,5,0,1:0:0:0:
405,82,50743,5,0,1:2:0:0:
235,28,50938,1,0,1:2:0:0:
179,181,51133,5,0,3:2:0:0:
290,140,51328,1,0,3:2:0:0:
426,342,51522,6,0,P|329:320|201:309,1,224,0|8,3:0|1:0,0:0:0:0:
69,349,52691,2,0,P|35:356|-9:360,1,56,0|0,3:0|0:0,0:0:0:0:
205,309,53081,6,0,P|189:254|179:200,1,112,0|2,3:0|0:0,0:0:0:0:
205,309,53665,1,2,0:0:0:0:
54,258,53860,1,8,1:0:0:0:
54,258,54250,6,0,P|90:248|118:237,1,56,2|0,0:0|0:0,0:0:0:0:
251,179,54639,2,0,B|211:182|174:145|191:105,1,112,0|2,3:0|2:0,0:0:0:0:
312,297,55418,6,0,P|313:331|316:357,1,56,8|0,1:0|0:0,0:0:0:0:
202,366,55808,2,0,P|201:332|198:306,1,56,0|0,3:0|0:0,0:0:0:0:
396,316,56197,6,0,B|445:342|488:305|477:250,1,112,0|2,3:0|0:0,0:0:0:0:
396,316,56782,1,2,0:0:0:0:
475,172,56977,2,0,P|467:132|467:107,1,56,8|0,1:0|0:0,0:0:0:0:
339,165,57366,2,0,P|345:192|347:220,1,56,2|0,0:0|0:0,0:0:0:0:
152,352,57756,6,0,B|196:267|117:194|35:218,1,224,0|8,3:0|1:0,0:0:0:0:
225,368,58925,6,0,P|253:366|284:360,1,56,0|0,3:0|0:0,0:0:0:0:
500,303,59314,2,0,B|477:331|403:340|383:279|405:286|360:227|297:270,1,224,0|8,3:0|1:0,0:0:0:0:
305,266,60483,1,2,0:0:0:0:
462,155,60873,6,0,P|468:107|483:40,1,112,0|2,3:0|2:0,0:0:0:0:
316,117,61652,2,0,B|308:162|351:200|400:184,1,112,8|0,1:0|3:0,0:0:0:0:
382,187,62236,1,0,0:0:0:0:
445,259,62431,5,0,1:0:0:0:
313,358,62626,1,0,3:0:0:0:
419,368,62821,1,0,3:0:0:0:
333,256,63015,1,0,1:0:0:0:
192,234,63210,5,0,3:0:0:0:
55,278,63405,1,0,1:0:0:0:
157,103,63600,5,0,3:0:0:0:
330,175,63794,1,0,3:0:0:0:
258,358,63989,6,0,B|176:376|93:306|121:224,1,224,0|8,3:0|1:0,0:0:0:0:
118,232,65158,1,0,3:0:0:0:
352,297,65548,6,0,P|402:299|488:317,1,112,0|2,3:0|0:0,0:0:0:0:
352,297,66132,1,2,0:0:0:0:
490,204,66327,2,0,P|498:178|502:141,1,56,8|0,1:0|0:0,0:0:0:0:
490,204,66716,1,2,0:0:0:0:
302,355,67106,6,0,P|246:344|191:342,1,112,0|2,3:0|2:0,0:0:0:0:
302,355,67690,1,2,2:0:0:0:
172,258,67885,2,0,P|135:267|94:272,1,56,8|0,1:0|0:0,0:0:0:0:
44,89,68275,6,0,B|27:126|64:158|98:146,1,84,0|0,3:0|0:0,0:0:0:0:
44,89,68664,2,0,P|84:83|170:77,1,112,0|2,3:0|0:0,0:0:0:0:
218,24,69249,1,2,0:0:0:0:
120,228,69444,2,0,P|87:229|46:238,1,56,8|0,1:0|0:0,0:0:0:0:
4,279,69833,1,2,0:0:0:0:
292,323,70223,6,0,B|380:338|433:246|380:163,1,224,0|8,3:0|1:0,0:0:0:0:
313,196,71391,1,0,3:0:0:0:
512,365,71781,6,0,P|317:326|272:321,1,224,0|8,3:0|1:0,0:0:0:0:
292,323,72950,1,2,0:0:0:0:
402,200,73339,6,0,P|440:191|517:182,1,112,0|2,3:0|2:0,0:0:0:0:
402,200,74119,1,8,1:0:0:0:
328,228,74508,1,0,3:0:0:0:
512,99,74898,6,0,P|493:94|454:90,1,56,0|0,1:0|0:0,0:0:0:0:
389,133,75287,1,2,0:0:0:0:
512,99,75482,1,2,0:0:0:0:
268,26,75677,5,8,1:0:0:0:
268,26,76456,6,0,P|257:61|284:108,1,70,14|0,1:0|0:0,0:0:0:0:
390,167,76846,2,0,P|424:164|487:155,1,70,14|0,1:0|0:0,0:0:0:0:
193,235,77235,6,0,P|158:230|123:228,1,70,14|0,1:0|0:0,0:0:0:0:
1,370,77625,2,0,P|-10:337|0:304,1,70,14|0,1:0|0:0,0:0:0:0:
249,104,78015,6,0,P|264:135|265:170,1,70,14|0,1:0|0:0,0:0:0:0:
3,97,78404,2,0,P|23:68|52:49,1,70,14|0,1:0|0:0,0:0:0:0:
167,120,78794,6,0,P|168:154|183:186,1,70,14|0,1:0|0:0,0:0:0:0:
402,72,79183,2,0,P|382:43|353:24,1,70,14|0,1:0|0:0,0:0:0:0:
290,257,79573,6,0,P|421:231|522:223,1,224,8|2,3:0|0:0,0:0:0:0:
510,223,80742,2,0,P|505:188|501:163,1,56,0|0,3:0|0:0,0:0:0:0:
441,238,81131,1,0,3:0:0:0:
380,201,81521,1,0,3:0:0:0:
354,135,81910,1,10,3:0:0:0:
379,69,82300,1,0,3:0:0:0:
487,295,82690,6,0,P|451:319|416:323,1,70,14|0,1:0|0:0,0:0:0:0:
270,256,83079,2,0,P|258:225|255:163,1,70,14|0,1:0|0:0,0:0:0:0:
32,124,83469,6,0,P|68:148|103:152,1,70,14|0,1:0|0:0,0:0:0:0:
249,85,83858,2,0,P|261:54|264:-8,1,70,14|0,1:0|0:0,0:0:0:0:
468,179,84248,6,0,P|444:149|411:139,1,70,14|0,1:0|0:0,0:0:0:0:
257,253,84638,2,0,P|221:266|201:294,1,70,14|0,1:0|0:0,0:0:0:0:
0,137,85027,6,0,P|45:151|89:171,1,70,14|0,1:0|0:0,0:0:0:0:
277,326,85417,2,0,P|322:312|366:292,1,70,14|0,1:0|0:0,0:0:0:0:
511,92,85806,6,0,B|476:103|428:75|442:29,1,112,8|0,3:0|0:0,0:0:0:0:
511,92,86586,1,2,0:0:0:0:
384,156,86845,1,0,3:0:0:0:
384,156,86910,1,0,3:0:0:0:
384,156,86975,1,0,1:0:0:0:
405,232,87365,6,0,B|440:240|512:266|513:266,1,112,2|0,0:0|1:0,0:0:0:0:
512,266,87949,1,0,0:0:0:0:
506,170,88144,5,8,1:0:0:0:
428,352,88339,1,0,1:0:0:0:
260,323,88533,5,0,3:0:0:0:
210,194,88728,1,0,3:0:0:0:
76,340,88923,6,0,P|39:328|24:278,1,84,2|0,3:2|0:0,0:0:0:0:
76,340,89313,2,0,P|111:326|195:308,1,112,2|10,2:0|1:2,0:0:0:0:
216,215,90092,5,2,3:2:0:0:
76,340,90481,2,0,P|104:327|132:320,1,56,0|0,3:0|0:0,0:0:0:0:
213,373,90871,5,2,0:0:0:0:
76,340,91066,1,2,0:0:0:0:
224,283,91261,6,0,P|259:296|271:326,1,56,10|0,1:2|0:0,0:0:0:0:
368,315,91650,2,0,P|388:346|380:377,1,56,2|0,0:2|0:0,0:0:0:0:
150,308,92040,6,0,P|106:314|30:336,1,112,0|2,3:2|2:0,0:0:0:0:
40,331,92624,1,0,0:0:0:0:
15,171,92819,6,0,P|32:200|85:206,1,84,10|0,1:2|0:0,0:0:0:0:
78,208,93209,2,0,P|112:197|156:194,1,56,2|0,3:2|0:0,0:0:0:0:
330,53,93598,6,0,B|395:74|374:28|438:52,1,112,0|2,3:0|0:0,0:0:0:0:
330,53,94183,1,2,0:0:0:0:
489,109,94377,2,0,B|530:82|530:82|507:10,1,112,10|2,1:2|0:2,0:0:0:0:
437,51,94962,1,0,0:0:0:0:
483,271,95156,6,0,P|429:244|423:210,1,84,2|0,3:2|0:0,0:0:0:0:
483,271,95546,2,0,P|422:283|359:311,1,112,2|10,2:0|1:2,0:0:0:0:
483,271,96325,5,2,3:2:0:0:
331,227,96715,2,0,P|302:239|274:246,1,56,0|0,3:0|0:0,0:0:0:0:
331,227,97104,5,2,0:0:0:0:
435,163,97299,1,2,0:0:0:0:
378,349,97494,6,0,P|346:341|313:336,1,56,10|0,1:2|0:0,0:0:0:0:
198,320,97884,2,0,P|166:328|133:333,1,56,2|0,0:2|0:0,0:0:0:0:
0,201,98273,6,0,P|44:195|120:173,1,112,0|2,3:2|2:0,0:0:0:0:
0,201,98858,1,0,0:0:0:0:
165,109,99052,2,0,P|187:124|200:149,1,56,10|0,1:2|0:0,0:0:0:0:
337,172,99442,2,0,P|320:209|296:222,1,56,2|0,3:2|0:0,0:0:0:0:
145,312,99832,6,0,P|118:304|90:302,1,56,0|0,3:0|0:0,0:0:0:0:
12,215,100221,1,0,3:0:0:0:
145,312,100416,1,0,1:0:0:0:
61,384,100611,5,8,3:0:0:0:
147,212,100806,1,0,1:0:0:0:
49,127,101000,5,0,3:0:0:0:
209,263,101195,1,0,3:0:0:0:
354,89,101390,6,0,P|317:60|341:16,1,84,2|0,3:2|0:0,0:0:0:0:
354,89,101780,2,0,P|389:75|473:57,1,112,2|10,2:0|1:2,0:0:0:0:
461,58,102559,5,2,3:2:0:0:
325,165,102948,2,0,P|297:152|269:145,1,56,0|0,3:0|0:0,0:0:0:0:
249,31,103338,5,2,0:0:0:0:
325,165,103533,1,2,0:0:0:0:
460,57,103727,6,0,P|432:62|408:75,1,56,10|0,1:2|0:0,0:0:0:0:
294,238,104117,2,0,P|270:225|231:216,1,56,2|0,0:2|0:0,0:0:0:0:
24,119,104507,6,0,P|77:103|133:95,1,112,0|2,3:2|2:0,0:0:0:0:
132,95,105091,1,0,0:0:0:0:
24,222,105286,6,0,P|-6:250|7:289,1,84,10|0,1:2|0:0,0:0:0:0:
15,295,105675,2,0,P|49:284|93:281,1,56,2|0,3:2|0:0,0:0:0:0:
359,332,106065,6,0,B|423:316|399:360|480:342,1,112,0|2,3:0|0:0,0:0:0:0:
359,332,106649,1,2,0:0:0:0:
512,268,106844,2,0,P|478:252|467:220,1,56,10|0,1:2|0:0,0:0:0:0:
512,105,107234,1,2,0:2:0:0:
512,105,107623,6,0,P|505:85|501:64,1,41.9999987182618,2|0,0:0|0:0,0:0:0:0:
409,43,108013,2,0,P|421:83|429:124,1,83.9999974365235,2|2,0:0|0:0,0:0:0:0:
429,124,108792,1,2,0:0:0:0:
209,296,109182,6,0,P|269:277|330:264,1,125.999996154785,2|0,0:0|0:0,0:0:0:0:
384,214,109961,2,0,P|375:186|369:159,1,41.9999987182618,2|0,0:0|0:0,0:0:0:0:
461,232,110351,2,0,P|452:259|446:286,1,41.9999987182618,2|0,0:0|0:0,0:0:0:0:
350,384,110740,6,0,P|304:371|257:364,1,83.9999974365235,2|0,0:0|0:0,0:0:0:0:
62,330,111519,6,0,P|58:309|52:289,1,41.9999987182618,2|0,0:0|0:0,0:0:0:0:
140,309,111909,2,0,P|134:288|130:268,1,41.9999987182618,2|0,0:0|0:0,0:0:0:0:
40,157,112298,6,0,P|20:161|0:167,1,41.9999987182618,2|0,0:0|0:0,0:0:0:0:
40,157,112688,2,0,P|20:161|0:167,1,41.9999987182618,2|0,0:0|0:0,0:0:0:0:
40,157,113078,2,0,P|20:161|0:167,1,41.9999987182618,2|0,0:0|0:0,0:0:0:0:
40,157,113467,2,0,P|20:161|0:167,1,41.9999987182618,2|0,0:0|0:0,0:0:0:0:
192,298,113857,6,0,P|280:310|370:326,1,167.999994873047,0|2,1:0|2:0,0:0:0:0:
510,120,115416,6,0,P|422:108|332:92,1,167.999994873047,2|2,2:0|2:0,0:0:0:0:
344,94,116585,2,0,P|364:88|385:85,1,41.9999987182618,0|0,3:0|0:0,0:0:0:0:
293,153,116974,6,0,P|207:168|166:238,1,167.999994873047,0|2,1:0|2:0,0:0:0:0:
166,232,118143,1,2,2:0:0:0:
110,134,118533,6,0,P|96:107|96:44,1,83.9999974365235,2|2,2:0|2:0,0:0:0:0:
26,221,119312,2,0,L|9:296,1,62.9999980773926,2|0,2:2|0:0,0:0:0:0:
17,209,119701,2,0,P|31:191|29:155,1,41.9999987182618,0|0,3:0|0:0,0:0:0:0:
108,298,120091,6,0,P|196:310|286:326,1,167.999994873047,0|2,1:0|2:0,0:0:0:0:
274,324,121260,1,2,2:0:0:0:
326,258,121650,5,2,2:0:0:0:
244,173,122039,1,2,2:0:0:0:
369,106,122429,1,2,2:0:0:0:
283,18,122818,2,0,P|254:28|242:43,1,41.9999987182618,0|0,3:0|0:0,0:0:0:0:
355,120,123208,6,0,P|273:100|190:86,1,167.999994873047,0|2,1:0|2:0,0:0:0:0:
191,87,124377,1,2,2:0:0:0:
95,100,124766,6,0,P|111:58|106:4,1,83.9999974365235,2|2,2:0|2:0,0:0:0:0:
11,202,125546,2,0,P|42:226|47:261,1,62.9999980773926,2|0,2:2|0:0,0:0:0:0:
0,193,125935,2,0,L|46:172,1,41.9999987182618,0|0,3:0|0:0,0:0:0:0:
211,189,126325,6,0,P|192:269|177:353,1,167.999994873047,0|2,1:0|2:0,0:0:0:0:
177,353,127492,1,2,2:0:0:0:
316,379,127882,6,0,P|369:340|359:237,1,167.999994873047,2|2,2:0|2:0,0:0:0:0:
381,86,129051,2,0,P|352:106|344:125,1,41.9999987182618,0|0,3:0|0:0,0:0:0:0:
256,186,129440,6,0,P|337:166|420:151,1,167.999994873047,0|2,1:0|2:0,0:0:0:0:
420,151,130609,1,2,2:0:0:0:
392,78,130999,6,0,P|349:72|311:5,1,125.999996154785,2|0,2:0|0:0,0:0:0:0:
311,4,131779,1,2,2:2:0:0:
217,127,132168,2,0,P|236:119|257:115,1,41.9999987182618,0|0,3:0|0:0,0:0:0:0:
351,183,132557,5,0,1:0:0:0:
308,255,132947,1,2,2:0:0:0:
227,277,133336,1,2,2:0:0:0:
143,221,133727,1,2,2:0:0:0:
82,120,134116,6,0,P|66:97|64:37,1,83.9999974365235,2|2,2:0|2:0,0:0:0:0:
189,87,134895,1,2,2:0:0:0:
144,213,135284,1,0,3:0:0:0:
21,272,135674,6,0,P|61:290|89:317,1,83.9999974365235,0|2,1:0|2:0,0:0:0:0:
198,362,136453,1,2,2:0:0:0:
246,273,136843,1,2,2:0:0:0:
179,221,137232,6,0,P|254:231|305:164,1,167.999994873047,2|0,2:0|1:0,0:0:0:0:
305,163,138791,6,0,P|279:131|288:77,1,70,14|0,1:0|0:0,0:0:0:0:
427,25,139180,2,0,P|458:32|498:41,1,70,14|0,1:0|0:0,0:0:0:0:
348,249,139570,2,0,P|317:256|277:265,1,70,14|0,1:0|0:0,0:0:0:0:
24,243,139959,2,0,P|28:208|52:183,1,70,14|0,1:0|0:0,0:0:0:0:
251,98,140349,6,0,P|269:64|264:16,1,70,14|0,1:0|0:0,0:0:0:0:
15,0,140739,2,0,P|9:34|19:67,1,70,14|0,1:0|0:0,0:0:0:0:
208,225,141128,2,0,P|195:193|199:158,1,70,14|0,1:0|0:0,0:0:0:0:
433,97,141518,2,0,P|452:124|458:159,1,70,14|0,1:0|0:0,0:0:0:0:
233,312,141907,6,0,P|126:281|16:260,1,224,8|2,3:0|0:0,0:0:0:0:
16,260,143076,1,0,3:0:0:0:
89,232,143466,1,0,3:0:0:0:
134,168,143855,1,0,3:0:0:0:
124,90,144245,2,0,P|168:97|182:106,1,56,2|0,3:0|0:0,0:0:0:0:
81,29,144634,1,0,3:0:0:0:
224,168,145024,6,0,P|247:141|253:107,1,70,14|0,1:0|0:0,0:0:0:0:
0,60,145414,2,0,P|0:94|16:125,1,70,14|0,1:0|0:0,0:0:0:0:
303,187,145803,6,0,P|353:214|371:230,1,70,14|0,1:0|0:0,0:0:0:0:
142,326,146193,2,0,P|146:269|153:246,1,70,14|0,1:0|0:0,0:0:0:0:
419,271,146582,6,0,P|439:229|433:193,1,70,14|0,1:0|0:0,0:0:0:0:
236,35,146972,2,0,P|200:52|176:89,1,70,14|0,1:0|0:0,0:0:0:0:
509,184,147362,6,0,P|487:147|448:133,1,70,14|0,1:0|0:0,0:0:0:0:
267,336,147751,2,0,P|314:324|346:326,1,70,14|0,1:0|0:0,0:0:0:0:
13,273,148141,6,0,P|46:264|234:223,1,224,8|2,3:0|0:0,0:0:0:0:
231,223,149310,1,2,0:0:0:0:
188,157,149699,2,0,P|134:168|113:166,1,56,2|0,0:0|0:0,0:0:0:0:
206,80,150089,1,2,0:0:0:0:
273,39,150478,2,0,P|254:18|231:1,1,56,0|0,1:0|0:0,0:0:0:0:
346,60,150868,1,2,3:2:0:0:
88,226,151257,6,0,P|66:198|64:163,1,70,14|0,1:0|0:0,0:0:0:0:
267,104,151647,2,0,P|289:132|291:167,1,70,14|0,1:0|0:0,0:0:0:0:
23,101,152037,6,0,P|62:91|94:99,1,70,14|0,1:0|0:0,0:0:0:0:
104,299,152426,2,0,P|65:309|33:301,1,70,14|0,1:0|0:0,0:0:0:0:
127,23,152816,6,0,P|159:43|193:45,1,70,14|0,1:0|0:0,0:0:0:0:
291,165,153205,2,0,P|254:175|231:199,1,70,14|0,1:0|0:0,0:0:0:0:
272,47,153595,6,0,P|267:13|231:-11,1,70,14|0,1:0|0:0,0:0:0:0:
23,101,153985,2,0,P|31:133|69:154,1,70,14|0,1:0|0:0,0:0:0:0:
372,193,154374,6,0,B|375:229|375:229|363:266,1,70,8|0,3:0|0:0,0:0:0:0:
154,165,154764,2,0,B|142:195|142:195|147:232,1,70,8|0,3:0|0:0,0:0:0:0:
370,115,155153,6,0,B|404:117|404:117|431:139,1,70,8|0,3:0|0:0,0:0:0:0:
313,322,155543,2,0,B|340:344|340:344|375:347,1,70,8|0,3:0|0:0,0:0:0:0:
202,265,155933,6,0,B|167:260|167:260|139:222,1,70,8|0,3:0|0:0,0:0:0:0:
269,46,156322,2,0,B|240:25|240:25|206:31,1,70,8|0,3:0|0:0,0:0:0:0:
91,288,156712,6,0,B|69:259|69:259|76:213,1,70,8|0,3:0|0:0,0:0:0:0:
348,67,157101,2,0,B|354:34|354:34|332:5,1,70,8|0,3:0|0:0,0:0:0:0:
87,102,157491,6,0,P|49:118|27:143,1,70,14|0,1:0|0:0,0:0:0:0:
112,353,157881,2,0,P|150:337|172:312,1,70,14|0,1:0|0:0,0:0:0:0:
166,89,158270,6,0,P|145:47|116:32,1,70,14|0,1:0|0:0,0:0:0:0:
15,243,158660,2,0,P|38:281|62:295,1,70,14|0,1:0|0:0,0:0:0:0:
221,154,159049,6,0,P|254:164|285:183,1,70,14|0,1:0|0:0,0:0:0:0:
234,360,159439,2,0,P|200:351|170:334,1,70,14|0,1:0|0:0,0:0:0:0:
326,117,159828,6,0,P|350:70|385:55,1,70,14|0,1:0|0:0,0:0:0:0:
507,222,160218,2,0,P|483:269|448:284,1,70,14|0,1:0|0:0,0:0:0:0:
245,264,160608,6,0,B|220:289|220:289|218:326,1,70,8|0,3:0|0:0,0:0:0:0:
400,139,160997,2,0,B|425:164|425:164|427:201,1,70,8|0,3:0|0:0,0:0:0:0:
294,330,161387,6,0,B|318:366|318:366|353:381,1,70,8|0,3:0|0:0,0:0:0:0:
385,63,161776,2,0,B|411:55|411:55|451:72,1,70,8|0,3:0|0:0,0:0:0:0:
182,228,162166,6,0,B|148:196|148:196|137:160,1,70,8|0,3:0|0:0,0:0:0:0:
379,203,162556,2,0,B|394:185|394:185|400:139,1,70,8|0,3:0|0:0,0:0:0:0:
89,122,162945,6,0,B|82:133|82:133|69:140|69:140|63:182,1,70,8|0,3:0|0:0,0:0:0:0:
469,200,163335,2,0,B|458:235|458:235|446:242|446:242|435:258,1,70,8|0,3:0|0:0,0:0:0:0:
130,324,163724,6,2,B|143:337|148:357|148:357|170:322|173:273|123:245|123:245|88:255|50:218|65:171,1,272.999987503052,10|2,3:2|0:0,0:0:0:0:
62,181,164504,6,0,P|46:138|48:103,1,70,8|0,3:0|0:0,0:0:0:0:
306,45,164893,2,2,P|322:88|319:122,1,70,10|2,3:2|0:0,0:0:0:0:
330,334,165283,6,2,B|317:346|299:350|299:350|358:369|405:344|407:290|407:290|462:250|446:305|510:254,1,272.999987503052,10|2,3:2|0:0,0:0:0:0:
491,267,166062,6,0,P|506:220|487:177,1,70,8|0,3:0|0:0,0:0:0:0:
305,44,166451,2,2,P|265:52|234:63,1,70,10|2,3:2|0:0,0:0:0:0:
54,274,166841,6,2,B|61:271|61:271|71:279|62:303|15:303|-28:229|20:196|70:185|92:207|92:207|129:183|116:146|116:146|97:131|95:110,1,293.999991027832,10|2,3:2|0:0,0:0:0:0:
98,123,167620,6,0,P|121:96|180:96,1,70,8|0,3:0|3:0,3:0:0:0:
242,308,168010,2,2,P|219:334|160:334,1,70,10|2,3:2|0:2,3:2:0:0:
482,33,168399,6,2,B|496:27|496:27|508:41|508:41|487:60|487:60|427:52|463:70|393:101|393:101|367:92|367:92|354:131|324:149|278:128,1,293.999991027832,10|2,3:2|0:0,0:0:0:0:
284,127,169081,1,2,0:0:0:0:
275,121,169179,6,0,P|269:86|302:39,1,70,10|0,3:0|0:0,0:0:0:0:
447,218,169568,2,0,P|485:228|517:243,1,70,10|0,3:2|0:0,0:0:0:0:
128,260,169958,6,2,B|141:248|137:226|137:226|115:267|77:198|92:309|74:316|44:347|44:347|47:349|47:349|51:351|51:351|65:338|116:333|136:361|136:361|173:366|204:317,1,357.000006809235,10|2,3:2|0:0,0:0:0:0:
188,338,170737,6,0,P|229:329|248:289,1,70,8|0,3:0|0:0,0:0:0:0:
42,106,171127,2,2,P|40:147|73:176,1,70,10|2,3:2|0:0,0:0:0:0:
413,33,171516,6,2,B|390:40|363:26|363:26|364:30|364:30|417:88|488:70|488:70|498:71|498:71|485:85|485:85|459:106|462:137|462:137|422:141|409:206,1,357.000006809235,10|2,3:2|0:0,0:0:0:0:
413,187,172295,6,0,P|424:216|427:263,1,70,8|0,3:0|0:0,0:0:0:0:
202,83,172685,2,2,P|222:41|268:24,1,70,10|2,3:2|3:2,3:2:0:0:
72,314,173075,6,2,B|47:335|22:324|22:324|47:358|104:338|104:338|91:334|91:334|97:330|97:330|86:327|128:281|163:322|163:322|163:315|163:315|167:316|167:316|171:298|171:298|175:268|184:250|228:241,1,357.000006809235,10|2,3:2|0:0,0:0:0:0:
217,243,173854,6,0,P|256:203|257:171,1,70,8|0,3:0|0:0,0:0:0:0:
133,37,174243,2,2,P|150:89|181:99,1,70,10|2,3:2|0:0,0:0:0:0:
425,336,174633,6,2,B|413:338|403:334|403:334|427:358|465:345|502:288|463:231|413:251|413:251|408:257|408:257|403:253|403:253|365:248|346:232|324:168|350:147|364:179|364:179|387:173,1,377.999988464356,10|2,3:2|0:0,0:0:0:0:
391,169,175315,1,2,0:0:0:0:
401,162,175412,6,0,P|421:116|419:89,1,70,10|0,3:0|0:0,0:0:0:0:
139,33,175802,2,0,P|82:51|49:70,1,70,10|0,3:2|0:0,0:0:0:0:
1,103,176191,6,0,P|87:121|214:175,1,210.000008010865,2|0,3:2|0:0,0:0:0:0:
199,167,177360,6,0,L|179:87,1,70,2|0,2:0|0:0,0:0:0:0:
482,239,177750,6,0,P|416:234|282:299,1,210.000008010865,2|0,2:0|0:0,0:0:0:0:
288,292,178918,6,0,L|302:215,1,70,2|0,2:0|0:0,0:0:0:0:
17,197,179308,6,0,P|83:254|67:340,1,181.999991668702,2|0,2:0|0:0,0:0:0:0:
67,339,180477,6,0,L|5:313,1,59.5000011348725,2|0,2:0|0:0,0:0:0:0:
170,178,180866,6,0,P|213:122|281:126,1,136.499993751526,2|2,2:0|0:0,0:0:0:0:
284,127,181548,1,2,0:0:0:0:
295,137,181646,2,0,P|314:162|322:183,1,45.4999979171754,2|0,0:0|0:0,0:0:0:0:
323,179,182035,6,0,L|369:169,1,35,2|0,2:0|0:0,0:0:0:0:
495,345,182425,6,0,P|430:348|404:287,1,140,2|0,2:0|0:0,0:0:0:0:
405,286,183593,6,0,L|373:296,1,31.4999990386963,2|0,2:0|0:0,0:0:0:0:
231,344,183983,6,0,P|295:315|269:258,1,140,2|0,2:0|0:0,0:0:0:0:
275,261,185152,6,0,L|261:236,1,20.9999993591309,2|0,2:0|0:0,0:0:0:0:
246,164,185541,6,0,P|276:113|327:138,1,125.999996154785,2|0,2:0|0:0,0:0:0:0:
326,137,186710,6,0,L|348:127,1,17.5,2|0,2:0|0:0,0:0:0:0:
413,83,187100,6,0,P|417:61|357:9,1,112,2|0,2:0|0:0,0:0:0:0:
356,9,188269,6,0,L|339:17,1,14,2|0,2:0|0:0,0:0:0:0:
256,54,188658,5,2,2:0:0:0:
182,90,189827,5,2,2:0:0:0:
263,71,190216,1,2,2:0:0:0:
191,102,191385,5,2,2:0:0:0:
272,78,191775,1,2,2:0:0:0:
202,112,192944,5,2,2:0:0:0:
283,88,193333,1,2,2:0:0:0:
211,119,194502,5,2,2:0:0:0:
292,95,194892,1,2,2:0:0:0:
221,128,196060,5,2,2:0:0:0:
302,104,196450,1,2,2:0:0:0:
232,141,197619,5,2,2:0:0:0:
313,117,198008,1,2,2:0:0:0:
241,152,199177,5,2,2:0:0:0:
322,128,199567,1,2,2:0:0:0:
241,152,200735,5,2,2:0:0:0:
322,128,201125,6,0,P|341:111|359:54,1,80.5000015354157,14|0,1:0|0:0,0:0:0:0:
91,26,201515,2,0,P|90:65|110:100,1,80.5000015354157,14|0,1:0|0:0,0:0:0:0:
302,208,201904,6,0,P|348:225|385:222,1,80.5000015354157,14|0,1:0|0:0,0:0:0:0:
480,105,202294,2,0,P|481:55|443:16,1,80.5000015354157,14|0,1:0|0:0,0:0:0:0:
196,84,202683,6,0,B|203:102|203:102|233:103|239:152|239:152|208:178|208:223,1,157.500006008148,14|0,1:0|0:0,0:0:0:0:
209,213,203073,2,0,P|233:245|233:305,1,80.5000015354157,14|0,1:0|0:0,0:0:0:0:
35,200,203463,2,0,P|38:158|78:115,1,80.5000015354157,14|0,1:0|0:0,0:0:0:0:
273,62,203852,2,0,P|313:50|353:32,1,80.5000015354157,14|0,1:0|0:0,0:0:0:0:
471,124,204242,6,0,B|497:157|497:157|490:210,1,80.5000015354157,8|0,3:0|0:0,0:0:0:0:
306,205,204631,2,0,B|304:245|304:245|328:278,1,80.5000015354157,8|0,3:0|0:0,0:0:0:0:
431,362,205021,6,0,B|466:359|466:359|502:331,1,80.5000015354157,8|0,3:0|0:0,0:0:0:0:
325,134,205411,2,0,B|368:154|368:154|377:185,1,80.5000015354157,8|0,3:0|0:0,0:0:0:0:
81,349,205800,6,0,B|94:324|98:330|98:330|111:308|113:277|82:260|82:260|60:266|37:243|46:214,1,157.500006008148,8|0,3:0|0:0,0:0:0:0:
45,236,206190,2,0,B|20:198|20:198|26:153,1,80.5000015354157,8|0,3:0|0:0,0:0:0:0:
244,131,206579,2,0,B|248:105|248:105|224:57,1,80.5000015354157,8|0,3:0|0:0,0:0:0:0:
16,29,206969,2,0,B|46:59|46:59|84:62,1,80.5000015354157,8|0,3:0|0:0,0:0:0:0:
186,178,207358,6,0,P|218:201|269:202,1,80.5000015354157,14|0,1:0|0:0,0:0:0:0:
462,98,207748,2,0,P|486:46|483:11,1,80.5000015354157,14|0,1:0|0:0,0:0:0:0:
298,36,208138,6,0,P|251:39|218:62,1,80.5000015354157,14|0,1:0|0:0,0:0:0:0:
89,190,208527,2,0,P|91:237|146:277,1,80.5000015354157,14|0,1:0|0:0,0:0:0:0:
509,198,208917,6,0,B|492:209|492:209|474:209|474:209|449:180|458:204|413:189|413:189|404:174|404:174|382:187|360:182|348:153,1,157.500006008148,14|0,1:0|0:0,0:0:0:0:
373,180,209306,2,0,P|346:135|318:125,1,80.5000015354157,14|0,1:0|0:0,0:0:0:0:
136,335,209696,2,0,P|172:311|186:269,1,80.5000015354157,14|0,1:0|0:0,0:0:0:0:
86,109,210086,2,0,P|37:128|-21:128,1,80.5000015354157,14|0,1:0|0:0,0:0:0:0:
259,254,210475,6,0,B|294:288|294:288|345:285,1,80.5000015354157,8|0,3:0|0:0,0:0:0:0:
258,90,210865,2,0,B|281:61|281:61|301:61|301:61|324:52,1,80.5000015354157,8|0,3:0|0:0,0:0:0:0:
478,146,211254,6,0,B|494:103|494:103|485:89|485:89|478:59,1,80.5000015354157,8|0,3:0|0:0,0:0:0:0:
175,47,211644,2,0,B|159:90|159:90|168:103|168:103|175:134,1,80.5000015354157,8|0,3:0|0:0,0:0:0:0:
451,331,212034,6,0,B|452:345|452:345|417:357|369:339|372:302|372:302|350:278|303:295|285:284,1,178.500003404617,8|0,3:0|0:3,0:3:0:0:
318,288,212423,2,0,B|291:257|291:257|295:214,1,80.5000015354157,8|0,3:0|0:3,0:3:0:0:
394,24,212813,2,0,B|355:25|355:25|324:52,1,80.5000015354157,8|0,3:0|0:0,0:0:0:0:
511,233,213202,2,0,B|488:210|488:210|472:212|472:212|467:218|467:218|442:212,1,80.5000015354157,8|0,3:0|0:0,0:0:0:0:
158,186,213592,6,0,P|112:203|75:237,1,80.5000015354157,14|0,1:0|0:0,0:0:0:0:
162,370,213981,2,0,P|207:352|244:318,1,80.5000015354157,14|0,1:0|0:0,0:0:0:0:
35,164,214371,6,0,P|8:203|18:244,1,80.5000015354157,14|0,1:0|0:0,0:0:0:0:
305,356,214761,2,0,P|311:314|283:275,1,80.5000015354157,14|0,1:0|0:0,0:0:0:0:
18,59,215150,6,0,B|7:57|0:50|0:50|12:84|40:96|65:77|65:77|90:87|85:108|125:108,1,168,14|0,1:0|0:0,0:0:0:0:
119,107,215540,2,0,P|149:84|194:81,1,80.5000015354157,14|0,1:0|0:0,0:0:0:0:
337,214,215929,6,0,P|365:239|375:283,1,80.5000015354157,14|0,1:0|0:0,0:0:0:0:
112,322,216319,2,0,P|109:282|128:247,1,80.5000015354157,14|0,1:0|0:0,0:0:0:0:
337,131,216709,6,0,B|299:141|299:141|267:172,1,80.5000015354157,8|0,3:0|0:0,0:0:0:0:
476,261,217098,2,0,B|478:300|478:300|459:335,1,80.5000015354157,8|0,3:0|0:0,0:0:0:0:
193,157,217488,6,0,B|194:199|194:199|201:209|201:209|230:231,1,80.5000015354157,8|0,3:0|0:0,0:0:0:0:
467,164,217877,2,0,B|456:180|456:180|421:193|421:193|414:215,1,80.5000015354157,8|0,3:0|0:0,0:0:0:0:
109,159,218267,6,0,B|106:117|148:93|148:93|178:102|210:71|197:31,1,157.500006008148,8|0,3:0|0:0,0:0:0:0:
200,51,218657,2,0,B|175:17|175:17|124:20,1,80.5000015354157,8|0,3:0|0:0,0:0:0:0:
0,126,219046,2,0,B|8:173|8:173|46:196,1,80.5000015354157,8|0,3:0|0:0,0:0:0:0:
165,262,219436,2,0,B|212:254|212:254|215:232|215:232|229:211,1,80.5000015354157,8|0,3:0|0:0,0:0:0:0:
496,87,219825,6,0,L|428:72,1,70,14|0,1:0|0:0,0:0:0:0:
496,87,220215,2,0,L|428:72,1,70,14|0,1:0|0:0,0:0:0:0:
496,87,220605,2,0,L|428:72,1,70,14|0,1:0|0:0,0:0:0:0:
496,87,220994,2,0,L|428:72,1,70,14|0,1:0|0:0,0:0:0:0:
496,87,221384,2,0,L|428:72,1,70,14|0,1:0|0:0,0:0:0:0:
496,87,221773,2,0,L|428:72,1,70,14|0,1:0|0:0,0:0:0:0:
496,87,222163,2,0,L|428:72,1,70,14|0,1:0|0:0,0:0:0:0:
496,87,222552,2,0,L|428:72,1,70,14|0,1:0|0:0,0:0:0:0:
296,346,222942,6,0,P|244:338|226:252,1,140,8|2,3:0|2:0,0:0:0:0:
343,284,223721,1,2,2:0:0:0:
101,356,223981,1,0,3:0:0:0:
101,356,224046,1,0,3:0:0:0:
101,356,224111,1,2,1:0:0:0:
101,356,224500,6,0,B|118:306|118:306|97:235,1,90.9999958343508,2|0,2:0|0:0,0:0:0:0:
53,185,224890,1,2,1:2:0:0:
53,185,225085,1,0,0:0:0:0:
219,309,225280,5,8,1:0:0:0:
161,112,225474,1,0,1:0:0:0:
469,227,225669,5,0,3:0:0:0:
381,334,225864,1,0,3:0:0:0:
394,252,226059,5,0,3:0:0:0:
60,116,232134,6,0,P|127:123|180:75,1,140,2|0,0:0|0:0,0:0:0:0:
206,7,234302,5,2,0:0:0:0:
206,7,235025,2,0,P|211:47|214:123,1,112,2|0,0:0|0:0,0:0:0:0:
172,200,237194,5,2,0:0:0:0:
172,200,237917,2,0,P|229:205|287:215,1,112,2|0,0:0|0:0,0:0:0:0:
365,243,240085,5,2,0:0:0:0:
365,243,240808,2,0,P|373:170|379:131,1,112,2|0,0:0|0:0,0:0:0:0:
142,201,242977,6,0,P|154:262|164:338,1,125.999996154785,2|0,0:0|0:0,0:0:0:0:
138,351,243700,6,0,P|133:304|123:253,1,83.9999974365235,0|0,3:0|0:0,0:0:0:0:
53,235,244238,1,0,0:0:0:0:
53,235,244418,2,0,P|103:233|179:202,1,125.999996154785,0|0,3:0|0:0,0:0:0:0:
173,205,245137,1,0,0:0:0:0:
232,271,245496,1,0,0:0:0:0:
232,271,245855,6,0,P|276:275|328:285,1,83.9999974365235,2|0,0:0|0:0,0:0:0:0:
330,198,246574,2,0,P|286:194|234:184,1,83.9999974365235,2|0,0:0|3:0,0:0:0:0:
197,126,247113,1,0,0:0:0:0:
197,126,247292,2,0,L|210:270,1,125.999996154785,0|0,3:0|0:0,0:0:0:0:
208,251,248011,1,0,3:0:0:0:
163,332,248370,1,0,3:0:0:0:
104,260,248729,6,0,P|98:224|87:174,1,83.9999974365235,2|0,0:0|0:0,0:0:0:0:
30,126,249448,2,0,P|61:126|120:111,1,83.9999974365235,2|0,0:0|3:0,0:0:0:0:
61,48,249993,1,0,0:0:0:0:
166,178,250175,2,0,L|260:188,1,83.9999974365235,0|0,3:0|3:0,0:0:0:0:
402,350,250902,6,0,P|405:312|416:263,1,83.9999974365235,2|0,0:0|0:0,0:0:0:0:
439,140,251448,1,0,0:0:0:0:
439,140,251629,2,0,L|434:186,1,41.9999987182618,0|0,3:0|0:0,0:0:0:0:
357,215,251993,2,0,L|352:173,1,41.9999987182618,0|0,3:0|0:0,0:0:0:0:
343,97,252357,5,2,0:0:0:0:
278,146,252716,1,0,0:0:0:0:
214,100,253075,2,0,L|119:87,1,83.9999974365235,2|0,0:0|0:0,0:0:0:0:
206,180,253794,1,0,3:0:0:0:
194,264,254153,1,0,3:0:0:0:
121,211,254512,6,0,L|35:222,1,83.9999974365235,2|0,0:0|0:0,0:0:0:0:
219,297,255231,2,0,L|305:308,1,83.9999974365235,2|0,0:0|0:0,0:0:0:0:
354,367,255770,1,0,0:0:0:0:
354,367,255949,2,0,P|351:328|361:272,1,83.9999974365235,0|0,3:0|0:0,0:0:0:0:
394,214,256488,1,0,0:0:0:0:
394,214,256668,2,0,B|314:196|315:249|225:221,1,167.999994873047
154,208,257765,6,0,L|150:257,1,41.9999987182618,2|0,0:0|0:0,0:0:0:0:
87,363,258131,2,0,P|86:326|77:273,1,83.9999974365235,2|0,0:0|0:0,0:0:0:0:
63,197,258853,1,0,3:0:0:0:
43,107,259215,1,0,3:0:0:0:
128,133,259576,2,0,P|175:171|155:280,1,167.999994873047,2|0,0:0|0:0,0:0:0:0:
94,303,260661,6,0,L|38:312,1,41.9999987182618,2|0,0:0|0:0,0:0:0:0:
164,356,261022,2,0,L|253:366,1,83.9999974365235,2|0,0:0|0:0,0:0:0:0:
333,378,261745,1,0,3:0:0:0:
302,296,262106,1,0,3:0:0:0:
388,310,262468,2,0,B|418:232|362:228|396:132,1,167.999994873047,2|0,0:0|0:0,0:0:0:0:
434,77,263552,6,0,L|429:33,1,41.9999987182618,2|0,0:0|0:0,0:0:0:0:
391,145,263914,2,0,L|299:158,1,83.9999974365235,2|0,0:0|0:0,0:0:0:0:
307,156,264456,1,0,0:0:0:0:
240,117,264637,1,0,3:0:0:0:
188,178,264998,1,0,3:0:0:0:
188,178,265179,1,0,0:0:0:0:
188,178,265359,2,0,P|180:133|170:90,1,83.9999974365235,2|0,0:0|0:0,0:0:0:0:
87,334,266082,6,0,P|131:339|175:348,1,83.9999974365235,2|0,0:0|0:0,0:0:0:0:
188,269,266805,2,0,P|144:264|100:255,1,83.9999974365235,2|0,0:0|0:0,0:0:0:0:
57,195,267347,1,0,0:0:0:0:
57,195,267528,2,0,L|61:148,1,41.9999987182618,0|0,3:0|0:0,0:0:0:0:
54,34,267890,2,0,L|57:75,1,41.9999987182618,0|0,3:0|0:0,0:0:0:0:
130,111,268251,1,0,3:0:0:0:
200,78,268612,1,0,3:0:0:0:
259,131,268974,5,2,0:0:0:0:
259,131,269697,2,0,L|262:181,1,41.9999987182618
159,348,270058,6,0,P|156:314|147:265,1,70,4|0,3:0|0:0,0:0:0:0:
157,115,270420,2,0,P|154:149|145:198,1,70,8|0,1:2|0:0,0:0:0:0:
78,326,270781,1,2,0:0:0:0:
78,326,270962,1,0,0:0:0:0:
78,326,271143,6,0,P|72:273|60:206,1,105,2|0,3:2|0:0,0:0:0:0:
60,207,271504,2,0,L|131:198,1,70,2|0,3:2|0:0,0:0:0:0:
134,98,271865,2,0,L|63:89,1,70,8|0,1:2|0:0,0:0:0:0:
317,23,272227,1,2,0:0:0:0:
292,100,272408,1,0,0:0:0:0:
239,39,272588,5,2,0:0:0:0:
239,39,272950,2,0,P|246:93|252:160,1,105,2|0,0:0|0:0,0:0:0:0:
252,169,273311,2,0,L|345:182,1,70,8|0,1:2|0:0,0:0:0:0:
199,250,273673,2,0,L|106:263,1,70,2|0,0:0|3:0,0:0:0:0:
260,353,274034,5,2,0:0:0:0:
342,309,274215,1,0,3:0:0:0:
342,309,274396,2,0,L|416:301,1,70,2|0,3:2|0:0,0:0:0:0:
485,186,274757,2,0,B|468:166|459:141|459:141|458:168|442:202,1,105,8|0,1:2|0:0,0:0:0:0:
424,209,275118,2,0,P|390:198|397:162,1,70,2|0,0:0|0:0,0:0:0:0:
230,83,275480,6,0,B|247:63|256:38|256:38|257:65|273:99,1,105,2|0,0:0|0:0,0:0:0:0:
291,106,275841,2,0,P|325:95|318:59,1,70,0|0,3:0|0:0,0:0:0:0:
437,31,276203,1,8,1:2:0:0:
437,31,276564,1,2,0:0:0:0:
405,106,276745,1,0,3:3:0:0:
348,41,276926,5,2,0:0:0:0:
429,182,277106,1,0,3:3:0:0:
335,143,277287,2,0,P|343:181|350:252,1,105,2|0,3:2|0:0,0:0:0:0:
354,274,277649,2,0,L|275:283,1,70,8|0,1:2|0:0,0:0:0:0:
221,357,278010,6,0,L|109:345,1,105,2|0,0:0|0:0,0:0:0:0:
103,335,278371,2,0,P|98:301|88:261,1,70,2|0,0:0|0:0,0:0:0:0:
102,66,278733,2,0,P|97:100|87:140,1,70,0|0,3:0|0:0,0:0:0:0:
23,226,279094,2,0,P|62:229|134:239,1,105,8|0,1:2|0:0,0:0:0:0:
155,242,279456,1,2,0:0:0:0:
115,338,279637,6,0,P|84:340|40:346,1,70,0|0,3:0|0:0,0:0:0:0:
36,150,279998,1,0,3:0:0:0:
36,150,280179,2,0,P|67:148|111:142,1,70,2|0,3:2|0:0,0:0:0:0:
202,116,280540,1,8,0:0:0:0:
202,116,280721,1,0,3:0:0:0:
126,50,280902,1,2,0:0:0:0:
126,50,281082,1,0,3:0:0:0:
148,225,281263,6,0,P|194:229|269:241,1,105,0|0,3:0|0:0,0:0:0:0:
271,242,281624,2,0,P|285:292|290:326,1,70,2|0,3:2|0:0,0:0:0:0:
369,364,281986,2,0,P|376:318|383:285,1,70,8|0,0:0|0:0,0:0:0:0:
403,180,282347,1,2,0:0:0:0:
403,180,282528,1,0,3:0:0:0:
457,255,282709,5,2,0:0:0:0:
493,166,282890,1,0,3:0:0:0:
403,180,283070,2,0,P|396:144|393:95,1,70,2|0,3:2|0:0,0:0:0:0:
298,110,283432,2,0,P|294:144|288:179,1,70,8|0,0:0|0:0,0:0:0:0:
280,274,283793,2,0,P|333:277|404:286,1,105,2|0,0:0|0:0,0:0:0:0:
409,292,284155,5,2,0:0:0:0:
409,292,284516,2,0,L|401:367,1,70,2|0,3:2|0:0,0:0:0:0:
491,237,284877,1,8,1:2:0:0:
491,237,285239,1,2,0:0:0:0:
416,204,285420,1,0,3:0:0:0:
292,344,285600,6,0,P|258:355|217:339,1,70,0|0,3:0|0:0,0:0:0:0:
223,143,285962,2,0,P|257:132|298:148,1,70,2|0,3:2|0:0,0:0:0:0:
153,286,286323,2,0,P|142:252|158:211,1,70,8|0,1:2|0:0,0:0:0:0:
360,219,286685,2,0,P|369:253|359:286,1,70,2|0,3:2|0:0,0:0:0:0:
54,85,287046,6,0,P|93:84|204:58,1,140,2|0,0:0|3:0,0:0:0:0:
191,62,287769,2,0,L|199:145,1,70,8|0,1:2|0:0,0:0:0:0:
261,217,288131,1,2,0:0:0:0:
261,217,288311,1,0,0:0:0:0:
314,131,288492,6,0,L|321:62,1,70,2|0,0:0|0:0,0:0:0:0:
308,304,288853,2,0,P|256:315|198:304,1,105,0|0,3:0|0:0,0:0:0:0:
193,296,289215,1,8,1:2:0:0:
117,260,289396,1,0,3:0:0:0:
95,341,289576,2,0,L|17:356,1,70,2|0,0:0|3:0,0:0:0:0:
80,35,289938,6,0,P|126:41|166:147,1,140,0|2,3:0|3:2,0:0:0:0:
173,115,290661,2,0,L|168:200,1,70,8|0,1:2|0:0,0:0:0:0:
170,289,291022,5,2,0:0:0:0:
170,289,291067,1,2,0:0:0:0:
243,262,291203,1,8,1:2:0:0:
308,330,291384,5,2,0:0:0:0:
308,330,291429,2,0,L|369:342,1,52.5,2|0,0:0|0:0,0:0:0:0:
490,221,291745,2,0,P|454:231|476:182,1,105,0|0,1:0|0:0,0:0:0:0:
481,170,292106,1,8,0:0:0:0:
379,127,292287,1,0,3:0:0:0:
496,155,292468,1,2,0:0:0:0:
337,195,292649,1,0,3:0:0:0:
512,326,292829,6,0,P|446:336|362:353,1,140,0|2,3:0|3:2,0:0:0:0:
374,350,293552,2,0,L|363:266,1,70,8|0,1:2|0:0,0:0:0:0:
350,184,293914,1,2,0:0:0:0:
350,184,294094,1,0,3:0:0:0:
264,323,294275,5,2,0:0:0:0:
261,301,294365,1,0,0:0:0:0:
258,280,294455,1,0,3:0:0:0:
168,365,294637,2,0,L|160:277,1,70,0|0,3:3|0:0,0:0:0:0:
63,272,294998,5,8,1:2:0:0:
167,211,295179,1,0,3:0:0:0:
352,357,295359,5,2,0:0:0:0:
327,124,295540,1,0,3:0:0:0:
446,268,295721,5,2,0:0:0:0:
446,268,296444,2,0,P|362:269|232:286,1,210,2|0,0:0|0:0,0:0:0:0:
237,284,297890,2,0,L|231:328,1,35,2|0,0:0|0:0,0:0:0:0:
174,230,298251,2,0,L|169:195,1,35,2|0,0:0|0:0,0:0:0:0:
80,338,298612,5,0,0:0:0:0:
80,338,299426,6,0,P|79:273|70:216,1,122.5,2|0,0:0|0:0,0:0:0:0:
44,125,300215,2,0,L|-2:114,2,46.6666666666667
113,70,300847,5,2,0:0:0:0:
189,106,301233,1,2,0:0:0:0:
246,41,301504,2,0,P|241:110|241:188,1,140,2|0,0:0|0:0,0:0:0:0:
255,339,303673,5,2,0:0:0:0:
255,339,304396,2,0,P|184:347|111:361,1,140,2|0,0:0|0:0,0:0:0:0:
30,108,306574,1,2,0:0:0:0:
30,108,307287,6,0,P|101:100|183:261,1,280,2|0,0:0|0:0,0:0:0:0:
180,272,309094,1,2,3:2:0:0:
177,283,309456,1,2,3:2:0:0:
175,292,309817,1,2,3:2:0:0:
175,300,310179,6,0,P|124:305|66:315,1,105.000004005432,2|0,3:2|0:0,0:0:0:0:
34,169,310721,5,0,0:0:0:0:
34,169,310902,2,0,P|101:176|185:190,1,140,8|2,0:0|0:0,0:0:0:0:
303,25,311444,1,0,0:0:0:0:
303,25,311624,2,0,P|299:78|308:160,1,105,2|0,0:0|0:0,0:0:0:0:
312,155,311986,2,0,L|393:169,1,70
382,249,312347,2,0,L|301:263,1,70,8|0,0:0|0:0,0:0:0:0:
294,345,312709,2,2,L|426:361,1,105
431,361,313070,6,0,P|438:325|448:290,1,70,2|0,0:0|0:0,0:0:0:0:
421,94,313432,2,0,P|427:128|437:162,1,70,2|0,3:2|0:0,0:0:0:0:
501,227,313793,1,8,1:2:0:0:
501,227,314155,1,2,0:0:0:0:
365,192,314335,1,0,3:0:0:0:
191,350,314516,5,2,0:0:0:0:
371,283,314697,1,0,3:0:0:0:
105,291,314877,5,2,3:2:0:0:
105,291,315239,2,0,P|102:255|93:209,1,70,8|0,1:2|0:0,0:0:0:0:
16,136,315600,2,0,P|71:136|132:118,1,105,2|0,0:0|0:0,0:0:0:0:
137,112,315962,2,0,L|142:40,1,70,2|0,3:2|0:0,0:0:0:0:
246,210,316323,2,0,L|281:217,2,35,0|0|0,3:0|0:0|0:0,0:0:0:0:
105,291,316685,2,0,L|13:302,1,70,8|0,1:2|0:0,0:0:0:0:
182,359,317046,5,2,0:0:0:0:
258,298,317227,1,0,3:3:0:0:
175,343,317408,5,2,0:0:0:0:
340,326,317588,1,0,3:3:0:0:
171,246,317769,2,0,L|162:164,1,70,2|0,3:2|0:0,0:0:0:0:
77,116,318131,6,0,P|90:82|97:123,1,105,8|0,1:2|0:0,0:0:0:0:
66,151,318492,2,0,P|52:117|45:158,1,105,2|0,0:0|0:0,0:0:0:0:
51,282,318853,6,0,P|121:286|207:302,1,140,2|0,0:0|3:0,0:0:0:0:
190,298,319576,2,0,L|204:386,1,70,8|0,1:2|0:0,0:0:0:0:
270,267,319938,1,2,0:0:0:0:
270,267,320118,1,0,3:0:0:0:
127,184,320299,1,0,0:0:0:0:
314,93,320480,1,0,3:0:0:0:
203,44,320661,6,0,P|197:84|217:170,1,105,2|0,3:2|0:0,0:0:0:0:
214,168,321022,1,8,0:0:0:0:
314,93,321203,1,0,3:0:0:0:
358,202,321384,2,0,L|434:215,1,70,2|0,0:0|3:0,0:0:0:0:
454,344,321745,6,0,L|337:359,1,105,0|0,3:0|0:0,0:0:0:0:
327,357,322106,2,0,P|319:318|308:281,1,70,2|0,3:2|0:0,0:0:0:0:
160,175,322468,2,0,L|277:190,1,105,8|0,0:0|0:0,0:0:0:0:
287,188,322829,2,0,P|295:149|306:112,1,70,2|0,0:0|3:0,0:0:0:0:
350,36,323191,5,2,0:0:0:0:
383,183,323371,1,0,3:0:0:0:
480,78,323552,2,0,L|407:98,1,70,2|0,3:2|0:0,0:0:0:0:
304,271,323914,2,0,L|425:294,1,105,8|0,0:0|0:0,0:0:0:0:
430,295,324275,2,0,P|437:333|441:372,1,70,2|0,0:0|0:0,0:0:0:0:
90,56,324637,6,0,P|149:61|166:138,1,140,2|2,0:0|3:2,0:0:0:0:
169,130,325359,2,0,L|78:144,1,70,8|0,1:2|0:0,0:0:0:0:
20,151,325721,1,2,0:0:0:0:
70,214,325902,1,0,3:0:0:0:
253,47,326082,6,0,P|262:95|267:201,1,140,0|2,3:0|3:2,0:0:0:0:
267,185,326805,2,0,L|185:195,1,70,8|0,1:2|0:0,0:0:0:0:
370,115,327167,2,0,P|361:163|361:245,1,105,2|0,3:2|0:0,0:0:0:0:
365,245,327528,6,0,L|448:258,1,70,2|0,0:0|0:0,0:0:0:0:
442,351,327890,2,0,L|331:366,1,105,0|0,3:0|0:0,0:0:0:0:
321,362,328251,2,0,P|311:325|294:279,1,70,8|0,1:2|0:0,0:0:0:0:
250,220,328612,1,2,0:0:0:0:
207,297,328793,1,0,0:0:0:0:
142,236,328974,6,0,L|133:157,1,70,2|0,0:0|0:0,0:0:0:0:
73,76,329335,2,0,P|120:81|189:62,1,105,0|0,3:0|0:0,0:0:0:0:
207,54,329697,2,0,L|215:5,2,35,8|0|0,1:2|0:0|3:0,0:0:0:0:
190,147,330058,1,2,0:0:0:0:
274,123,330239,1,0,3:0:0:0:
312,206,330420,6,0,L|386:218,1,70,0|0,3:0|0:0,0:0:0:0:
481,144,330781,1,2,3:2:0:0:
481,144,331143,2,0,P|472:201|468:302,1,140,8|2,1:2|0:0,0:0:0:0:
466,371,331685,1,8,1:2:0:0:
379,159,331865,5,2,0:0:0:0:
342,229,332046,1,0,3:0:0:0:
287,169,332227,2,0,P|279:129|271:97,1,70,0|0,1:0|0:0,0:0:0:0:
115,95,332588,1,8,0:0:0:0:
199,143,332769,1,0,3:0:0:0:
36,220,332950,1,2,0:0:0:0:
114,192,333131,1,0,3:0:0:0:
214,283,333311,6,0,P|148:286|61:299,1,140,2|2,3:0|3:2,0:0:0:0:
80,318,334034,6,0,P|146:321|233:334,1,140,2|2,0:0|0:0,0:0:0:0:
219,349,334757,6,0,P|153:352|66:365,1,140,2|2,0:0|0:0,0:0:0:0:
79,362,335480,2,0,L|70:325,6,23.3333333333333,0|0|0|0|0|0|0,3:0|3:0|3:0|3:0|3:0|3:0|3:0,3:0:0:0:
136,279,336022,1,0,3:0:0:0:
61,252,336203,6,0,P|59:202|46:104,1,140,2|2,0:0|0:0,0:0:0:0:
47,112,336926,2,0,L|126:101,1,70,8|0,1:2|0:0,0:0:0:0:
252,62,337287,1,2,0:0:0:0:
171,25,337468,1,0,3:0:0:0:
220,163,337649,6,0,P|270:167|343:139,1,105,2|0,0:0|0:0,0:0:0:0:
340,141,338010,2,0,L|347:67,1,70,2|0,3:2|0:0,0:0:0:0:
473,344,338371,2,0,P|423:348|350:320,1,105,8|0,1:2|0:0,0:0:0:0:
353,322,338733,2,0,L|346:248,1,70,2|0,0:0|3:0,0:0:0:0:
434,38,339094,6,0,P|444:78|442:116,1,70,2|0,3:2|0:0,0:0:0:0:
244,123,339456,2,0,P|234:83|236:45,1,70,2|0,3:2|0:0,0:0:0:0:
218,219,339817,2,0,L|142:211,1,70,8|0,1:2|0:0,0:0:0:0:
297,293,340179,2,0,L|373:285,1,70,2|0,0:0|3:0,0:0:0:0:
229,366,340540,5,2,0:0:0:0:
229,366,340721,1,0,3:0:0:0:
314,198,340902,2,0,P|321:159|304:71,1,105,2|0,3:2|0:0,0:0:0:0:
307,78,341263,1,8,1:2:0:0:
239,151,341444,1,0,0:0:0:0:
114,52,341624,1,2,0:0:0:0:
114,52,341986,6,0,P|126:128|126:205,1,140,2|0,0:0|3:0,0:0:0:0:
126,190,342709,2,0,L|36:198,1,70,8|0,1:2|0:0,0:0:0:0:
142,278,343070,5,2,0:0:0:0:
58,299,343251,1,0,3:3:0:0:
209,144,343432,5,2,0:0:0:0:
256,358,343612,1,0,3:3:0:0:
306,147,343793,2,0,L|318:62,1,70,2|0,3:2|0:0,0:0:0:0:
381,236,344155,2,0,P|341:241|273:260,1,105,8|0,1:2|0:0,0:0:0:0:
264,273,344516,2,0,L|256:356,1,70,2|0,0:0|0:0,0:0:0:0:
45,60,344877,6,0,P|85:55|137:104,1,105,2|0,0:0|0:0,0:0:0:0:
135,109,345239,2,0,L|143:192,1,70,0|0,3:0|0:0,0:0:0:0:
161,357,345600,1,8,1:2:0:0:
161,357,345962,5,2,0:0:0:0:
227,313,346143,1,0,3:0:0:0:
401,350,346323,5,0,0:0:0:0:
176,249,346504,1,0,3:0:0:0:
352,113,346685,6,0,P|357:163|350:247,1,105,2|0,3:2|0:0,0:0:0:0:
354,234,347046,2,0,L|273:244,1,70,8|0,0:0|3:0,0:0:0:0:
280,341,347408,2,0,L|361:351,1,70,2|0,0:0|3:0,0:0:0:0:
142,109,347769,6,0,P|97:98|58:179,1,140,0|2,3:0|3:2,0:0:0:0:
79,248,348311,1,0,0:0:0:0:
79,248,348492,2,0,L|156:261,1,70,8|0,0:0|0:0,0:0:0:0:
163,344,348853,1,2,0:0:0:0:
82,356,349034,1,0,3:0:0:0:
251,191,349215,5,2,0:0:0:0:
291,260,349396,1,0,3:0:0:0:
340,199,349576,2,0,P|348:163|361:123,1,70,2|0,3:2|0:0,0:0:0:0:
437,183,349938,5,8,3:2:0:0:
244,99,350118,1,0,3:3:0:0:
340,199,350299,5,2,0:0:0:0:
221,279,350480,1,0,3:0:0:0:
129,34,350661,6,0,P|138:83|140:188,1,140,2|2,0:0|3:2,0:0:0:0:
141,172,351384,2,0,L|67:182,1,70,8|0,1:2|0:0,0:0:0:0:
57,101,351745,1,2,0:0:0:0:
226,63,351926,1,0,3:0:0:0:
40,265,352106,6,0,P|49:303|53:263,1,105,0|0,3:0|0:0,0:0:0:0:
95,341,352468,2,0,P|104:303|108:343,1,105,2|0,3:2|0:0,0:0:0:0:
148,254,352829,2,0,P|157:292|161:252,1,105,8|0,1:2|0:0,0:0:0:0:
203,330,353191,2,0,P|212:292|216:332,1,105,2|0,3:2|0:0,0:0:0:0:
319,358,353552,6,0,L|409:367,1,70,2|0,0:0|0:0,0:0:0:0:
490,245,353914,2,0,P|439:246|383:217,1,105,0|0,3:0|0:0,0:0:0:0:
386,210,354275,2,0,L|378:135,1,70,8|0,1:2|0:0,0:0:0:0:
370,41,354637,1,2,0:0:0:0:
370,41,354817,1,0,3:0:0:0:
289,184,354998,6,0,P|254:194|214:179,1,70,2|0,3:2|0:0,0:0:0:0:
222,42,355359,2,0,P|257:32|297:47,1,70,0|0,3:0|0:0,0:0:0:0:
258,350,355721,1,8,1:2:0:0:
206,254,355902,1,0,3:0:0:0:
259,368,356082,1,2,0:0:0:0:
384,306,356263,1,0,3:0:0:0:
172,348,356444,6,0,L|59:359,1,105,0|0,3:0|0:0,0:0:0:0:
52,358,356805,2,0,P|45:314|35:277,1,70,2|0,3:2|0:0,0:0:0:0:
12,193,357167,5,8,1:2:0:0:
12,193,357528,1,2,0:0:0:0:
96,163,357709,1,8,1:2:0:0:
207,337,357890,1,2,0:0:0:0:
300,129,358070,1,0,3:0:0:0:
93,254,358251,6,0,P|128:263|169:250,1,70,0|0,1:0|0:0,0:0:0:0:
154,60,358612,2,0,P|119:51|78:64,1,70,8|0,0:0|3:0,0:0:0:0:
270,230,358974,5,2,0:0:0:0:
122,171,359155,1,0,3:0:0:0:
284,342,359335,6,0,P|381:355|424:362,1,140,2|0,0:0|0:0,0:0:0:0:
422,361,361504,2,0,L|426:336,9,23.3333333333333,0|0|0|0|0|0|0|0|0|0,3:0|3:0|3:0|3:0|3:0|3:0|3:0|3:0|3:0|3:0,3:0:0:0:
