osu file format v14

[General]
AudioFilename: audio.mp3
AudioLeadIn: 0
PreviewTime: 159874
Countdown: 1
SampleSet: Soft
StackLeniency: 0.7
Mode: 0
LetterboxInBreaks: 0
WidescreenStoryboard: 0

[Editor]
Bookmarks: 4354,27394,56194,86914,121474,159874,182914,211714,244354,282754,305794,328834,351874,374914,397954,420994,451714
DistanceSpacing: 0.5
BeatDivisor: 8
GridSize: 32
TimelineZoom: 1.5

[Metadata]
Title:Let It Happen
TitleUnicode:Let It Happen
Artist:Tame Impala
ArtistUnicode:Tame Impala
Creator:Leader
Version:Insane
Source:
Tags:Senseabel Currents Kevin Parker Psychedelic Pop Synthpop Neo-Psychedelia English
BeatmapID:2604718
BeatmapSetID:1253339

[Difficulty]
HPDrainRate:6
CircleSize:4
OverallDifficulty:8
ApproachRate:8.5
SliderMultiplier:1.8
SliderTickRate:1

[Events]
//Background and Video events
0,0,"bg.jpeg",0,0
//Break Periods
2,104674,120799
//Storyboard Layer 0 (Background)
//Storyboard Layer 1 (Fail)
//Storyboard Layer 2 (Pass)
//Storyboard Layer 3 (Foreground)
//Storyboard Layer 4 (Overlay)
//Storyboard Sound Samples

[TimingPoints]
4354,480,4,2,0,70,1,0
27394,-100,4,2,0,70,0,0
48994,-133.333333333333,4,2,0,60,0,0
49474,-200,4,2,0,50,0,0
49954,-200,4,2,0,40,0,0
50434,-200,4,2,0,30,0,0
50914,-200,4,2,0,20,0,0
51394,-200,4,2,0,15,0,0
54274,-200,4,2,0,20,0,0
56194,-133.333333333333,4,2,0,40,0,0
86914,-100,4,2,0,70,0,0
126274,-133.333333333333,4,2,0,60,0,0
127234,-200,4,2,0,50,0,0
128194,-200,4,2,0,40,0,0
129154,-133.333333333333,4,2,0,50,0,0
159394,-133.333333333333,4,2,0,5,0,0
159874,-100,4,2,0,70,0,0
244354,-133.333333333333,4,2,0,70,0,0
281314,-100,4,2,0,70,0,0
328714,-100,4,2,0,5,0,0
328834,-80,4,2,0,70,0,0
374794,-80,4,2,0,5,0,0
374914,-80,4,2,0,70,0,0
397954,-80,4,2,0,70,0,1
420754,-80,4,2,0,70,0,0
420994,-80,4,2,0,70,0,1
451714,-80,4,2,0,80,0,0
452674,-80,4,2,0,70,0,0
453634,-80,4,2,0,60,0,0
454594,-80,4,2,0,50,0,0
455554,-80,4,2,0,40,0,0
456514,-80,4,2,0,30,0,0
457474,-80,4,2,0,20,0,0
458434,-80,4,2,0,10,0,0
459394,-80,4,2,0,5,0,0

[Colours]
Combo1 : 0,255,64
Combo2 : 255,128,64
Combo3 : 0,255,128
Combo4 : 254,74,65

[HitObjects]
92,90,4354,6,0,P|103:135|111:199,1,90,4|2,3:0|0:0,0:0:0:0:
70,344,4834,1,8,0:0:0:0:
249,213,5074,1,2,0:0:0:0:
249,213,5194,1,0,0:0:0:0:
249,213,5314,2,0,P|263:247|270:268,1,45,0|0,1:0|0:0,0:0:0:0:
291,337,5554,1,2,0:0:0:0:
423,216,5794,2,0,L|430:108,1,90,8|0,0:0|0:0,0:0:0:0:
101,39,6274,6,0,P|88:102|112:165,1,90,2|0,0:0|0:0,0:0:0:0:
168,252,6754,1,8,0:0:0:0:
168,252,6874,2,0,L|56:267,1,90,2|0,0:0|0:0,0:0:0:0:
15,315,7234,1,0,1:0:0:0:
239,178,7474,1,2,0:0:0:0:
239,178,7594,1,0,0:0:0:0:
239,178,7714,2,0,P|253:239|255:288,1,90,8|0,0:0|0:0,0:0:0:0:
261,347,8074,5,0,3:0:0:0:
261,347,8134,1,0,3:0:0:0:
261,347,8194,2,0,L|365:363,1,90,0|2,3:0|0:0,0:0:0:0:
487,207,8674,2,0,L|398:220,1,90,8|2,0:0|0:0,0:0:0:0:
331,253,8994,1,0,3:0:0:0:
327,224,9074,1,0,3:0:0:0:
328,199,9154,1,0,1:0:0:0:
447,52,9394,1,2,0:0:0:0:
250,158,9634,2,0,P|198:168|141:174,1,90,8|4,0:0|0:0,0:0:0:0:
40,39,10114,6,0,P|50:82|56:136,1,90,4|2,3:0|0:0,0:0:0:0:
51,330,10594,2,0,L|162:339,1,90,8|2,0:0|0:0,0:0:0:0:
191,274,10954,1,0,0:0:0:0:
236,341,11074,1,0,1:0:0:0:
236,341,11314,1,2,0:0:0:0:
354,236,11554,1,8,0:0:0:0:
429,361,11794,1,0,0:0:0:0:
354,236,12034,6,0,P|355:185|370:117,1,90,2|2,0:0|0:0,0:0:0:0:
459,184,12514,1,8,0:0:0:0:
271,315,12754,2,0,L|204:324,1,45,2|0,0:0|0:0,0:0:0:0:
149,358,12994,1,0,1:0:0:0:
77,308,13114,2,0,P|68:275|58:238,2,45,0|2|0,0:0|0:0|0:0,0:0:0:0:
189,211,13474,2,0,L|197:108,1,90,8|0,0:0|0:0,0:0:0:0:
195,121,13794,5,0,3:0:0:0:
222,133,13874,1,0,3:0:0:0:
246,136,13954,1,0,3:0:0:0:
237,36,14194,1,2,0:0:0:0:
291,217,14434,2,0,L|390:234,1,90,8|2,0:0|0:0,0:0:0:0:
443,183,14794,1,0,0:0:0:0:
443,183,14854,1,0,0:0:0:0:
443,183,14914,2,0,P|453:246|436:296,1,90,0|2,1:0|0:0,0:0:0:0:
399,339,15274,1,0,0:0:0:0:
322,297,15394,1,8,0:0:0:0:
322,297,15634,2,0,P|301:323|289:337,1,45,4|0,0:0|0:0,0:0:0:0:
214,363,15874,6,0,L|111:375,1,90,4|2,3:0|0:0,0:0:0:0:
111,261,16354,2,0,P|91:256|58:243,3,45,8|0|2|0,0:0|0:0|0:0|0:0,0:0:0:0:
185,201,16834,2,0,P|205:196|238:183,3,45,0|0|2|0,1:0|0:0|0:0|0:0,0:0:0:0:
102,142,17314,2,0,L|96:88,1,45,8|0,0:0|0:0,0:0:0:0:
89,15,17554,1,0,0:0:0:0:
236,349,17794,6,0,L|340:364,1,90,2|2,0:0|0:0,0:0:0:0:
479,272,18274,1,8,0:0:0:0:
356,152,18514,1,2,0:0:0:0:
356,152,18634,1,0,0:0:0:0:
356,152,18754,2,0,L|367:251,1,90,0|2,1:0|0:0,0:0:0:0:
271,363,19234,2,0,P|254:323|273:251,1,90,8|2,0:0|0:0,0:0:0:0:
258,277,19594,5,0,3:0:0:0:
236,288,19654,1,0,3:0:0:0:
211,290,19714,1,0,3:0:0:0:
230,196,19954,1,2,0:0:0:0:
102,359,20194,1,8,0:0:0:0:
53,149,20434,5,2,0:0:0:0:
53,149,20514,1,0,3:0:0:0:
53,149,20594,1,0,3:0:0:0:
53,149,20674,1,0,1:0:0:0:
114,231,20914,1,2,0:0:0:0:
150,134,21154,1,8,0:0:0:0:
229,269,21394,6,0,L|222:332,1,45,4|0,0:0|0:0,0:0:0:0:
293,329,21634,6,0,L|192:346,1,90,4|2,3:0|0:0,0:0:0:0:
47,180,22114,2,0,L|148:197,1,90,8|2,0:0|0:0,0:0:0:0:
219,206,22474,1,0,0:0:0:0:
187,127,22594,1,0,1:0:0:0:
187,127,22834,1,2,0:0:0:0:
61,273,23074,1,8,0:0:0:0:
61,273,23314,1,2,0:0:0:0:
252,318,23554,6,0,L|344:334,1,90,2|2,0:0|0:0,0:0:0:0:
460,241,24034,1,8,0:0:0:0:
460,241,24154,2,0,P|453:194|463:132,1,90
487,119,24514,2,0,L|379:138,1,90,0|2,1:0|0:0,0:0:0:0:
173,57,24994,2,0,L|281:76,1,90,8|2,0:0|0:0,0:0:0:0:
334,24,25354,5,0,3:0:0:0:
334,24,25414,1,0,3:0:0:0:
334,24,25474,2,0,P|342:68|335:112,1,90,0|2,3:0|0:0,0:0:0:0:
288,299,25954,1,8,0:0:0:0:
102,214,26194,1,2,0:0:0:0:
204,251,26314,5,0,3:0:0:0:
204,251,26374,1,0,3:0:0:0:
204,251,26434,2,2,P|196:295|203:339,1,90,0|2,1:0|0:0,0:0:0:0:
287,198,26914,1,8,0:0:0:0:
114,321,27154,1,4,0:0:0:0:
41,80,27394,5,4,3:0:0:0:
99,27,27634,1,2,0:0:0:0:
180,40,27874,1,8,0:0:0:0:
180,40,27994,1,0,0:0:0:0:
180,40,28114,1,2,0:0:0:0:
25,4,28354,5,0,1:0:0:0:
151,162,28594,1,0,0:0:0:0:
303,44,28834,2,0,B|276:114|325:110|297:182,1,135,8|0,0:0|0:0,0:0:0:0:
366,214,29314,2,0,L|473:204,1,90,2|2,0:0|0:0,0:0:0:0:
272,352,29794,2,0,B|260:309|260:309|274:250,1,90,8|2,0:0|0:0,0:0:0:0:
173,144,30154,5,0,0:0:0:0:
119,199,30274,2,0,L|12:209,1,90,0|0,1:0|0:0,0:0:0:0:
29,207,30754,5,8,0:0:0:0:
483,177,31114,5,0,3:0:0:0:
483,177,31174,1,0,3:0:0:0:
483,177,31234,2,0,P|484:127|491:73,1,90,2|2,0:0|0:0,0:0:0:0:
346,207,31714,2,0,P|395:219|420:256,1,90,8|0,0:0|0:0,0:0:0:0:
511,266,32034,5,0,3:0:0:0:
493,293,32114,1,0,3:0:0:0:
496,325,32194,1,0,1:0:0:0:
299,351,32434,5,2,0:0:0:0:
232,213,32674,2,0,P|237:258|237:303,1,90,8|4,0:0|0:0,0:0:0:0:
90,367,33154,6,0,L|-20:373,1,90,4|2,3:0|0:0,0:0:0:0:
65,143,33634,2,0,B|50:185|50:185|65:233,1,90,8|2,0:0|0:0,0:0:0:0:
97,296,33994,1,0,0:0:0:0:
97,296,34114,1,0,1:0:0:0:
236,199,34354,5,0,0:0:0:0:
187,384,34594,1,8,0:0:0:0:
388,350,34834,5,0,3:0:0:0:
340,295,34954,1,0,3:0:0:0:
377,233,35074,2,0,B|459:222|428:274|516:261,1,135,2|0,3:2|0:0,0:0:0:0:
479,335,35554,1,8,0:0:0:0:
419,161,35794,1,2,0:0:0:0:
494,180,35914,1,0,0:0:0:0:
494,180,36034,2,0,P|498:132|485:85,1,90,0|0,1:0|0:0,0:0:0:0:
488,91,36514,5,8,0:0:0:0:
23,114,36874,5,0,3:0:0:0:
23,114,36934,1,0,3:0:0:0:
23,114,36994,2,0,P|19:162|32:209,1,90,2|2,0:0|0:0,0:0:0:0:
148,332,37474,5,8,0:0:0:0:
107,264,37714,1,0,3:0:0:0:
107,264,37794,1,0,3:0:0:0:
107,264,37874,1,0,3:0:0:0:
107,264,37954,1,0,3:0:0:0:
249,95,38194,5,2,0:0:0:0:
186,263,38434,1,8,0:0:0:0:
281,376,38674,6,0,L|287:313,1,45
346,284,38914,2,0,L|452:259,1,90,4|2,3:0|0:0,0:0:0:0:
512,130,39394,5,8,0:0:0:0:
406,61,39634,2,0,L|398:6,1,45
487,53,39874,5,0,1:0:0:0:
382,176,40114,1,0,0:0:0:0:
251,80,40354,1,8,0:0:0:0:
329,37,40594,5,0,0:0:0:0:
329,37,40714,1,0,0:0:0:0:
329,37,40834,2,0,P|336:95|331:148,1,90,2|2,0:0|0:0,0:0:0:0:
178,169,41314,2,0,P|171:111|176:58,1,90,8|2,0:0|0:0,0:0:0:0:
258,107,41674,1,0,0:0:0:0:
258,107,41794,1,0,1:0:0:0:
136,311,42034,5,0,0:0:0:0:
376,276,42274,1,8,0:0:0:0:
31,208,42634,5,0,3:0:0:0:
31,208,42694,1,0,3:0:0:0:
31,208,42754,2,0,L|26:117,1,90,2|2,0:0|0:0,0:0:0:0:
133,288,43234,5,8,0:0:0:0:
219,263,43474,1,2,0:0:0:0:
233,262,43554,1,0,0:0:0:0:
247,260,43634,1,0,0:0:0:0:
261,258,43714,1,0,1:0:0:0:
151,172,43954,5,0,0:0:0:0:
257,341,44194,1,8,0:0:0:0:
417,226,44434,6,0,P|387:222|360:224,1,45
329,288,44674,2,0,B|353:220|302:223|341:127,1,135,4|0,3:0|0:0,0:0:0:0:
263,124,45154,1,8,0:0:0:0:
161,249,45394,5,2,0:0:0:0:
161,249,45514,1,0,0:0:0:0:
233,216,45634,1,0,1:0:0:0:
162,351,45874,1,0,0:0:0:0:
61,236,46114,1,8,0:0:0:0:
0,287,46354,5,0,0:0:0:0:
223,296,46594,2,0,B|198:228|249:231|210:135,1,135,2|0,0:0|0:0,0:0:0:0:
289,132,47074,1,8,0:0:0:0:
391,257,47314,5,2,0:0:0:0:
391,257,47434,1,0,0:0:0:0:
319,224,47554,1,0,1:0:0:0:
390,359,47794,1,0,0:0:0:0:
491,244,48034,1,8,0:0:0:0:
135,78,48394,5,0,3:0:0:0:
135,78,48454,1,0,3:0:0:0:
135,78,48514,2,0,L|23:86,1,90,2|0,3:2|0:0,0:0:0:0:
132,167,48994,6,0,L|53:172,1,67.5000025749208,4|0,0:0|0:0,0:0:0:0:
130,254,49314,5,0,3:0:0:0:
130,254,49394,1,0,3:0:0:0:
130,254,49474,2,0,L|85:257,1,45,4|0,3:0|0:0,0:0:0:0:
113,329,49954,5,8,0:0:0:0:
117,333,50194,1,4,0:0:0:0:
190,307,50434,5,0,0:0:0:0:
117,333,50674,5,0,0:0:0:0:
117,333,50914,1,0,0:0:0:0:
190,307,51154,5,4,0:0:0:0:
117,333,51394,5,0,0:0:0:0:
117,333,51634,1,0,0:0:0:0:
190,307,51874,5,0,0:0:0:0:
190,307,52354,5,0,0:0:0:0:
117,333,52594,5,0,0:0:0:0:
117,333,52834,1,0,0:0:0:0:
190,307,53314,5,0,0:0:0:0:
117,333,53554,5,0,0:0:0:0:
117,333,53794,1,0,0:0:0:0:
117,333,54274,5,0,0:0:0:0:
117,333,54754,5,0,0:0:0:0:
59,271,55074,5,0,0:0:0:0:
74,262,55154,1,0,0:0:0:0:
90,255,55234,1,0,0:0:0:0:
190,307,55474,5,0,0:0:0:0:
117,333,55714,5,0,0:0:0:0:
117,333,56194,6,0,P|110:253|96:176,1,135.000005149842,4|2,3:0|0:0,0:0:0:0:
207,61,57154,2,0,P|280:54|321:113,1,135.000005149842,2|2,0:0|0:0,0:0:0:0:
415,333,58114,6,0,P|375:338|321:348,1,67.5000025749208,2|0,0:0|0:0,0:0:0:0:
237,214,58594,2,0,P|270:219|303:224,1,67.5000025749208,2|0,0:0|0:0,0:0:0:0:
426,147,59074,1,2,0:0:0:0:
426,147,59314,1,0,0:0:0:0:
426,147,59554,2,0,P|414:204|406:244,1,67.5000025749208,2|0,0:0|0:0,0:0:0:0:
381,292,59914,5,0,0:0:0:0:
381,292,59974,1,0,0:0:0:0:
381,292,60034,2,0,P|345:298|311:307,1,67.5000025749208,2|0,0:0|0:0,0:0:0:0:
132,165,60514,2,0,P|180:166|202:225,1,101.250003862381,2|0,0:0|0:0,0:0:0:0:
209,234,60994,2,0,L|214:318,1,67.5000025749208,2|0,0:0|0:0,0:0:0:0:
297,180,61474,2,0,L|301:112,1,67.5000025749208,2|0,0:0|0:0,0:0:0:0:
454,296,61954,6,0,P|403:295|358:329,1,101.250003862381,2|0,0:0|0:0,0:0:0:0:
352,342,62434,2,0,L|262:356,1,67.5000025749208,2|0,0:0|0:0,0:0:0:0:
201,365,62914,1,2,0:0:0:0:
250,283,63154,1,0,0:0:0:0:
161,274,63394,2,0,P|153:236|157:192,1,67.5000025749208,2|0,0:0|0:0,0:0:0:0:
181,132,63754,5,0,0:0:0:0:
181,132,63874,2,0,L|260:120,1,67.5000025749208,2|0,0:0|0:0,0:0:0:0:
431,40,64354,2,0,P|417:96|416:149,1,101.250003862381,2|0,0:0|0:0,0:0:0:0:
424,172,64834,6,0,L|345:185,1,67.5000025749208,2|0,0:0|0:0,0:0:0:0:
121,37,65314,2,0,P|156:66|158:130,1,101.250003862381,2|0,0:0|0:0,0:0:0:0:
150,153,65794,2,0,L|70:168,1,67.5000025749208,2|0,0:0|0:0,0:0:0:0:
45,326,66274,6,0,B|112:314|112:357|190:340,1,135.000005149842,2|2,0:0|0:0,0:0:0:0:
298,310,66994,1,0,0:0:0:0:
298,310,67234,1,2,0:0:0:0:
382,364,67474,1,0,0:0:0:0:
466,304,67594,5,0,0:0:0:0:
466,304,67654,1,0,0:0:0:0:
466,304,67714,2,0,L|475:163,1,135.000005149842,2|2,0:0|0:0,0:0:0:0:
277,57,68674,1,2,0:0:0:0:
320,143,68914,1,0,0:0:0:0:
220,129,69154,2,0,P|179:137|147:145,1,67.5000025749208,2|0,0:0|0:0,0:0:0:0:
81,214,69634,6,0,P|65:163|82:75,1,135.000005149842,2|2,0:0|0:0,0:0:0:0:
177,336,70594,1,2,0:0:0:0:
242,273,70834,1,0,0:0:0:0:
264,359,71074,2,0,L|337:367,1,67.5000025749208,2|0,0:0|0:0,0:0:0:0:
402,330,71434,5,0,0:0:0:0:
402,330,71554,2,0,P|414:282|403:192,1,135.000005149842,2|2,0:0|0:0,0:0:0:0:
81,90,72514,2,0,L|87:163,1,67.5000025749208,2|0,0:0|0:0,0:0:0:0:
93,254,72994,1,2,0:0:0:0:
183,205,73234,1,0,0:0:0:0:
301,330,73474,6,0,B|368:315|369:361|447:341,1,135.000005149842,2|0,0:0|0:0,0:0:0:0:
392,12,74434,1,2,0:0:0:0:
331,69,74674,1,0,0:0:0:0:
412,93,74914,1,2,0:0:0:0:
252,102,75154,1,0,0:0:0:0:
331,156,75274,5,0,0:0:0:0:
331,156,75334,1,0,0:0:0:0:
331,156,75394,2,0,P|340:212|342:258,1,101.250003862381,2|0,0:0|0:0,0:0:0:0:
345,327,75874,2,0,L|419:338,1,67.5000025749208,2|0,0:0|0:0,0:0:0:0:
250,285,76354,1,2,0:0:0:0:
188,357,76594,1,0,0:0:0:0:
105,304,76834,2,0,P|93:251|109:175,1,101.250003862381,2|0,0:0|0:0,0:0:0:0:
121,176,77314,6,0,L|188:163,1,67.5000025749208,2|0,0:0|0:0,0:0:0:0:
315,275,77794,2,0,P|280:263|247:237,1,67.5000025749208,2|0,0:0|0:0,0:0:0:0:
325,78,78274,2,0,L|335:161,1,67.5000025749208,2|0,0:0|0:0,0:0:0:0:
424,356,78754,2,0,L|432:288,1,67.5000025749208,2|0,0:0|0:0,0:0:0:0:
491,216,79114,5,0,0:0:0:0:
491,216,79234,2,0,P|450:218|384:180,1,101.250003862381,2|0,0:0|0:0,0:0:0:0:
447,69,79714,2,0,L|456:145,1,67.5000025749208,2|0,0:0|0:0,0:0:0:0:
410,336,80194,2,0,L|298:354,1,101.250003862381,2|0,0:0|0:0,0:0:0:0:
91,254,80674,2,0,L|203:272,1,101.250003862381,2|0,0:0|0:0,0:0:0:0:
256,192,81154,5,2,0:0:0:0:
256,192,81634,1,2,0:0:0:0:
338,294,81874,5,0,0:0:0:0:
344,307,81994,1,2,0:0:0:0:
174,294,82234,1,2,0:0:0:0:
168,307,82354,1,0,0:0:0:0:
94,267,82594,5,2,0:0:0:0:
257,191,82834,1,0,0:0:0:0:
257,191,82954,1,0,0:0:0:0:
257,191,83074,1,2,0:0:0:0:
332,257,83314,1,2,0:0:0:0:
256,374,83554,1,2,0:0:0:0:
332,257,83794,5,2,0:0:0:0:
335,242,83914,1,0,0:0:0:0:
180,257,84154,1,0,0:0:0:0:
177,242,84274,1,2,0:0:0:0:
256,37,84514,1,2,0:0:0:0:
256,192,84754,1,0,0:0:0:0:
257,353,84994,5,2,0:0:0:0:
256,192,85114,12,8,86434,0:0:0:0:
152,170,86914,6,0,P|147:132|154:73,1,90,4|2,3:0|0:0,0:0:0:0:
350,44,87394,2,0,P|354:81|348:141,1,90,8|2,0:0|0:0,0:0:0:0:
403,189,87754,1,0,0:0:0:0:
401,264,87874,2,0,P|449:259|498:266,1,90,0|0,1:0|0:0,0:0:0:0:
302,340,88354,5,8,0:0:0:0:
302,340,88594,1,0,0:0:0:0:
360,170,88834,6,0,P|364:132|358:73,1,90,0|2,0:0|0:0,0:0:0:0:
162,44,89314,2,0,P|157:81|164:141,1,90,8|2,0:0|0:0,0:0:0:0:
109,189,89674,1,0,0:0:0:0:
111,264,89794,2,0,P|63:259|14:266,1,90,0|0,1:0|0:0,0:0:0:0:
210,340,90274,1,8,0:0:0:0:
388,184,90634,5,0,0:0:0:0:
388,184,90694,1,0,0:0:0:0:
388,184,90754,2,0,B|397:132|382:61,1,90,0|2,0:0|0:0,0:0:0:0:
239,53,91234,2,0,L|246:-3,2,45,8|0|2,0:0|0:0|0:0,0:0:0:0:
191,117,91554,1,0,0:0:0:0:
164,119,91634,1,0,0:0:0:0:
138,109,91714,1,0,1:0:0:0:
227,243,91954,1,2,0:0:0:0:
388,184,92194,1,8,0:0:0:0:
141,235,92434,6,0,P|104:260|96:299,1,45,4|0,0:0|0:0,0:0:0:0:
167,307,92674,2,0,P|212:323|267:330,1,90,4|2,3:0|0:0,0:0:0:0:
308,149,93154,2,0,P|263:156|221:171,1,90,8|2,0:0|0:0,0:0:0:0:
337,281,93514,1,0,0:0:0:0:
389,226,93634,2,0,P|397:168|389:114,1,90,0|0,1:0|0:0,0:0:0:0:
468,318,94114,5,8,0:0:0:0:
468,318,94354,1,0,0:0:0:0:
452,81,94594,6,0,P|406:64|352:58,1,90,0|2,0:0|0:0,0:0:0:0:
231,223,95074,2,0,P|275:215|317:200,1,90,8|2,0:0|0:0,0:0:0:0:
201,90,95434,1,0,0:0:0:0:
149,146,95554,2,0,P|141:204|149:258,1,90,0|2,1:0|0:0,0:0:0:0:
62,95,96034,1,8,0:0:0:0:
249,157,96394,5,0,0:0:0:0:
249,157,96454,1,0,0:0:0:0:
249,157,96514,2,0,P|241:101|242:62,1,90,0|2,0:0|0:0,0:0:0:0:
318,105,96874,1,0,0:0:0:0:
393,135,96994,2,0,P|393:90|386:45,1,90,8|2,0:0|0:0,0:0:0:0:
429,201,97314,1,0,3:0:0:0:
402,214,97394,1,0,3:0:0:0:
372,211,97474,1,0,1:0:0:0:
497,281,97714,1,2,0:0:0:0:
489,137,97954,1,8,0:0:0:0:
400,365,98194,6,0,L|333:378,1,45,4|0,0:0|0:0,0:0:0:0:
279,339,98434,2,0,P|291:277|261:217,1,90,4|2,3:0|0:0,0:0:0:0:
203,100,98914,2,0,P|191:162|221:222,1,90,8|2,0:0|0:0,0:0:0:0:
276,149,99274,1,0,0:0:0:0:
347,196,99394,2,0,L|459:204,1,90,0|2,1:0|0:0,0:0:0:0:
279,339,99874,1,8,0:0:0:0:
279,339,100114,1,0,0:0:0:0:
203,100,100354,6,0,P|191:162|221:222,1,90,0|2,0:0|0:0,0:0:0:0:
279,339,100834,2,0,P|291:277|261:217,1,90,8|2,0:0|0:0,0:0:0:0:
191,292,101194,1,0,0:0:0:0:
135,243,101314,2,0,L|68:235,1,45,0|0,1:0|0:0,0:0:0:0:
135,243,101554,1,2,0:0:0:0:
206,378,101794,1,8,0:0:0:0:
328,92,102154,5,0,0:0:0:0:
328,92,102214,1,0,0:0:0:0:
328,92,102274,1,2,0:0:0:0:
190,24,102514,1,2,0:0:0:0:
120,195,102754,5,8,0:0:0:0:
248,143,102994,1,2,0:0:0:0:
245,166,103074,1,0,3:0:0:0:
248,189,103154,1,0,3:0:0:0:
255,211,103234,1,0,3:0:0:0:
302,352,103474,5,2,0:0:0:0:
342,178,103714,1,8,0:0:0:0:
463,184,103954,6,0,P|478:236|462:284,1,90,4|0,0:0|0:0,0:0:0:0:
71,99,121474,6,0,P|82:144|90:208,1,90,4|2,3:0|0:0,0:0:0:0:
70,344,121954,1,8,0:0:0:0:
249,213,122194,1,2,0:0:0:0:
249,213,122314,1,0,0:0:0:0:
341,335,122554,1,0,0:0:0:0:
341,335,122674,1,2,0:0:0:0:
445,240,122914,2,0,P|446:190|452:132,1,90,8|0,0:0|0:0,0:0:0:0:
466,61,123394,5,0,0:0:0:0:
466,61,123634,1,2,0:0:0:0:
306,169,123874,1,8,0:0:0:0:
306,169,124114,1,2,0:0:0:0:
147,62,124354,2,0,P|161:124|165:177,1,90,0|0,1:0|0:0,0:0:0:0:
146,368,124834,2,0,P|151:323|162:279,1,90,8|0,0:0|0:0,0:0:0:0:
261,347,125194,5,0,3:0:0:0:
261,347,125254,1,0,3:0:0:0:
261,347,125314,2,0,L|365:363,1,90,0|2,3:0|0:0,0:0:0:0:
481,270,125794,2,0,L|392:283,1,90,8|4,0:0|0:0,0:0:0:0:
262,214,126274,6,0,L|334:224,1,67.5000025749208,4|2,3:0|0:0,0:0:0:0:
455,160,126754,2,0,L|383:170,1,67.5000025749208,8|2,0:0|3:0,0:0:0:0:
290,88,127234,6,0,L|339:97,1,45,2|2,0:0|0:0,0:0:0:0:
399,76,127714,2,0,L|354:84,1,45,8|2,0:0|3:0,0:0:0:0:
316,13,128074,5,0,0:0:0:0:
316,13,128194,1,2,0:0:0:0:
373,182,128434,1,2,0:0:0:0:
399,76,128674,5,8,0:0:0:0:
305,116,128914,1,2,3:0:0:0:
408,343,129154,6,0,P|344:342|269:351,1,135.000005149842,4|2,3:0|0:0,0:0:0:0:
75,223,130114,2,0,P|139:224|185:166,1,135.000005149842,2|2,0:0|0:0,0:0:0:0:
183,173,131074,6,0,L|171:79,2,67.5000025749208,2|0|2,0:0|0:0|0:0,0:0:0:0:
255,304,132034,2,0,L|246:370,2,67.5000025749208,2|0|2,0:0|0:0|0:0,0:0:0:0:
442,174,132994,1,2,0:0:0:0:
442,174,133474,1,2,0:0:0:0:
442,174,133954,2,0,L|435:267,1,67.5000025749208,2|0,0:0|0:0,0:0:0:0:
360,358,134434,2,0,L|354:290,1,67.5000025749208,2|0,0:0|0:0,0:0:0:0:
270,216,134914,6,0,P|219:215|174:249,1,101.250003862381,2|0,0:0|0:0,0:0:0:0:
168,262,135394,2,0,L|78:276,1,67.5000025749208,2|0,0:0|0:0,0:0:0:0:
20,161,135874,2,0,L|101:174,1,67.5000025749208,2|0,0:0|0:0,0:0:0:0:
204,83,136354,2,0,L|114:97,1,67.5000025749208,2|0,0:0|0:0,0:0:0:0:
308,153,136834,5,2,0:0:0:0:
308,153,137314,1,2,0:0:0:0:
308,153,137794,2,0,L|317:237,1,67.5000025749208,2|0,0:0|0:0,0:0:0:0:
400,355,138274,2,0,L|408:282,1,67.5000025749208,2|0,0:0|0:0,0:0:0:0:
466,66,138754,6,0,P|422:71|406:146,1,101.250003862381,2|0,0:0|0:0,0:0:0:0:
399,141,139234,2,0,L|326:153,1,67.5000025749208,2|0,0:0|0:0,0:0:0:0:
194,60,139714,1,2,0:0:0:0:
194,60,139954,1,0,0:0:0:0:
194,60,140194,2,0,P|206:99|215:139,1,67.5000025749208,2|0,0:0|0:0,0:0:0:0:
257,344,140674,6,0,P|308:346|407:355,1,135.000005149842,2|2,0:0|0:0,0:0:0:0:
472,90,141634,1,2,0:0:0:0:
472,90,141874,1,0,0:0:0:0:
472,90,142114,2,0,L|466:169,1,67.5000025749208,2|0,0:0|0:0,0:0:0:0:
436,239,142594,6,0,P|396:257|324:210,1,135.000005149842,2|2,0:0|0:0,0:0:0:0:
303,139,143314,1,0,0:0:0:0:
303,139,143554,2,0,L|294:278,1,135.000005149842,2|2,0:0|0:0,0:0:0:0:
196,340,144454,5,0,3:0:0:0:
196,340,144514,2,0,L|116:348,1,67.5000025749208,2|0,0:0|0:0,0:0:0:0:
12,232,144994,2,0,L|96:240,1,67.5000025749208,2|0,0:0|0:0,0:0:0:0:
209,138,145474,1,2,0:0:0:0:
209,138,145714,1,0,0:0:0:0:
209,138,145954,2,0,L|129:146,1,67.5000025749208,2|0,0:0|0:0,0:0:0:0:
79,351,146434,6,0,P|71:287|56:211,2,135.000005149842,2|2|2,0:0|0:0|0:0,0:0:0:0:
186,262,147634,1,0,0:0:0:0:
267,353,147874,2,0,L|336:361,1,67.5000025749208,2|0,0:0|0:0,0:0:0:0:
481,205,148354,6,0,P|417:211|384:292,2,135.000005149842,2|2|2,0:0|0:0|0:0,0:0:0:0:
463,291,149554,1,0,0:0:0:0:
391,345,149794,2,0,L|317:354,1,67.5000025749208,2|0,0:0|0:0,0:0:0:0:
98,301,150274,5,2,0:0:0:0:
184,335,150514,1,0,0:0:0:0:
98,301,150754,2,0,L|92:210,1,67.5000025749208,2|0,0:0|0:0,0:0:0:0:
268,203,151234,5,2,0:0:0:0:
182,237,151474,1,0,0:0:0:0:
268,203,151714,2,0,L|274:112,1,67.5000025749208,2|0,0:0|0:0,0:0:0:0:
328,73,152074,5,0,0:0:0:0:
328,73,152194,2,0,P|283:83|191:89,1,135.000005149842,2|2,0:0|0:0,0:0:0:0:
205,99,153154,5,2,0:0:0:0:
205,99,153394,1,0,0:0:0:0:
205,99,153634,2,0,L|195:190,1,67.5000025749208,8|0,0:0|0:0,0:0:0:0:
315,102,154114,1,2,0:0:0:0:
315,102,154354,1,0,0:0:0:0:
315,102,154594,2,0,L|325:193,1,67.5000025749208,8|0,0:0|0:0,0:0:0:0:
144,279,155074,5,2,0:0:0:0:
144,279,155314,1,0,0:0:0:0:
144,279,155554,2,0,L|134:370,1,67.5000025749208,8|0,0:0|0:0,0:0:0:0:
367,284,156034,1,2,0:0:0:0:
367,284,156274,1,0,0:0:0:0:
367,284,156514,2,0,L|377:375,1,67.5000025749208,8|0,0:0|0:0,0:0:0:0:
256,188,156994,5,2,0:0:0:0:
367,284,157234,1,0,0:0:0:0:
445,61,157474,2,0,P|458:112|462:152,1,67.5000025749208,8|0,0:0|0:0,0:0:0:0:
462,155,157834,1,0,0:0:0:0:
462,155,157954,1,2,0:0:0:0:
218,142,158194,1,2,0:0:0:0:
297,47,158434,1,8,0:0:0:0:
444,254,158674,1,2,0:0:0:0:
297,47,158914,6,0,L|151:61,1,135.000005149842,2|0,0:0|0:0,0:0:0:0:
163,60,159874,6,0,P|157:108|164:167,1,90,4|2,3:0|0:0,0:0:0:0:
368,214,160354,2,0,P|374:166|367:107,1,90,8|2,0:0|0:0,0:0:0:0:
291,285,160834,5,0,1:0:0:0:
233,129,161074,1,2,0:0:0:0:
385,30,161314,5,8,0:0:0:0:
297,170,161554,1,2,0:0:0:0:
496,140,161794,5,0,0:0:0:0:
436,97,162034,1,2,0:0:0:0:
512,126,162274,2,0,B|423:101|432:168|333:142,1,180,8|0,0:0|1:0,0:0:0:0:
219,224,162994,1,0,0:0:0:0:
131,109,163234,1,8,0:0:0:0:
346,241,163594,5,0,3:0:0:0:
346,241,163714,2,0,P|365:300|355:360,1,90,0|2,3:0|0:0,0:0:0:0:
219,224,164194,1,8,0:0:0:0:
183,294,164434,1,2,0:0:0:0:
155,270,164514,1,0,0:0:0:0:
119,262,164594,1,0,0:0:0:0:
83,268,164674,1,0,1:0:0:0:
156,370,164914,1,2,0:0:0:0:
219,224,165154,1,8,0:0:0:0:
19,134,165394,6,0,P|59:125|90:127,1,67.5,4|0,0:0|0:0,0:0:0:0:
119,138,165634,2,0,P|115:93|121:48,1,90,4|2,3:0|0:0,0:0:0:0:
303,26,166114,2,0,P|306:70|300:115,1,90,8|2,0:0|0:0,0:0:0:0:
368,254,166594,5,0,1:0:0:0:
426,98,166834,1,2,0:0:0:0:
303,26,167074,5,8,0:0:0:0:
361,152,167314,1,2,0:0:0:0:
222,73,167554,5,0,0:0:0:0:
154,98,167794,1,2,0:0:0:0:
225,97,168034,2,0,P|217:212|220:293,1,180,8|0,0:0|1:0,0:0:0:0:
366,362,168754,1,2,0:0:0:0:
482,236,168994,1,8,0:0:0:0:
242,354,169354,5,0,3:0:0:0:
242,354,169474,2,0,P|183:373|123:363,1,90,0|2,3:0|0:0,0:0:0:0:
201,207,169954,2,2,P|157:208|115:225,1,90,10|2,0:0|0:0,0:0:0:0:
48,189,170274,1,0,0:0:0:0:
41,150,170354,1,0,0:0:0:0:
55,113,170434,1,0,1:0:0:0:
173,287,170674,1,0,0:0:0:0:
280,116,170914,1,8,0:0:0:0:
189,210,171154,6,0,P|161:211|132:220,1,45,4|0,0:0|0:0,0:0:0:0:
121,228,171394,2,0,B|112:274|112:274|126:326,1,90,4|2,3:0|0:0,0:0:0:0:
323,312,171874,2,0,B|332:266|332:266|318:214,1,90,8|2,0:0|0:0,0:0:0:0:
236,356,172354,1,0,1:0:0:0:
212,186,172594,1,2,0:0:0:0:
382,170,172834,1,8,0:0:0:0:
400,339,173074,1,2,0:0:0:0:
480,341,173314,5,2,0:0:0:0:
405,309,173554,1,2,0:0:0:0:
462,365,173794,2,0,P|467:294|459:173,1,180,8|0,0:0|1:0,0:0:0:0:
348,275,174514,1,2,0:0:0:0:
250,169,174754,1,8,0:0:0:0:
10,319,175114,5,0,3:0:0:0:
10,319,175234,1,0,3:0:0:0:
127,268,175474,1,2,0:0:0:0:
53,113,175714,2,2,P|42:156|41:201,1,90,10|2,0:0|0:0,0:0:0:0:
119,188,176034,1,0,0:0:0:0:
141,180,176114,1,0,0:0:0:0:
164,178,176194,1,0,1:0:0:0:
288,281,176434,1,0,0:0:0:0:
151,350,176674,1,8,0:0:0:0:
370,376,176914,6,0,P|374:343|371:317,1,45,4|0,0:0|0:0,0:0:0:0:
364,281,177154,2,0,L|469:287,1,90,4|2,3:0|0:0,0:0:0:0:
280,203,177634,2,0,L|175:209,1,90,8|2,0:0|0:0,0:0:0:0:
353,159,178114,5,0,1:0:0:0:
243,278,178354,1,2,0:0:0:0:
121,170,178594,1,8,0:0:0:0:
231,51,178834,1,2,0:0:0:0:
160,235,179074,5,2,0:0:0:0:
83,240,179314,1,2,0:0:0:0:
197,170,179554,2,0,P|261:174|322:281,1,180,8|0,0:0|1:0,0:0:0:0:
192,358,180274,1,0,0:0:0:0:
83,240,180514,1,8,0:0:0:0:
292,338,180874,5,0,3:0:0:0:
292,338,180934,1,0,0:0:0:0:
292,338,180994,2,0,L|404:341,1,90,0|2,3:0|0:0,0:0:0:0:
219,265,181474,2,0,L|107:268,1,90,8|2,0:0|0:0,0:0:0:0:
277,212,181794,1,0,0:0:0:0:
287,187,181874,1,0,0:0:0:0:
280,160,181954,1,0,1:0:0:0:
414,211,182194,1,4,0:0:0:0:
280,70,182434,5,8,0:0:0:0:
146,121,182674,1,2,0:0:0:0:
293,350,182914,6,0,P|257:354|205:382,1,90,4|2,3:0|0:0,0:0:0:0:
32,253,183394,2,0,P|71:274|115:281,1,90,8|2,0:0|0:0,0:0:0:0:
304,43,183874,1,0,1:0:0:0:
104,193,184114,1,2,0:0:0:0:
171,129,184354,1,8,0:0:0:0:
82,99,184594,1,2,0:0:0:0:
257,140,184834,6,0,P|304:133|358:109,1,90,0|2,0:0|0:0,0:0:0:0:
213,55,185314,2,0,P|163:126|196:207,1,180,8|0,0:0|1:0,0:0:0:0:
387,215,186034,1,2,0:0:0:0:
257,140,186274,1,8,0:0:0:0:
139,340,186634,5,0,3:0:0:0:
139,340,186754,2,0,L|48:355,1,90,0|2,3:0|0:0,0:0:0:0:
327,362,187234,1,8,0:0:0:0:
243,155,187474,1,2,0:0:0:0:
242,170,187554,1,0,0:0:0:0:
241,185,187634,1,0,0:0:0:0:
239,200,187714,2,0,L|231:296,1,90,0|2,1:0|0:0,0:0:0:0:
149,145,188194,2,0,L|141:44,1,90,8|4,0:0|0:0,0:0:0:0:
61,269,188674,6,0,P|118:281|148:356,1,135,4|0,3:0|0:0,0:0:0:0:
149,345,189154,2,0,L|250:360,1,90,8|2,0:0|0:0,0:0:0:0:
481,241,189634,1,0,1:0:0:0:
354,346,189874,1,2,0:0:0:0:
269,162,190114,1,8,0:0:0:0:
342,253,190354,5,2,0:0:0:0:
342,253,190474,1,0,0:0:0:0:
342,253,190594,2,0,L|248:266,1,90,0|2,0:0|0:0,0:0:0:0:
50,96,191074,2,0,P|44:166|68:247,1,135,8|0,0:0|0:0,0:0:0:0:
80,263,191554,2,0,L|181:275,1,90,0|0,1:0|0:0,0:0:0:0:
195,147,192034,1,8,0:0:0:0:
426,339,192394,5,0,3:0:0:0:
426,339,192454,1,0,3:0:0:0:
426,339,192514,2,0,B|399:247|455:245|422:152,1,180,0|8,3:0|0:0,0:0:0:0:
384,22,193234,1,2,0:0:0:0:
380,34,193314,1,0,0:0:0:0:
376,46,193394,1,0,0:0:0:0:
372,58,193474,2,0,L|274:73,1,90,0|2,1:0|0:0,0:0:0:0:
61,177,193954,1,8,0:0:0:0:
119,22,194194,6,0,L|132:80,1,45,4|4,0:0|0:0,0:0:0:0:
193,134,194434,6,0,L|305:149,1,90,4|2,3:0|0:0,0:0:0:0:
415,227,194914,2,0,L|303:242,1,90,8|2,0:0|0:0,0:0:0:0:
65,329,195394,1,0,1:0:0:0:
239,215,195634,1,2,0:0:0:0:
60,108,195874,1,8,0:0:0:0:
127,183,196114,1,2,0:0:0:0:
265,32,196354,6,0,P|274:81|278:150,1,90,2|2,0:0|0:0,0:0:0:0:
253,301,196834,1,8,0:0:0:0:
253,301,197074,1,0,0:0:0:0:
370,189,197314,2,0,L|468:200,1,90,0|2,1:0|0:0,0:0:0:0:
253,301,197794,1,8,0:0:0:0:
108,168,198154,5,0,3:0:0:0:
108,168,198274,2,0,L|91:52,1,90,0|2,3:0|0:0,0:0:0:0:
52,311,198754,1,8,0:0:0:0:
219,230,198994,1,2,0:0:0:0:
220,242,199074,1,0,0:0:0:0:
221,254,199154,1,0,0:0:0:0:
222,266,199234,2,0,L|232:355,1,90,0|2,1:0|0:0,0:0:0:0:
346,158,199714,1,8,0:0:0:0:
468,335,199954,6,0,L|529:344,1,45,4|0,0:0|0:0,0:0:0:0:
418,273,200194,6,0,L|431:366,1,90,4|2,3:0|0:0,0:0:0:0:
468,178,200674,2,0,L|480:88,1,90,8|2,0:0|0:0,0:0:0:0:
359,157,201154,1,0,1:0:0:0:
108,246,201394,1,2,0:0:0:0:
217,195,201634,1,8,0:0:0:0:
109,131,201874,1,2,0:0:0:0:
62,347,202114,5,0,0:0:0:0:
62,347,202354,1,2,0:0:0:0:
62,347,202594,2,0,P|117:357|210:285,1,180,8|0,0:0|1:0,0:0:0:0:
106,259,203314,1,2,0:0:0:0:
106,259,203554,1,8,0:0:0:0:
365,354,203914,5,0,3:0:0:0:
365,354,203974,1,0,3:0:0:0:
365,354,204034,2,0,L|464:368,1,90,0|2,3:0|0:0,0:0:0:0:
453,177,204514,1,8,0:0:0:0:
263,169,204754,1,2,0:0:0:0:
283,170,204834,1,0,0:0:0:0:
303,171,204914,1,0,0:0:0:0:
323,172,204994,1,0,1:0:0:0:
372,26,205234,1,4,0:0:0:0:
453,177,205474,1,8,0:0:0:0:
358,299,205714,1,2,0:0:0:0:
263,162,205954,6,0,L|175:181,1,90,4|2,3:0|0:0,0:0:0:0:
272,171,206314,5,0,0:0:0:0:
272,171,206434,2,0,L|184:190,1,90,8|2,0:0|0:0,0:0:0:0:
5,178,206914,1,0,1:0:0:0:
90,67,207154,1,2,0:0:0:0:
258,328,207394,1,8,0:0:0:0:
168,274,207634,1,2,0:0:0:0:
74,364,207874,5,0,0:0:0:0:
74,364,208114,1,2,0:0:0:0:
74,364,208354,2,0,P|70:266|58:165,1,180,8|0,0:0|1:0,0:0:0:0:
52,70,209074,1,2,0:0:0:0:
170,187,209314,1,8,0:0:0:0:
456,48,209674,5,0,3:0:0:0:
456,48,209794,2,0,L|446:158,1,90,0|2,3:0|0:0,0:0:0:0:
355,358,210274,2,0,L|345:248,1,90,8|2,0:0|0:0,0:0:0:0:
365,188,210594,1,0,0:0:0:0:
338,192,210674,1,0,0:0:0:0:
314,193,210754,1,0,1:0:0:0:
448,315,210994,1,0,0:0:0:0:
160,274,211234,1,8,0:0:0:0:
448,315,211474,6,0,L|385:325,1,45,4|0,0:0|0:0,0:0:0:0:
489,253,211714,6,0,L|483:348,1,90,4|2,3:0|0:0,0:0:0:0:
484,247,212074,5,0,0:0:0:0:
484,247,212194,2,0,L|478:342,1,90,4|2,0:0|0:0,0:0:0:0:
406,211,212674,1,0,1:0:0:0:
277,309,212914,1,2,0:0:0:0:
159,197,213154,1,8,0:0:0:0:
227,158,213394,1,2,0:0:0:0:
136,317,213634,5,0,0:0:0:0:
63,285,213874,1,2,0:0:0:0:
191,259,214114,2,0,P|192:212|180:79,1,180,8|0,0:0|1:0,0:0:0:0:
306,167,214834,1,0,0:0:0:0:
423,68,215074,1,8,0:0:0:0:
124,19,215434,5,0,3:0:0:0:
124,19,215554,2,0,L|105:120,1,90,0|0,3:0|0:0,0:0:0:0:
124,19,215914,5,2,0:0:0:0:
124,19,216034,2,0,L|105:120,1,90,8|0,0:0|0:0,0:0:0:0:
124,19,216394,5,2,0:0:0:0:
124,19,216514,2,0,L|105:120,1,90,0|0,1:0|0:0,0:0:0:0:
124,19,216874,5,2,0:0:0:0:
194,46,216994,1,8,0:0:0:0:
208,49,217074,1,0,0:0:0:0:
222,53,217154,1,0,0:0:0:0:
236,57,217234,1,4,0:0:0:0:
373,153,217474,6,0,P|381:113|373:63,1,90,4|2,3:0|0:0,0:0:0:0:
250,159,217954,2,0,P|241:199|249:248,1,90,8|2,0:0|0:0,0:0:0:0:
433,323,218434,5,0,1:0:0:0:
319,207,218674,1,2,0:0:0:0:
184,380,218914,5,8,0:0:0:0:
321,294,219154,1,2,0:0:0:0:
186,197,219394,5,0,0:0:0:0:
205,272,219634,1,2,0:0:0:0:
250,159,219874,2,0,B|352:129|319:221|452:168,1,180,8|0,0:0|0:0,0:0:0:0:
491,295,220594,1,2,0:0:0:0:
351,356,220834,1,8,0:0:0:0:
500,130,221194,5,0,3:0:0:0:
500,130,221314,2,0,B|511:84|511:84|500:31,1,90,0|2,3:0|0:0,0:0:0:0:
425,155,221794,2,0,L|317:161,1,90,8|2,0:0|0:0,0:0:0:0:
433,165,222154,5,0,0:0:0:0:
433,165,222274,2,0,L|325:171,1,90,0|2,1:0|0:0,0:0:0:0:
441,174,222634,5,0,0:0:0:0:
441,174,222754,2,2,L|333:180,1,90,8|2,0:0|0:0,0:0:0:0:
291,273,223114,5,0,0:0:0:0:
291,273,223234,2,0,L|183:267,1,90,4|2,0:0|0:0,0:0:0:0:
53,185,223714,2,0,L|161:179,1,90,8|2,0:0|0:0,0:0:0:0:
0,258,224194,1,0,1:0:0:0:
199,132,224434,1,2,0:0:0:0:
40,101,224674,1,8,0:0:0:0:
165,292,224914,1,2,0:0:0:0:
242,283,225154,5,0,0:0:0:0:
165,292,225394,1,2,0:0:0:0:
308,342,225634,2,0,L|497:354,1,180,8|0,0:0|1:0,0:0:0:0:
443,197,226354,1,0,0:0:0:0:
288,246,226594,1,8,0:0:0:0:
169,34,226954,5,0,3:0:0:0:
169,34,227074,2,0,P|160:90|175:147,1,90,0|2,3:0|0:0,0:0:0:0:
323,137,227554,2,0,P|287:163|244:178,1,90,8|2,0:0|0:0,0:0:0:0:
292,28,227874,1,0,0:0:0:0:
309,37,227954,1,0,0:0:0:0:
326,47,228034,2,0,P|293:17|252:0,1,90,0|4,1:0|0:0,0:0:0:0:
447,33,228514,5,8,0:0:0:0:
323,137,228754,1,2,0:0:0:0:
432,256,228994,2,0,L|357:-200|415:-280,1,90,4|0,3:0|0:0,0:0:0:0:
432,256,229354,5,2,0:0:0:0:
432,256,229474,2,0,L|360:-192|418:-260,1,90,8|0,3:0|0:0,0:0:0:0:
432,256,229834,5,2,0:0:0:0:
432,256,229954,2,0,L|363:-172|421:-239,1,90,8|0,3:0|0:0,0:0:0:0:
432,256,230314,5,2,0:0:0:0:
432,256,230434,2,0,L|366:-139|424:-206,1,90,8|0,3:0|0:0,0:0:0:0:
432,256,230794,5,2,0:0:0:0:
432,256,230914,2,0,L|369:-131|427:-199,1,90,8|0,3:0|0:0,0:0:0:0:
432,256,231274,5,2,0:0:0:0:
432,256,231394,2,0,L|373:-110|431:-178,1,90,8|0,3:0|0:0,0:0:0:0:
432,256,231754,5,2,0:0:0:0:
432,256,231874,2,0,L|376:-91|434:-146,1,90,8|0,3:0|0:0,0:0:0:0:
432,256,232234,5,2,0:0:0:0:
432,256,232354,2,0,L|380:-70|437:-137,1,90,8|0,3:0|0:0,0:0:0:0:
432,256,232714,5,2,0:0:0:0:
432,256,232834,2,0,L|383:-49|440:-116,1,90,8|0,3:0|0:0,0:0:0:0:
432,256,233194,5,2,0:0:0:0:
432,256,233314,2,0,L|386:-30|444:-97,1,90,8|0,3:0|0:0,0:0:0:0:
432,256,233674,5,2,0:0:0:0:
432,256,233794,2,0,L|389:-9|447:-76,1,90,8|0,3:0|0:0,0:0:0:0:
432,256,234154,5,2,0:0:0:0:
432,256,234274,2,0,L|393:10|450:-56,1,90,8|0,3:0|0:0,0:0:0:0:
432,256,234634,5,2,0:0:0:0:
432,256,234754,2,0,L|396:31|454:-36,1,90,8|0,3:0|0:0,0:0:0:0:
432,256,235114,5,2,0:0:0:0:
432,256,235234,2,0,L|399:52|457:-15,1,90,8|0,3:0|0:0,0:0:0:0:
432,256,235594,5,2,0:0:0:0:
432,256,235714,2,0,L|402:71|460:3,1,90,8|0,3:0|0:0,0:0:0:0:
432,256,236074,5,2,0:0:0:0:
432,256,236194,2,0,L|406:92|464:24,1,90,8|0,3:0|0:0,0:0:0:0:
432,256,236554,5,2,0:0:0:0:
432,256,236674,1,8,3:0:0:0:
432,256,237034,1,0,0:0:0:0:
432,256,237154,1,8,3:0:0:0:
432,256,237514,1,0,0:0:0:0:
432,256,237634,1,8,3:0:0:0:
432,256,237994,1,0,0:0:0:0:
432,256,238114,1,8,3:0:0:0:
432,256,238474,1,0,0:0:0:0:
432,256,238594,1,8,3:0:0:0:
432,256,238954,1,0,0:0:0:0:
432,256,239074,1,8,3:0:0:0:
432,256,239434,1,0,0:0:0:0:
432,256,239554,1,8,3:0:0:0:
432,256,239914,1,0,0:0:0:0:
432,256,240034,1,8,3:0:0:0:
437,261,240514,1,8,3:0:0:0:
442,267,240994,1,8,3:0:0:0:
446,274,241474,1,8,3:0:0:0:
451,281,241954,1,8,3:0:0:0:
456,288,242434,1,8,3:0:0:0:
460,295,242914,1,8,3:0:0:0:
464,303,243394,1,8,3:0:0:0:
468,311,243874,1,8,3:0:0:0:
470,320,244354,6,0,P|396:315|357:190,1,202.500007724762,4|0,3:0|0:0,0:0:0:0:
373,127,245194,1,0,0:0:0:0:
373,127,245314,2,0,L|380:49,1,67.5000025749208,2|0,0:0|0:0,0:0:0:0:
286,73,245674,1,0,0:0:0:0:
286,73,245794,2,0,L|279:-5,1,67.5000025749208,2|0,0:0|0:0,0:0:0:0:
175,117,246154,1,0,0:0:0:0:
175,117,246274,2,0,L|182:39,1,67.5000025749208,2|0,0:0|0:0,0:0:0:0:
75,13,246634,1,0,0:0:0:0:
75,13,246754,2,0,P|79:49|84:155,2,135.000005149842,2|2|2,0:0|0:0|0:0,0:0:0:0:
75,13,248194,6,0,P|149:18|188:143,1,202.500007724762,2|0,0:0|0:0,0:0:0:0:
128,160,249034,1,0,0:0:0:0:
128,160,249154,2,0,L|121:238,1,67.5000025749208,2|0,0:0|0:0,0:0:0:0:
221,196,249514,1,0,0:0:0:0:
221,196,249634,2,0,L|228:274,1,67.5000025749208,2|0,0:0|0:0,0:0:0:0:
332,152,249994,1,0,0:0:0:0:
332,152,250114,2,0,L|325:230,1,67.5000025749208,2|0,0:0|0:0,0:0:0:0:
432,256,250474,1,0,0:0:0:0:
432,256,250594,2,0,P|428:220|423:114,2,135.000005149842,2|2|2,0:0|0:0|0:0,0:0:0:0:
432,256,252034,6,0,B|337:233|338:296|233:265,1,202.500007724762,2|0,0:0|0:0,0:0:0:0:
152,301,252874,1,0,0:0:0:0:
152,301,252994,2,0,L|159:379,1,67.5000025749208,2|0,0:0|0:0,0:0:0:0:
71,234,253354,1,0,0:0:0:0:
71,234,253474,2,0,L|64:312,1,67.5000025749208,2|0,0:0|0:0,0:0:0:0:
156,154,253834,1,0,0:0:0:0:
156,154,253954,2,0,L|163:232,1,67.5000025749208,2|0,0:0|0:0,0:0:0:0:
68,149,254314,1,0,0:0:0:0:
68,149,254434,2,0,P|72:113|77:7,2,135.000005149842,2|2|2,0:0|0:0|0:0,0:0:0:0:
70,272,255874,6,0,B|165:249|164:312|269:281,1,202.500007724762,2|0,0:0|0:0,0:0:0:0:
350,317,256714,1,0,0:0:0:0:
350,317,256834,2,0,L|343:395,1,67.5000025749208,2|0,0:0|0:0,0:0:0:0:
431,250,257194,1,0,0:0:0:0:
431,250,257314,2,0,L|438:328,1,67.5000025749208,2|0,0:0|0:0,0:0:0:0:
346,170,257674,1,0,0:0:0:0:
346,170,257794,2,0,L|339:248,1,67.5000025749208,2|0,0:0|0:0,0:0:0:0:
434,165,258154,1,0,0:0:0:0:
434,165,258274,2,0,P|430:129|425:23,2,135.000005149842,2|2|2,0:0|0:0|0:0,0:0:0:0:
466,270,259354,5,0,0:0:0:0:
466,270,259474,1,0,0:0:0:0:
466,270,259594,1,0,0:0:0:0:
466,270,259714,2,0,B|402:280|402:280|356:327|356:327|285:336,1,202.500007724762,2|0,0:0|0:0,0:0:0:0:
124,299,260554,1,0,0:0:0:0:
124,299,260674,2,0,L|192:311,1,67.5000025749208,2|0,0:0|0:0,0:0:0:0:
287,264,261034,1,0,0:0:0:0:
287,264,261154,2,0,L|219:276,1,67.5000025749208,2|0,0:0|0:0,0:0:0:0:
127,226,261514,1,0,0:0:0:0:
127,226,261634,2,0,L|195:238,1,67.5000025749208,2|0,0:0|0:0,0:0:0:0:
258,182,261994,1,0,0:0:0:0:
258,182,262114,2,0,P|270:88|267:47,2,135.000005149842,2|2|2,0:0|0:0|0:0,0:0:0:0:
71,271,263554,6,0,B|135:281|135:281|181:328|181:328|252:337,1,202.500007724762,2|0,0:0|0:0,0:0:0:0:
388,299,264394,1,0,0:0:0:0:
388,299,264514,2,0,L|320:311,1,67.5000025749208,2|0,0:0|0:0,0:0:0:0:
230,278,264874,1,0,0:0:0:0:
230,278,264994,2,0,L|298:290,1,67.5000025749208,2|0,0:0|0:0,0:0:0:0:
386,238,265354,1,0,0:0:0:0:
386,238,265474,2,0,L|318:250,1,67.5000025749208,2|0,0:0|0:0,0:0:0:0:
232,203,265834,1,0,0:0:0:0:
232,203,265954,2,0,P|220:109|223:68,2,135.000005149842,2|2|2,0:0|0:0|0:0,0:0:0:0:
328,351,267394,6,0,P|402:355|408:234,1,202.500007724762,2|0,0:0|0:0,0:0:0:0:
351,197,268234,1,0,0:0:0:0:
351,197,268354,1,2,0:0:0:0:
259,276,268714,1,0,0:0:0:0:
259,276,268834,1,2,0:0:0:0:
140,206,269194,5,0,0:0:0:0:
140,206,269314,2,0,L|136:123,1,67.5000025749208,2|0,0:0|0:0,0:0:0:0:
152,211,269674,1,0,0:0:0:0:
152,211,269794,2,0,L|148:128,1,67.5000025749208,2|0,0:0|0:0,0:0:0:0:
163,220,270154,1,0,0:0:0:0:
163,220,270274,2,0,L|159:137,1,67.5000025749208,2|0,0:0|0:0,0:0:0:0:
178,231,270634,1,0,0:0:0:0:
178,231,270754,2,0,L|174:148,1,67.5000025749208,2|0,0:0|0:0,0:0:0:0:
194,244,271114,1,0,0:0:0:0:
194,244,271234,2,0,L|190:161,1,67.5000025749208,2|0,0:0|0:0,0:0:0:0:
211,256,271594,1,0,0:0:0:0:
211,256,271714,2,0,L|207:173,1,67.5000025749208,2|0,0:0|0:0,0:0:0:0:
232,267,272074,1,0,0:0:0:0:
232,267,272194,2,0,L|228:184,1,67.5000025749208,2|0,0:0|0:0,0:0:0:0:
248,282,272554,1,0,0:0:0:0:
248,282,272674,2,0,L|244:199,1,67.5000025749208,2|0,0:0|0:0,0:0:0:0:
190,180,273034,5,0,0:0:0:0:
190,180,273154,2,0,P|251:181|297:161,1,101.250003862381,2|0,0:0|0:0,0:0:0:0:
372,206,273634,2,0,L|376:123,1,67.5000025749208,2|0,0:0|0:0,0:0:0:0:
360,211,273994,1,0,0:0:0:0:
360,211,274114,2,0,L|364:128,1,67.5000025749208,2|0,0:0|0:0,0:0:0:0:
349,220,274474,1,0,0:0:0:0:
349,220,274594,2,0,L|353:137,1,67.5000025749208,2|0,0:0|0:0,0:0:0:0:
334,231,274954,1,0,0:0:0:0:
334,231,275074,2,0,L|338:148,1,67.5000025749208,2|0,0:0|0:0,0:0:0:0:
224,68,275554,6,0,P|256:63|293:68,1,67.5000025749208,2|0,0:0|0:0,0:0:0:0:
380,160,275914,1,0,0:0:0:0:
380,160,276034,2,0,P|385:192|380:229,1,67.5000025749208,2|0,0:0|0:0,0:0:0:0:
288,316,276394,1,0,0:0:0:0:
288,316,276514,2,0,P|256:321|219:316,1,67.5000025749208,2|0,0:0|0:0,0:0:0:0:
132,224,276874,1,0,0:0:0:0:
132,224,276994,2,0,P|127:192|132:155,1,67.5000025749208,2|0,0:0|0:0,0:0:0:0:
217,43,277474,6,0,P|256:37|300:43,1,67.5000025749208,2|0,0:0|0:0,0:0:0:0:
404,153,277834,1,0,0:0:0:0:
404,153,277954,2,0,P|410:192|404:236,1,67.5000025749208,2|0,0:0|0:0,0:0:0:0:
294,340,278314,1,0,0:0:0:0:
294,340,278434,2,0,P|256:346|211:340,1,67.5000025749208,2|0,0:0|0:0,0:0:0:0:
107,230,278794,1,0,0:0:0:0:
107,230,278914,2,0,P|101:192|107:147,1,67.5000025749208,2|0,0:0|0:0,0:0:0:0:
211,17,279394,6,0,P|256:10|307:17,1,67.5000025749208,2|0,0:0|0:0,0:0:0:0:
430,147,279754,1,0,0:0:0:0:
430,147,279874,2,0,P|437:192|430:243,1,67.5000025749208,2|0,0:0|0:0,0:0:0:0:
300,366,280234,1,0,0:0:0:0:
300,366,280354,2,0,P|256:373|204:366,1,67.5000025749208,2|0,0:0|0:0,0:0:0:0:
81,236,280714,1,0,0:0:0:0:
81,236,280834,2,0,P|74:192|81:140,1,67.5000025749208,2|0,0:0|0:0,0:0:0:0:
208,9,281314,6,0,P|256:1|300:11,1,90,8|0,3:0|0:0,0:0:0:0:
438,144,281674,1,0,0:0:0:0:
438,144,281794,2,0,P|446:192|441:238,1,90,8|0,3:0|0:0,0:0:0:0:
303,374,282154,1,0,0:0:0:0:
303,374,282274,2,0,P|256:382|207:374,1,90,8|0,3:0|0:0,0:0:0:0:
73,239,282634,1,0,0:0:0:0:
73,239,282754,2,0,P|65:192|75:143,1,90,8|0,3:0|0:0,0:0:0:0:
2,358,283234,5,8,0:0:0:0:
161,278,283594,1,0,0:0:0:0:
161,278,283714,2,0,L|258:290,1,90,8|0,3:0|0:0,0:0:0:0:
2,358,284194,5,8,0:0:0:0:
161,278,284554,1,0,0:0:0:0:
161,278,284674,2,0,L|258:290,1,90,8|0,3:0|0:0,0:0:0:0:
499,235,285154,5,8,0:0:0:0:
340,155,285514,1,0,0:0:0:0:
340,155,285634,2,0,L|243:167,1,90,8|0,3:0|0:0,0:0:0:0:
499,235,286114,5,8,0:0:0:0:
340,155,286474,1,0,0:0:0:0:
340,155,286594,2,0,L|243:167,1,90,8|0,3:0|0:0,0:0:0:0:
9,101,287074,5,8,0:0:0:0:
168,21,287434,1,0,0:0:0:0:
168,21,287554,2,0,L|265:33,1,90,8|0,3:0|0:0,0:0:0:0:
9,101,288034,5,8,0:0:0:0:
168,21,288394,1,0,0:0:0:0:
168,21,288514,2,0,L|265:33,1,90,8|0,3:0|0:0,0:0:0:0:
251,198,288994,5,8,0:0:0:0:
96,135,289354,1,0,0:0:0:0:
96,135,289474,2,0,P|87:183|99:234,1,90,8|0,3:0|0:0,0:0:0:0:
251,198,289954,5,8,0:0:0:0:
403,288,290314,1,0,0:0:0:0:
403,288,290434,2,0,P|412:240|400:189,1,90,8|0,3:0|0:0,0:0:0:0:
254,370,290914,1,8,0:0:0:0:
254,370,291394,5,8,3:0:0:0:
254,370,291874,5,8,0:0:0:0:
254,370,292354,6,0,L|249:168,1,180,8|8,3:0|0:0,0:0:0:0:
246,10,293314,5,8,3:0:0:0:
330,0,293794,1,8,0:0:0:0:
246,10,294274,2,0,L|241:212,1,180,8|8,3:0|0:0,0:0:0:0:
0,283,295234,5,8,3:0:0:0:
10,206,295714,1,8,0:0:0:0:
0,283,296194,2,0,P|85:281|154:363,1,180,8|8,3:0|0:0,0:0:0:0:
194,25,297154,5,8,3:0:0:0:
121,53,297634,1,8,0:0:0:0:
194,25,298114,2,0,B|234:119|127:101|180:220,1,180,8|8,3:0|0:0,0:0:0:0:
364,350,299074,5,8,3:0:0:0:
437,322,299554,1,8,0:0:0:0:
364,350,300034,2,0,P|350:258|345:144,1,180,8|8,3:0|0:0,0:0:0:0:
497,34,300754,1,0,0:0:0:0:
405,1,300994,2,0,P|403:53|412:104,1,90,8|0,3:0|0:0,0:0:0:0:
239,185,301474,2,0,P|241:133|232:82,1,90,8|0,0:0|0:0,0:0:0:0:
344,171,301954,5,8,3:0:0:0:
326,93,302194,1,0,0:0:0:0:
344,171,302434,2,0,P|421:175|456:247,1,135,8|0,0:0|0:0,0:0:0:0:
462,238,302914,2,0,B|447:283|447:283|466:337,1,90,8|0,3:0|0:0,0:0:0:0:
374,368,303394,1,8,0:0:0:0:
461,323,303634,1,0,0:0:0:0:
281,262,303874,2,0,L|370:253,1,90,8|0,3:0|0:0,0:0:0:0:
297,159,304354,1,8,0:0:0:0:
187,367,304594,1,0,0:0:0:0:
104,289,304834,2,0,L|-21:277,1,90,8|0,3:0|0:0,0:0:0:0:
274,368,305314,5,8,0:0:0:0:
274,368,305554,1,0,0:0:0:0:
274,368,305794,6,0,L|86:378,1,180,4|8,3:0|0:0,0:0:0:0:
83,167,306514,1,2,0:0:0:0:
83,167,306754,2,0,L|98:268,1,90,0|2,1:0|0:0,0:0:0:0:
178,116,307234,5,8,0:0:0:0:
65,67,307474,1,2,0:0:0:0:
202,201,307714,5,0,0:0:0:0:
256,35,307954,1,2,0:0:0:0:
202,201,308194,2,0,P|282:208|368:149,1,180,8|0,0:0|1:0,0:0:0:0:
261,122,308914,1,2,0:0:0:0:
364,315,309154,2,0,L|476:332,1,90,8|0,0:0|0:0,0:0:0:0:
459,335,309514,5,0,3:0:0:0:
459,335,309574,1,0,3:0:0:0:
459,335,309634,2,0,L|470:230,1,90,0|2,3:0|0:0,0:0:0:0:
326,52,310114,2,0,L|337:157,1,90,8|2,0:0|0:0,0:0:0:0:
337,156,310434,5,0,0:0:0:0:
339,170,310514,1,0,0:0:0:0:
340,184,310594,2,0,L|241:192,1,90,0|0,1:0|0:0,0:0:0:0:
134,199,311074,1,8,0:0:0:0:
250,366,311314,1,4,0:0:0:0:
447,317,311554,6,0,P|453:223|463:132,1,180,4|8,3:0|0:0,0:0:0:0:
480,51,312274,1,2,0:0:0:0:
365,203,312514,2,0,P|323:211|267:223,1,90,0|0,1:0|0:0,0:0:0:0:
278,122,312994,2,0,P|233:112|189:104,1,90,8|2,0:0|0:0,0:0:0:0:
87,69,313474,5,0,0:0:0:0:
87,69,313714,1,2,0:0:0:0:
87,69,313954,2,0,P|98:159|102:252,1,180,8|0,0:0|1:0,0:0:0:0:
97,358,314674,1,2,0:0:0:0:
246,287,314914,2,0,L|346:276,1,90,8|0,0:0|0:0,0:0:0:0:
410,333,315274,5,0,3:0:0:0:
410,333,315334,1,0,3:0:0:0:
410,333,315394,2,0,P|419:229|436:143,1,180,0|8,3:0|0:0,0:0:0:0:
438,70,316114,1,2,0:0:0:0:
425,69,316194,1,0,0:0:0:0:
412,68,316274,1,0,0:0:0:0:
399,68,316354,2,0,L|305:58,1,90,0|2,1:0|0:0,0:0:0:0:
107,210,316834,1,8,0:0:0:0:
370,308,317074,6,0,L|381:252,1,45,4|0,0:0|0:0,0:0:0:0:
300,344,317314,6,0,L|479:361,1,180,4|8,3:0|0:0,0:0:0:0:
379,264,318034,1,2,0:0:0:0:
444,190,318274,2,0,L|437:86,1,90,0|2,1:0|0:0,0:0:0:0:
342,71,318754,5,8,0:0:0:0:
419,15,318994,1,2,0:0:0:0:
268,119,319234,5,0,0:0:0:0:
360,159,319474,1,2,0:0:0:0:
189,64,319714,2,0,P|179:107|184:168,1,90,8|2,0:0|0:0,0:0:0:0:
283,208,320194,1,0,1:0:0:0:
406,78,320434,1,2,0:0:0:0:
269,334,320674,2,0,L|175:351,1,90,8|0,0:0|0:0,0:0:0:0:
95,323,321034,1,0,3:0:0:0:
95,323,321094,1,0,0:0:0:0:
95,323,321154,6,0,P|85:233|66:133,1,180,0|8,3:0|0:0,0:0:0:0:
172,53,321874,1,2,0:0:0:0:
184,53,321954,1,0,0:0:0:0:
196,54,322034,1,0,0:0:0:0:
208,55,322114,2,0,L|303:62,1,90,0|2,1:0|0:0,0:0:0:0:
159,211,322594,2,0,L|51:224,1,90,8|4,0:0|0:0,0:0:0:0:
254,333,323074,6,0,B|339:315|337:370|434:344,1,180,4|8,3:0|0:0,0:0:0:0:
382,178,323794,1,2,0:0:0:0:
382,178,324034,1,0,1:0:0:0:
473,240,324274,1,2,0:0:0:0:
273,168,324514,1,8,0:0:0:0:
427,53,324754,1,2,0:0:0:0:
344,298,324994,5,0,0:0:0:0:
344,298,325234,1,2,0:0:0:0:
344,298,325474,2,0,P|316:309|194:244,1,180,8|0,0:0|1:0,0:0:0:0:
292,204,326194,1,2,0:0:0:0:
191,372,326434,2,0,L|93:384,1,90,8|0,0:0|0:0,0:0:0:0:
36,346,326794,5,0,3:0:0:0:
36,346,326914,2,0,P|43:260|40:159,1,180,0|8,3:0|0:0,0:0:0:0:
147,45,327634,1,2,0:0:0:0:
147,45,327754,1,0,0:0:0:0:
147,45,327874,1,0,1:0:0:0:
103,160,328114,1,4,0:0:0:0:
240,24,328354,6,0,L|227:162,1,135.000005149842,8|0,0:0|0:0,0:0:0:0:
227,158,328834,5,4,3:0:0:0:
352,299,329074,1,2,0:0:0:0:
484,235,329314,2,0,B|435:263|435:263|457:327,1,112.5,8|2,0:0|0:0,0:0:0:0:
484,235,329794,1,0,1:0:0:0:
352,299,330034,1,2,0:0:0:0:
456,89,330274,1,8,0:0:0:0:
227,158,330514,2,0,P|220:130|226:99,1,56.25,2|0,0:0|0:0,0:0:0:0:
445,175,330754,2,0,P|385:126|294:127,1,168.75
152,123,331234,6,0,B|194:126|227:158|227:158|215:117|244:62,1,168.75,8|0,0:0|0:0,0:0:0:0:
194,264,331714,1,0,1:0:0:0:
118,286,331954,1,2,0:0:0:0:
364,370,332194,2,0,P|382:321|349:236,1,112.5,8|2,0:0|0:0,0:0:0:0:
377,120,332674,2,0,B|323:133|323:133|287:68,2,112.5,0|2|8,0:0|0:0|0:0,0:0:0:0:
458,189,333394,1,2,0:0:0:0:
460,174,333474,1,0,0:0:0:0:
461,159,333554,1,0,0:0:0:0:
462,144,333634,2,0,L|471:17,1,112.5,0|0,1:0|0:0,0:0:0:0:
341,218,334114,1,8,0:0:0:0:
265,162,334354,2,0,P|254:135|255:107,1,56.25,4|0,0:0|0:0,0:0:0:0:
116,94,334594,6,0,P|226:87|349:134,1,225,4|8,3:0|0:0,0:0:0:0:
334,123,335554,5,0,1:0:0:0:
292,244,335794,1,2,0:0:0:0:
215,267,336034,1,8,0:0:0:0:
145,85,336274,1,2,0:0:0:0:
4,186,336514,5,0,0:0:0:0:
90,222,336754,1,2,0:0:0:0:
4,186,336994,2,0,P|-6:250|21:328,1,112.5,8|0,0:0|0:0,0:0:0:0:
73,119,337474,5,0,1:0:0:0:
192,277,337714,1,2,0:0:0:0:
358,160,337954,1,8,0:0:0:0:
412,268,338194,5,2,0:0:0:0:
482,175,338314,1,0,3:0:0:0:
482,175,338374,1,0,0:0:0:0:
482,175,338434,2,0,B|518:91|413:109|462:-1,1,168.75,0|0,3:0|0:0,0:0:0:0:
482,175,338914,2,0,L|330:198,1,112.5,8|2,0:0|0:0,0:0:0:0:
313,246,339234,1,0,0:0:0:0:
309,260,339314,1,0,0:0:0:0:
306,273,339394,2,0,B|288:328|288:328|314:378,1,112.5,0|2,1:0|0:0,0:0:0:0:
431,325,339874,1,8,0:0:0:0:
306,273,340114,2,0,P|281:237|278:209,1,56.25,4|0,0:0|0:0,0:0:0:0:
190,337,340354,6,0,P|215:282|377:217,1,225,4|8,3:0|0:0,0:0:0:0:
357,214,341314,1,0,1:0:0:0:
190,337,341554,1,2,0:0:0:0:
112,284,341794,2,0,B|52:295|52:295|-5:263,1,112.5,8|2,0:0|0:0,0:0:0:0:
115,91,342274,2,0,B|55:80|55:80|-2:112,1,112.5,0|2,0:0|0:0,0:0:0:0:
225,172,342754,6,0,L|-13:193,1,225,8|0,0:0|1:0,0:0:0:0:
210,368,343474,1,2,0:0:0:0:
227,293,343714,2,0,B|243:255|294:253|294:253|327:310,1,112.5,8|2,0:0|0:0,0:0:0:0:
325,354,344034,5,0,0:0:0:0:
344,348,344114,1,0,3:0:0:0:
362,341,344194,2,0,B|393:213|258:271|321:98,1,225,0|8,3:0|0:0,0:0:0:0:
309,135,345154,5,0,1:0:0:0:
141,274,345394,1,2,0:0:0:0:
62,78,345634,1,8,0:0:0:0:
181,141,345874,6,0,B|170:172|170:172|184:214,1,56.25,4|0,0:0|0:0,0:0:0:0:
22,190,346114,2,0,L|262:174,1,225,4|8,3:0|0:0,0:0:0:0:
246,174,347074,5,0,1:0:0:0:
387,146,347314,1,2,0:0:0:0:
427,68,347554,5,8,0:0:0:0:
206,13,347794,1,2,0:0:0:0:
318,233,348034,6,0,L|308:3,1,225,0|8,0:0|0:0,0:0:0:0:
308,9,348994,5,0,1:0:0:0:
219,146,349234,1,2,0:0:0:0:
385,27,349474,1,8,0:0:0:0:
301,235,349834,5,0,3:0:0:0:
301,235,349894,1,0,3:0:0:0:
301,235,349954,2,0,P|394:245|463:356,1,225,0|8,3:0|0:0,0:0:0:0:
285,345,350674,5,2,0:0:0:0:
362,382,350794,1,0,0:0:0:0:
362,382,350854,1,0,0:0:0:0:
362,382,350914,1,0,1:0:0:0:
479,346,351154,1,4,0:0:0:0:
512,273,351394,5,8,0:0:0:0:
306,203,351634,1,2,0:0:0:0:
365,86,351874,5,4,3:0:0:0:
451,128,352114,1,2,0:0:0:0:
290,330,352354,2,0,L|46:347,1,225,8|0,0:0|1:0,0:0:0:0:
0,175,353074,1,2,0:0:0:0:
261,228,353314,1,8,0:0:0:0:
68,91,353554,1,2,0:0:0:0:
214,331,353794,6,0,P|272:344|347:181,1,225,0|8,0:0|0:0,0:0:0:0:
236,91,354514,1,2,0:0:0:0:
236,91,354754,2,0,L|253:226,1,112.5,0|2,1:0|0:0,0:0:0:0:
160,344,355234,1,8,0:0:0:0:
441,158,355474,5,2,0:0:0:0:
484,239,355594,1,0,3:0:0:0:
484,239,355654,1,0,3:0:0:0:
484,239,355714,2,0,P|422:232|368:218,1,112.5,0|2,3:0|0:0,0:0:0:0:
185,127,356194,1,8,0:0:0:0:
256,30,356434,5,2,0:0:0:0:
273,36,356514,1,0,0:0:0:0:
290,43,356594,1,0,0:0:0:0:
307,49,356674,2,0,L|294:177,1,112.5,0|2,1:0|0:0,0:0:0:0:
125,125,357154,1,8,0:0:0:0:
403,278,357394,2,0,L|394:342,1,56.25,4|0,0:0|0:0,0:0:0:0:
339,205,357634,6,0,P|395:181|496:291,1,225,4|8,3:0|0:0,0:0:0:0:
403,278,358354,1,2,0:0:0:0:
274,88,358594,1,0,1:0:0:0:
403,278,358834,1,2,0:0:0:0:
464,73,359074,1,8,0:0:0:0:
403,278,359314,1,2,0:0:0:0:
287,0,359554,6,0,P|227:9|217:167,1,225,0|8,0:0|0:0,0:0:0:0:
322,317,360274,1,2,0:0:0:0:
322,317,360514,2,0,L|191:333,1,112.5,0|2,1:0|0:0,0:0:0:0:
25,348,360994,1,8,0:0:0:0:
37,58,361234,5,2,0:0:0:0:
120,80,361354,1,0,3:0:0:0:
120,80,361414,1,0,3:0:0:0:
120,80,361474,2,0,P|134:141|146:219,1,112.5,0|2,3:0|0:0,0:0:0:0:
153,360,361954,1,8,0:0:0:0:
324,301,362194,5,2,0:0:0:0:
333,316,362274,1,0,0:0:0:0:
343,331,362354,1,0,0:0:0:0:
354,346,362434,2,0,L|479:360,1,112.5,0|2,1:0|0:0,0:0:0:0:
466,49,362914,2,0,L|459:111,1,56.25,8|0,0:0|0:0,0:0:0:0:
368,181,363154,2,0,L|375:243,1,56.25,4|0,0:0|0:0,0:0:0:0:
492,341,363394,6,0,B|389:306|389:383|251:351,1,225,4|8,3:0|0:0,0:0:0:0:
42,76,364114,1,2,0:0:0:0:
275,250,364354,1,0,1:0:0:0:
63,278,364594,1,2,0:0:0:0:
292,109,364834,1,8,0:0:0:0:
20,182,365074,1,2,0:0:0:0:
212,345,365314,6,0,P|300:356|393:240,1,225,0|8,0:0|0:0,0:0:0:0:
151,41,366034,1,2,0:0:0:0:
151,41,366274,2,0,L|145:118,1,56.25,0|0,1:0|0:0,0:0:0:0:
336,92,366514,2,0,L|332:36,1,56.25,2|0,0:0|0:0,0:0:0:0:
257,191,366754,1,8,0:0:0:0:
471,128,366994,1,2,0:0:0:0:
238,289,367234,6,0,P|183:268|209:112,1,225,0|8,0:0|0:0,0:0:0:0:
404,75,367954,1,2,0:0:0:0:
404,75,368074,1,0,0:0:0:0:
404,75,368194,2,0,L|390:196,1,112.5,0|2,1:0|0:0,0:0:0:0:
474,347,368674,1,8,0:0:0:0:
286,254,368914,2,0,L|210:266,1,56.25,4|0,0:0|0:0,0:0:0:0:
60,196,369154,6,0,P|122:209|191:213,1,112.5,4|2,3:0|0:0,0:0:0:0:
423,189,369634,1,8,0:0:0:0:
319,101,369874,1,2,0:0:0:0:
423,189,370114,2,0,L|430:262,1,56.25,0|0,1:0|0:0,0:0:0:0:
319,101,370354,2,0,L|326:28,1,56.25,2|0,0:0|0:0,0:0:0:0:
485,45,370594,1,8,0:0:0:0:
485,45,370834,1,2,0:0:0:0:
319,220,371074,6,0,P|238:233|134:246,1,168.75
151,244,371554,1,8,0:0:0:0:
240,129,371794,1,2,0:0:0:0:
325,300,372034,1,0,1:0:0:0:
308,30,372274,1,2,0:0:0:0:
205,351,372514,1,8,0:0:0:0:
190,34,372754,5,2,0:0:0:0:
141,91,372874,1,0,3:0:0:0:
141,91,372934,1,0,3:0:0:0:
141,91,372994,2,0,L|5:108,1,112.5,0|2,3:0|0:0,0:0:0:0:
263,158,373474,1,8,0:0:0:0:
330,38,373714,1,2,0:0:0:0:
411,107,373834,1,0,0:0:0:0:
411,107,373894,1,0,0:0:0:0:
411,107,373954,1,0,1:0:0:0:
172,57,374194,1,4,0:0:0:0:
346,167,374434,6,0,L|365:351,1,168.75,8|0,0:0|0:0,0:0:0:0:
363,334,374914,5,4,3:0:0:0:
448,156,375154,1,2,0:0:0:0:
471,229,375394,2,0,P|427:144|438:55,1,168.75,8|0,0:0|0:0,0:0:0:0:
462,2,375874,1,0,1:0:0:0:
353,96,376114,1,2,0:0:0:0:
201,146,376354,1,8,0:0:0:0:
18,64,376594,2,0,P|11:29|16:2,1,56.25,2|0,0:0|0:0,0:0:0:0:
92,4,376834,1,0,0:0:0:0:
8,193,377074,1,2,0:0:0:0:
102,83,377314,6,0,P|179:49|308:61,1,168.75,8|0,0:0|0:0,0:0:0:0:
328,92,377794,1,0,1:0:0:0:
219,57,378034,1,2,0:0:0:0:
423,195,378274,1,8,0:0:0:0:
462,355,378514,1,2,0:0:0:0:
439,355,378594,1,0,0:0:0:0:
417,350,378674,1,0,0:0:0:0:
368,367,378754,6,0,B|337:331|337:331|356:250,1,112.5,0|2,0:0|0:0,0:0:0:0:
495,256,379234,1,8,0:0:0:0:
374,365,379474,1,2,0:0:0:0:
352,371,379554,1,0,0:0:0:0:
330,363,379634,1,0,0:0:0:0:
286,379,379714,5,0,1:0:0:0:
76,263,379954,1,2,0:0:0:0:
209,384,380194,1,8,0:0:0:0:
144,224,380434,2,0,P|131:199|129:171,1,56.25,4|0,0:0|0:0,0:0:0:0:
225,227,380674,1,4,3:0:0:0:
34,332,380914,1,2,0:0:0:0:
225,227,381154,6,0,P|221:171|195:121,1,112.5,8|2,0:0|0:0,0:0:0:0:
12,62,381634,1,0,1:0:0:0:
196,121,381874,1,2,0:0:0:0:
297,92,382114,1,8,0:0:0:0:
404,6,382354,2,0,P|426:27|442:57,1,56.25,2|0,0:0|0:0,0:0:0:0:
512,137,382594,5,0,0:0:0:0:
438,77,382834,1,2,0:0:0:0:
512,137,383074,6,0,P|449:156|406:236,1,112.5,8|0,0:0|0:0,0:0:0:0:
352,145,383554,1,0,1:0:0:0:
274,202,383794,1,2,0:0:0:0:
115,224,384034,1,8,0:0:0:0:
16,60,384274,1,2,0:0:0:0:
18,38,384354,1,0,3:0:0:0:
32,21,384434,1,0,3:0:0:0:
0,37,384514,2,0,L|121:62,2,112.5,0|2|8,3:0|0:0|0:0,0:0:0:0:
209,224,385234,1,2,0:0:0:0:
207,202,385314,1,0,3:0:0:0:
193,185,385394,1,0,3:0:0:0:
225,201,385474,2,0,L|104:226,2,112.5,0|2|8,3:0|0:0|0:0,0:0:0:0:
398,306,386194,6,0,L|459:324,1,56.25,4|0,0:0|0:0,0:0:0:0:
327,352,386434,1,4,3:0:0:0:
225,201,386674,1,2,0:0:0:0:
398,306,386914,2,0,B|359:231|466:246|410:137,1,168.75,8|0,0:0|0:0,0:0:0:0:
340,174,387394,1,0,1:0:0:0:
475,286,387634,1,2,0:0:0:0:
390,73,387874,1,8,0:0:0:0:
475,286,388114,2,0,P|423:273|396:287,1,56.25,2|0,0:0|0:0,0:0:0:0:
503,195,388354,5,0,0:0:0:0:
332,338,388594,1,2,0:0:0:0:
209,280,388834,2,0,B|171:249|171:249|23:292,1,168.75,8|0,0:0|0:0,0:0:0:0:
27,355,389314,5,0,0:0:0:0:
260,381,389554,1,2,0:0:0:0:
79,235,389794,1,8,0:0:0:0:
206,149,390034,1,2,0:0:0:0:
204,171,390114,1,0,3:0:0:0:
190,188,390194,1,0,3:0:0:0:
222,172,390274,2,0,B|176:137|176:137|105:155,1,112.5,0|0,3:0|0:0,0:0:0:0:
13,104,390754,2,0,L|-3:41,1,56.25,8|0,0:0|0:0,0:0:0:0:
171,45,390994,5,2,0:0:0:0:
173,23,391074,1,0,3:0:0:0:
187,6,391154,1,0,3:0:0:0:
155,22,391234,2,0,B|201:57|201:57|272:39,1,112.5,0|2,1:0|0:0,0:0:0:0:
480,117,391714,1,8,0:0:0:0:
429,61,391954,2,0,L|445:-2,1,56.25
446,188,392194,6,0,P|387:204|340:258,2,112.5,4|2|8,3:0|0:0|0:0,0:0:0:0:
446,188,393154,5,0,1:0:0:0:
373,157,393394,1,2,0:0:0:0:
243,185,393634,1,8,0:0:0:0:
114,343,393874,2,0,P|94:314|94:278,1,56.25,2|0,0:0|0:0,0:0:0:0:
180,308,394114,1,0,3:0:0:0:
242,360,394354,5,2,0:0:0:0:
145,223,394594,2,0,L|128:92,1,112.5,8|2,0:0|0:0,0:0:0:0:
91,293,395074,5,0,1:0:0:0:
145,223,395314,1,2,0:0:0:0:
298,172,395554,1,8,0:0:0:0:
462,241,395794,1,2,0:0:0:0:
460,219,395874,1,0,3:0:0:0:
446,202,395954,1,0,3:0:0:0:
478,218,396034,2,0,L|357:243,1,112.5,0|2,3:0|0:0,0:0:0:0:
298,172,396514,2,0,L|287:110,1,56.25,8|0,0:0|0:0,0:0:0:0:
224,312,396754,1,2,0:0:0:0:
226,290,396834,1,0,3:0:0:0:
240,273,396914,1,0,3:0:0:0:
208,289,396994,2,0,L|329:314,1,112.5,0|2,0:0|0:0,0:0:0:0:
403,317,397354,6,0,L|396:358,2,28.125,0|0|8,3:0|0:0|0:0,0:0:0:0:
403,318,397954,5,4,3:0:0:0:
432,215,398194,1,2,0:0:0:0:
268,53,398434,2,0,L|286:205,1,112.5,8|2,0:0|0:0,0:0:0:0:
470,106,398914,1,0,1:0:0:0:
371,38,399154,1,2,0:0:0:0:
271,296,399394,2,0,L|159:311,1,112.5,8|2,0:0|0:0,0:0:0:0:
38,159,399874,5,0,0:0:0:0:
416,290,400114,1,2,0:0:0:0:
152,214,400354,1,8,0:0:0:0:
354,175,400594,1,2,0:0:0:0:
354,175,400714,1,0,0:0:0:0:
354,175,400834,1,0,1:0:0:0:
219,55,401074,1,2,0:0:0:0:
347,317,401314,2,0,L|480:338,1,112.5,8|2,0:0|0:0,0:0:0:0:
459,335,401674,5,0,3:0:0:0:
459,335,401734,1,0,3:0:0:0:
459,335,401794,2,0,L|474:197,1,112.5,0|2,3:0|0:0,0:0:0:0:
487,32,402274,1,8,0:0:0:0:
339,180,402514,1,2,0:0:0:0:
339,180,402634,1,0,0:0:0:0:
339,180,402754,2,0,P|264:172|215:158,1,112.5,0|2,1:0|0:0,0:0:0:0:
304,71,403234,1,8,0:0:0:0:
187,249,403474,2,0,L|106:260,1,56.25,4|0,0:0|0:0,0:0:0:0:
24,257,403714,6,0,P|105:269|159:357,1,168.75,4|0,3:0|0:0,0:0:0:0:
164,363,404194,1,8,0:0:0:0:
334,223,404434,1,2,0:0:0:0:
293,339,404674,1,0,1:0:0:0:
124,170,404914,1,2,0:0:0:0:
441,337,405154,2,0,L|446:268,1,56.25,8|0,0:0|0:0,0:0:0:0:
330,207,405394,2,0,L|325:138,1,56.25,2|0,0:0|0:0,0:0:0:0:
454,42,405634,5,0,0:0:0:0:
330,207,405874,1,2,0:0:0:0:
154,67,406114,2,0,P|166:123|176:188,1,112.5,8|2,0:0|0:0,0:0:0:0:
93,313,406594,1,0,1:0:0:0:
306,57,406834,1,2,0:0:0:0:
427,346,407074,1,8,0:0:0:0:
68,107,407314,5,2,0:0:0:0:
68,107,407434,1,0,0:0:0:0:
68,107,407554,2,0,P|81:164|90:228,1,112.5,0|2,0:0|0:0,0:0:0:0:
89,347,408034,1,8,0:0:0:0:
219,311,408274,1,2,0:0:0:0:
214,292,408354,1,0,0:0:0:0:
209,273,408434,1,0,0:0:0:0:
204,254,408514,1,0,1:0:0:0:
347,316,408754,1,2,0:0:0:0:
468,368,408994,1,8,0:0:0:0:
345,299,409234,2,0,L|339:222,1,56.25,4|0,0:0|0:0,0:0:0:0:
327,98,409474,5,4,3:0:0:0:
416,165,409714,1,2,0:0:0:0:
229,355,409954,2,0,L|207:222,1,112.5,8|2,0:0|0:0,0:0:0:0:
243,82,410434,1,0,0:0:0:0:
108,342,410674,1,2,0:0:0:0:
157,34,410914,1,8,0:0:0:0:
329,286,411154,2,0,L|404:299,1,56.25,2|0,0:0|0:0,0:0:0:0:
478,308,411394,5,0,0:0:0:0:
284,75,411634,1,2,0:0:0:0:
284,75,411754,1,0,0:0:0:0:
284,75,411874,2,0,P|297:132|304:190,1,112.5,8|2,0:0|0:0,0:0:0:0:
345,348,412354,2,0,L|273:356,1,56.25,0|0,1:0|0:0,0:0:0:0:
207,312,412594,2,0,L|151:305,1,56.25,2|0,0:0|0:0,0:0:0:0:
84,359,412834,2,0,B|64:308|64:308|83:250,1,112.5,8|2,0:0|0:0,0:0:0:0:
82,254,413194,5,0,3:0:0:0:
82,254,413254,1,0,3:0:0:0:
82,254,413314,2,0,L|207:241,1,112.5,0|2,3:0|0:0,0:0:0:0:
340,131,413794,1,8,0:0:0:0:
451,352,414034,1,2,0:0:0:0:
451,352,414154,1,0,0:0:0:0:
451,352,414274,2,0,P|457:291|468:220,1,112.5,0|2,1:0|0:0,0:0:0:0:
357,51,414754,1,8,0:0:0:0:
357,51,414994,2,0,L|365:112,1,56.25,4|0,0:0|0:0,0:0:0:0:
365,188,415234,6,0,P|291:191|223:128,1,168.75,4|0,3:0|0:0,0:0:0:0:
219,111,415714,2,0,L|233:227,1,112.5,8|2,0:0|0:0,0:0:0:0:
401,354,416194,1,0,1:0:0:0:
401,354,416434,2,0,L|325:366,1,56.25,2|0,0:0|0:0,0:0:0:0:
273,296,416674,1,8,0:0:0:0:
273,296,416914,2,0,L|213:287,1,56.25,2|0,0:0|0:0,0:0:0:0:
114,356,417154,6,0,P|106:287|76:118,1,225,0|8,0:0|0:0,0:0:0:0:
52,47,417874,1,2,0:0:0:0:
222,180,418114,1,0,1:0:0:0:
25,250,418354,1,2,0:0:0:0:
182,57,418594,1,8,0:0:0:0:
139,263,418834,1,2,0:0:0:0:
92,191,418954,5,0,3:0:0:0:
92,191,419014,1,0,3:0:0:0:
92,191,419074,1,0,3:0:0:0:
235,327,419314,1,2,0:0:0:0:
269,140,419554,1,0,0:0:0:0:
127,325,419794,6,0,L|121:382,1,56.25,4|0,0:0|0:0,0:0:0:0:
33,90,420034,1,0,1:0:0:0:
269,140,420274,1,2,0:0:0:0:
0,211,420514,1,8,0:0:0:0:
137,26,420754,2,0,P|151:81|155:103,1,56.25,2|0,0:0|0:0,0:0:0:0:
149,247,420994,6,0,P|217:231|349:335,1,225,4|8,3:0|0:0,0:0:0:0:
281,363,421714,1,2,0:0:0:0:
340,310,421954,5,0,1:0:0:0:
403,192,422194,1,2,0:0:0:0:
505,347,422434,2,0,L|235:366,1,225,8|0,0:0|0:0,0:0:0:0:
187,263,423154,1,2,0:0:0:0:
385,283,423394,6,0,B|404:231|404:231|378:172,1,112.5,8|2,0:0|0:0,0:0:0:0:
507,350,423874,1,0,1:0:0:0:
385,283,424114,1,2,0:0:0:0:
500,171,424354,2,0,L|452:16,1,112.5,8|2,0:0|0:0,0:0:0:0:
402,191,424714,1,0,3:0:0:0:
402,191,424834,2,0,B|297:241|297:241|235:133,1,225,0|8,3:0|0:0,0:0:0:0:
177,372,425554,5,2,0:0:0:0:
177,372,425674,1,0,0:0:0:0:
177,372,425794,2,0,B|135:348|135:348|115:238,1,112.5,0|2,3:0|0:0,0:0:0:0:
172,132,426274,1,8,0:0:0:0:
65,235,426514,2,0,L|6:244,1,56.25,4|0,0:0|0:0,0:0:0:0:
15,161,426754,5,4,3:0:0:0:
123,284,426994,1,2,0:0:0:0:
261,198,427234,2,0,P|354:189|457:288,1,225,8|0,0:0|1:0,0:0:0:0:
390,361,427954,2,0,B|374:335|374:335|382:281,1,56.25,2|0,0:0|0:0,0:0:0:0:
512,227,428194,1,8,0:0:0:0:
473,67,428434,1,2,0:0:0:0:
473,67,428554,1,0,0:0:0:0:
473,67,428674,2,0,B|520:126|450:162|468:167|398:199|451:270,1,225,0|8,0:0|0:0,0:0:0:0:
313,207,429394,5,2,0:0:0:0:
377,309,429634,2,0,L|247:333,1,112.5,0|2,1:0|0:0,0:0:0:0:
197,143,430114,1,8,0:0:0:0:
313,207,430354,1,0,0:0:0:0:
169,355,430594,6,0,B|197:314|197:314|172:233,1,112.5,0|2,3:0|0:0,0:0:0:0:
9,244,431074,2,0,B|52:197|52:197|101:202,1,112.5,8|2,0:0|0:0,0:0:0:0:
92,346,431394,5,0,0:0:0:0:
88,364,431474,1,0,0:0:0:0:
82,381,431554,2,0,B|20:366|20:366|0:321,1,112.5,0|2,1:0|0:0,0:0:0:0:
167,253,432034,1,8,0:0:0:0:
2,170,432274,6,0,P|22:150|58:146,1,56.25,4|0,0:0|0:0,0:0:0:0:
101,202,432514,1,4,3:0:0:0:
174,363,432754,1,2,0:0:0:0:
157,144,432994,6,2,B|184:105|184:105|155:21,1,112.5
43,71,433474,1,0,1:0:0:0:
228,189,433714,1,2,0:0:0:0:
146,30,433954,1,8,0:0:0:0:
49,301,434194,2,0,P|29:276|31:237,1,56.25,2|0,0:0|0:0,0:0:0:0:
106,251,434434,6,0,B|161:225|191:269|180:271|206:311|277:287,1,168.75
386,267,434914,2,2,B|359:276|340:299|340:299|342:277|326:245,1,112.5,10|2,0:0|0:0,0:0:0:0:
296,366,435394,5,0,1:0:0:0:
465,316,435634,1,2,0:0:0:0:
256,212,435874,1,8,0:0:0:0:
499,234,436114,6,0,P|513:200|510:174,1,56.25,2|0,0:0|0:0,0:0:0:0:
449,138,436354,1,0,3:0:0:0:
326,245,436594,1,2,0:0:0:0:
414,13,436834,6,0,P|475:32|493:79,1,112.5,8|2,0:0|0:0,0:0:0:0:
359,101,437154,5,0,0:0:0:0:
340,97,437234,1,0,0:0:0:0:
322,104,437314,1,0,1:0:0:0:
232,248,437554,1,2,0:0:0:0:
135,42,437794,1,8,0:0:0:0:
347,179,438034,6,0,P|377:194|394:233,1,56.25,4|0,0:0|0:0,0:0:0:0:
373,288,438274,1,4,3:0:0:0:
233,384,438514,1,2,0:0:0:0:
499,349,438754,6,0,L|378:369,1,112.5,8|2,0:0|0:0,0:0:0:0:
490,235,439234,5,0,1:0:0:0:
448,81,439474,1,2,0:0:0:0:
344,242,439714,5,8,0:0:0:0:
340,113,439954,2,0,P|381:131|395:163,1,56.25,2|0,0:0|0:0,0:0:0:0:
431,207,440194,1,0,0:0:0:0:
331,338,440434,1,2,0:0:0:0:
467,133,440674,6,0,P|489:81|465:14,1,112.5,8|2,0:0|0:0,0:0:0:0:
512,202,441154,5,0,1:0:0:0:
386,42,441394,1,2,0:0:0:0:
476,28,441634,5,8,0:0:0:0:
396,251,441874,1,2,0:0:0:0:
324,288,442114,5,0,0:0:0:0:
210,61,442354,1,2,0:0:0:0:
359,3,442594,5,8,0:0:0:0:
192,187,442834,2,0,P|168:158|164:131,1,56.25,4|0,0:0|0:0,0:0:0:0:
282,204,443074,6,0,P|266:122|210:61,1,168.75,0|0,1:0|0:0,0:0:0:0:
192,187,443554,5,8,0:0:0:0:
64,142,443794,1,2,0:0:0:0:
0,302,444034,5,4,3:0:0:0:
128,257,444274,1,2,0:0:0:0:
273,361,444514,6,0,B|311:320|311:320|380:350,1,112.5,8|2,0:0|0:0,0:0:0:0:
386,231,444994,5,0,1:0:0:0:
203,312,445234,1,2,0:0:0:0:
206,126,445474,5,8,0:0:0:0:
306,172,445714,2,0,P|321:139|313:101,1,56.25,2|0,0:0|0:0,0:0:0:0:
263,64,445954,1,0,3:0:0:0:
249,235,446194,1,2,0:0:0:0:
356,44,446434,6,0,P|426:50|456:83,1,112.5,8|2,0:0|0:0,0:0:0:0:
481,192,446914,5,0,1:0:0:0:
423,334,447154,1,2,0:0:0:0:
423,147,447394,1,8,0:0:0:0:
249,235,447634,2,0,P|220:210|191:206,1,56.25,2|0,0:0|0:0,0:0:0:0:
127,223,447874,1,0,0:0:0:0:
28,364,448114,1,2,0:0:0:0:
151,148,448354,6,0,P|119:100|121:27,1,112.5,8|2,0:0|0:0,0:0:0:0:
229,131,448674,1,0,0:0:0:0:
250,123,448754,1,0,0:0:0:0:
272,124,448834,1,0,1:0:0:0:
363,270,449074,1,2,0:0:0:0:
474,75,449314,1,8,0:0:0:0:
508,194,449554,6,0,P|474:171|446:165,1,56.25,4|0,0:0|0:0,0:0:0:0:
387,191,449794,1,4,3:0:0:0:
289,338,450034,1,2,0:0:0:0:
403,113,450274,6,0,L|379:-15,1,112.5,8|2,0:0|0:0,0:0:0:0:
448,244,450754,5,0,1:0:0:0:
306,115,450994,1,2,0:0:0:0:
257,299,451234,1,8,0:0:0:0:
403,113,451474,6,0,P|421:85|422:58,1,56.25,2|0,0:0|0:0,0:0:0:0:
382,2,451714,1,4,3:0:0:0:
256,192,451834,12,0,459394,0:0:0:0:
