osu file format v14

[General]
AudioFilename: audio.mp3
AudioLeadIn: 0
PreviewTime: -1
Countdown: 1
SampleSet: None
StackLeniency: 0.7
Mode: 3
LetterboxInBreaks: 0
SpecialStyle: 0
WidescreenStoryboard: 0

[Editor]
Bookmarks: 70246
DistanceSpacing: 0.5
BeatDivisor: 4
GridSize: 8
TimelineZoom: 1.8

[Metadata]
Title:Shinkaron code:variant
TitleUnicode:進化論 code:variant
Artist:Tamburin-P
ArtistUnicode:タンバリンP
Creator:juankristal
Version:LN:variant
Source:
Tags:
BeatmapID:2083511
BeatmapSetID:996067

[Difficulty]
HPDrainRate:6
CircleSize:4
OverallDifficulty:6.5
ApproachRate:5
SliderMultiplier:1.4
SliderTickRate:1

[Events]
//Background and Video events
0,0,"chrome_2019-06-27_19-07-11.jpg",0,0
//Break Periods
//Storyboard Layer 0 (Background)
//Storyboard Layer 1 (Fail)
//Storyboard Layer 2 (Pass)
//Storyboard Layer 3 (Foreground)
//Storyboard Sound Samples

[TimingPoints]
93,307.692307692308,4,1,0,100,1,0
125016,307.692307692308,4,1,0,100,1,0

[HitObjects]
192,192,1169,5,0,0:0:0:0:
320,192,1246,1,0,0:0:0:0:
64,192,1323,1,0,0:0:0:0:
64,192,1477,1,0,0:0:0:0:
448,192,1631,1,0,0:0:0:0:
320,192,1631,1,0,0:0:0:0:
64,192,1785,1,0,0:0:0:0:
64,192,1939,1,0,0:0:0:0:
64,192,2093,1,0,0:0:0:0:
320,192,2246,1,0,0:0:0:0:
448,192,2246,1,0,0:0:0:0:
64,192,2400,1,0,0:0:0:0:
320,192,2477,1,0,0:0:0:0:
192,192,2554,1,0,0:0:0:0:
192,192,2708,1,0,0:0:0:0:
320,192,2862,1,0,0:0:0:0:
448,192,2862,1,0,0:0:0:0:
192,192,3016,1,0,0:0:0:0:
192,192,3169,1,0,0:0:0:0:
192,192,3323,1,0,0:0:0:0:
320,192,3477,1,0,0:0:0:0:
448,192,3477,1,0,0:0:0:0:
64,192,3631,1,0,0:0:0:0:
192,192,3708,5,0,0:0:0:0:
448,192,3785,1,0,0:0:0:0:
448,192,3939,1,0,0:0:0:0:
64,192,4093,1,0,0:0:0:0:
192,192,4093,1,0,0:0:0:0:
448,192,4246,1,0,0:0:0:0:
448,192,4400,1,0,0:0:0:0:
448,192,4554,1,0,0:0:0:0:
64,192,4708,1,0,0:0:0:0:
192,192,4708,1,0,0:0:0:0:
320,192,4862,1,0,0:0:0:0:
192,192,4939,1,0,0:0:0:0:
448,192,5016,1,0,0:0:0:0:
320,192,5016,1,0,0:0:0:0:
192,192,5169,1,0,0:0:0:0:
320,192,5246,1,0,0:0:0:0:
192,192,5323,1,0,0:0:0:0:
64,192,5323,1,0,0:0:0:0:
448,192,5477,1,0,0:0:0:0:
64,192,5554,1,0,0:0:0:0:
320,192,5631,1,0,0:0:0:0:
448,192,5631,1,0,0:0:0:0:
192,192,5785,1,0,0:0:0:0:
320,192,5862,1,0,0:0:0:0:
192,192,5939,1,0,0:0:0:0:
448,192,6246,1,0,0:0:0:0:
64,192,6246,128,0,6554:0:0:0:0:
320,192,6400,128,0,6554:0:0:0:0:
448,192,6554,128,0,6862:0:0:0:0:
192,192,6554,1,0,0:0:0:0:
320,192,6708,128,0,6862:0:0:0:0:
192,192,6862,128,0,7169:0:0:0:0:
64,192,7169,128,0,7323:0:0:0:0:
320,192,7169,1,0,0:0:0:0:
448,192,7323,128,0,7631:0:0:0:0:
320,192,7631,128,0,7785:0:0:0:0:
64,192,7785,128,0,7939:0:0:0:0:
448,192,7785,1,0,0:0:0:0:
192,192,7939,128,0,8093:0:0:0:0:
320,192,8093,128,0,8169:0:0:0:0:
320,192,8246,128,0,8323:0:0:0:0:
320,192,8400,128,0,8477:0:0:0:0:
64,192,8400,1,0,0:0:0:0:
320,192,8554,128,0,8708:0:0:0:0:
64,192,8708,128,0,9016:0:0:0:0:
192,192,8708,1,0,0:0:0:0:
448,192,8862,128,0,9016:0:0:0:0:
192,192,9016,128,0,9323:0:0:0:0:
320,192,9016,1,0,0:0:0:0:
64,192,9169,128,0,9323:0:0:0:0:
448,192,9323,128,0,9631:0:0:0:0:
320,192,9631,128,0,9785:0:0:0:0:
64,192,9631,1,0,0:0:0:0:
448,192,9785,128,0,10093:0:0:0:0:
320,192,10093,128,0,10246:0:0:0:0:
192,192,10246,128,0,10400:0:0:0:0:
64,192,10246,1,0,0:0:0:0:
320,192,10400,128,0,10554:0:0:0:0:
192,192,10554,128,0,10631:0:0:0:0:
320,192,10708,128,0,10785:0:0:0:0:
448,192,10708,1,0,0:0:0:0:
192,192,10862,1,0,0:0:0:0:
64,192,11016,1,0,0:0:0:0:
448,192,11016,128,0,11093:0:0:0:0:
320,192,11169,1,0,0:0:0:0:
64,192,11169,128,0,11477:0:0:0:0:
192,192,11323,128,0,11477:0:0:0:0:
320,192,11477,128,0,11785:0:0:0:0:
448,192,11477,1,0,0:0:0:0:
192,192,11631,128,0,11785:0:0:0:0:
448,192,11785,128,0,12093:0:0:0:0:
64,192,12093,128,0,12246:0:0:0:0:
192,192,12093,1,0,0:0:0:0:
320,192,12246,128,0,12554:0:0:0:0:
192,192,12554,128,0,12708:0:0:0:0:
64,192,12708,128,0,12862:0:0:0:0:
448,192,12708,1,0,0:0:0:0:
320,192,12862,128,0,13016:0:0:0:0:
448,192,13016,128,0,13093:0:0:0:0:
448,192,13169,128,0,13246:0:0:0:0:
448,192,13323,128,0,13400:0:0:0:0:
64,192,13323,1,0,0:0:0:0:
448,192,13477,128,0,13631:0:0:0:0:
64,192,13631,128,0,13939:0:0:0:0:
192,192,13631,1,0,0:0:0:0:
320,192,13785,128,0,13939:0:0:0:0:
192,192,13939,128,0,14246:0:0:0:0:
448,192,13939,1,0,0:0:0:0:
320,192,14093,128,0,14246:0:0:0:0:
448,192,14246,128,0,14554:0:0:0:0:
320,192,14554,128,0,14708:0:0:0:0:
64,192,14554,1,0,0:0:0:0:
448,192,14708,128,0,15016:0:0:0:0:
320,192,15016,128,0,15169:0:0:0:0:
192,192,15169,128,0,15323:0:0:0:0:
64,192,15169,1,0,0:0:0:0:
320,192,15323,128,0,15477:0:0:0:0:
192,192,15477,128,0,15554:0:0:0:0:
320,192,15631,128,0,15708:0:0:0:0:
448,192,15631,1,0,0:0:0:0:
192,192,15785,1,0,0:0:0:0:
64,192,15939,1,0,0:0:0:0:
448,192,15939,128,0,16016:0:0:0:0:
320,192,16093,1,0,0:0:0:0:
64,192,16093,128,0,16400:0:0:0:0:
192,192,16246,128,0,16400:0:0:0:0:
448,192,16400,128,0,16708:0:0:0:0:
320,192,16400,1,0,0:0:0:0:
64,192,16554,128,0,16708:0:0:0:0:
192,192,16708,128,0,17016:0:0:0:0:
64,192,17016,128,0,17169:0:0:0:0:
320,192,17016,1,0,0:0:0:0:
448,192,17169,128,0,17477:0:0:0:0:
320,192,17477,128,0,17631:0:0:0:0:
64,192,17631,128,0,17785:0:0:0:0:
448,192,17631,1,0,0:0:0:0:
192,192,17785,128,0,17939:0:0:0:0:
320,192,17939,128,0,18016:0:0:0:0:
320,192,18093,128,0,18169:0:0:0:0:
320,192,18246,128,0,18323:0:0:0:0:
64,192,18246,1,0,0:0:0:0:
320,192,18400,128,0,18554:0:0:0:0:
64,192,18554,128,0,18862:0:0:0:0:
192,192,18554,1,0,0:0:0:0:
448,192,18708,128,0,18862:0:0:0:0:
192,192,18862,128,0,19169:0:0:0:0:
320,192,18862,1,0,0:0:0:0:
64,192,19016,128,0,19169:0:0:0:0:
448,192,19169,128,0,19477:0:0:0:0:
320,192,19477,128,0,19631:0:0:0:0:
64,192,19477,1,0,0:0:0:0:
448,192,19631,128,0,19939:0:0:0:0:
320,192,19939,128,0,20093:0:0:0:0:
192,192,20093,128,0,20246:0:0:0:0:
448,192,20093,1,0,0:0:0:0:
320,192,20246,128,0,20400:0:0:0:0:
192,192,20400,128,0,20477:0:0:0:0:
320,192,20554,128,0,20631:0:0:0:0:
448,192,20554,1,0,0:0:0:0:
192,192,20708,1,0,0:0:0:0:
64,192,20862,1,0,0:0:0:0:
448,192,20862,128,0,20939:0:0:0:0:
320,192,21016,1,0,0:0:0:0:
64,192,21016,128,0,21323:0:0:0:0:
192,192,21169,128,0,21323:0:0:0:0:
320,192,21323,128,0,21631:0:0:0:0:
448,192,21323,1,0,0:0:0:0:
192,192,21477,128,0,21631:0:0:0:0:
448,192,21631,128,0,21939:0:0:0:0:
64,192,21939,128,0,22093:0:0:0:0:
192,192,21939,1,0,0:0:0:0:
320,192,22093,128,0,22400:0:0:0:0:
192,192,22400,128,0,22554:0:0:0:0:
64,192,22554,128,0,22708:0:0:0:0:
448,192,22554,1,0,0:0:0:0:
320,192,22708,128,0,22862:0:0:0:0:
448,192,22862,128,0,22939:0:0:0:0:
448,192,23016,128,0,23093:0:0:0:0:
448,192,23169,128,0,23246:0:0:0:0:
64,192,23169,1,0,0:0:0:0:
448,192,23323,128,0,23477:0:0:0:0:
64,192,23477,128,0,23785:0:0:0:0:
192,192,23477,1,0,0:0:0:0:
448,192,23631,128,0,23785:0:0:0:0:
192,192,23785,128,0,24093:0:0:0:0:
320,192,23785,1,0,0:0:0:0:
64,192,23939,128,0,24093:0:0:0:0:
448,192,24093,128,0,24400:0:0:0:0:
320,192,24400,128,0,24554:0:0:0:0:
64,192,24400,1,0,0:0:0:0:
448,192,24554,128,0,24862:0:0:0:0:
320,192,24862,128,0,25016:0:0:0:0:
192,192,25016,128,0,25169:0:0:0:0:
64,192,25016,1,0,0:0:0:0:
320,192,25169,128,0,25323:0:0:0:0:
192,192,25323,128,0,25400:0:0:0:0:
448,192,25477,1,0,0:0:0:0:
320,192,25477,128,0,25554:0:0:0:0:
192,192,25631,1,0,0:0:0:0:
448,192,25785,128,0,25862:0:0:0:0:
64,192,25785,1,0,0:0:0:0:
64,192,25939,128,0,26246:0:0:0:0:
320,192,25939,1,0,0:0:0:0:
192,192,26246,128,0,26554:0:0:0:0:
448,192,26246,1,0,0:0:0:0:
448,192,26554,128,0,26862:0:0:0:0:
320,192,26862,128,0,26939:0:0:0:0:
64,192,26862,1,0,0:0:0:0:
192,192,27016,128,0,27323:0:0:0:0:
64,192,27323,128,0,27631:0:0:0:0:
448,192,27477,1,0,0:0:0:0:
192,192,27477,1,0,0:0:0:0:
320,192,27631,128,0,27785:0:0:0:0:
192,192,27939,128,0,28093:0:0:0:0:
320,192,28093,128,0,28246:0:0:0:0:
448,192,28093,1,0,0:0:0:0:
192,192,28246,128,0,28400:0:0:0:0:
448,192,28400,128,0,28631:0:0:0:0:
448,192,28708,128,0,28939:0:0:0:0:
64,192,28708,1,0,0:0:0:0:
448,192,29016,128,0,29323:0:0:0:0:
320,192,29323,128,0,29400:0:0:0:0:
192,192,29323,1,0,0:0:0:0:
64,192,29477,128,0,29631:0:0:0:0:
320,192,29785,128,0,29939:0:0:0:0:
448,192,29939,1,0,0:0:0:0:
64,192,29939,1,0,0:0:0:0:
192,192,30093,128,0,30246:0:0:0:0:
448,192,30246,128,0,30862:0:0:0:0:
64,192,30400,128,0,30554:0:0:0:0:
192,192,30554,128,0,30708:0:0:0:0:
320,192,30708,128,0,30862:0:0:0:0:
64,192,30862,128,0,31169:0:0:0:0:
192,192,30862,1,0,0:0:0:0:
320,192,31169,128,0,31477:0:0:0:0:
448,192,31169,1,0,0:0:0:0:
192,192,31477,128,0,31785:0:0:0:0:
320,192,31785,128,0,31862:0:0:0:0:
64,192,31785,1,0,0:0:0:0:
448,192,31939,128,0,32169:0:0:0:0:
192,192,32246,128,0,32477:0:0:0:0:
448,192,32400,1,0,0:0:0:0:
64,192,32400,1,0,0:0:0:0:
320,192,32554,128,0,32785:0:0:0:0:
64,192,32862,128,0,33016:0:0:0:0:
192,192,33016,128,0,33169:0:0:0:0:
448,192,33016,1,0,0:0:0:0:
320,192,33169,128,0,33323:0:0:0:0:
448,192,33323,128,0,33631:0:0:0:0:
192,192,33323,128,0,33477:0:0:0:0:
64,192,33477,128,0,33631:0:0:0:0:
320,192,33477,128,0,33631:0:0:0:0:
192,192,33785,128,0,33939:0:0:0:0:
320,192,33785,128,0,34093:0:0:0:0:
64,192,33939,128,0,34093:0:0:0:0:
448,192,33939,128,0,34093:0:0:0:0:
448,192,34246,128,0,34708:0:0:0:0:
320,192,34246,128,0,34400:0:0:0:0:
64,192,34400,128,0,34708:0:0:0:0:
192,192,34400,128,0,34554:0:0:0:0:
192,192,34708,128,0,34862:0:0:0:0:
320,192,34708,128,0,34862:0:0:0:0:
448,192,34862,128,0,35016:0:0:0:0:
64,192,34862,128,0,35016:0:0:0:0:
320,192,35016,128,0,35169:0:0:0:0:
192,192,35016,128,0,35093:0:0:0:0:
64,192,35169,128,0,35246:0:0:0:0:
192,192,35169,128,0,35246:0:0:0:0:
64,192,35323,128,0,35477:0:0:0:0:
192,192,35323,128,0,35477:0:0:0:0:
448,192,35477,128,0,35785:0:0:0:0:
320,192,35477,128,0,35785:0:0:0:0:
64,192,35631,128,0,35785:0:0:0:0:
192,192,35785,128,0,36400:0:0:0:0:
320,192,36093,1,0,0:0:0:0:
448,192,36093,1,0,0:0:0:0:
320,192,36400,128,0,36708:0:0:0:0:
448,192,36708,128,0,36785:0:0:0:0:
64,192,36708,1,0,0:0:0:0:
192,192,36862,128,0,37016:0:0:0:0:
320,192,37169,128,0,37323:0:0:0:0:
448,192,37323,1,0,0:0:0:0:
192,192,37323,1,0,0:0:0:0:
64,192,37477,128,0,37631:0:0:0:0:
192,192,37785,128,0,37939:0:0:0:0:
320,192,37939,128,0,38093:0:0:0:0:
64,192,37939,1,0,0:0:0:0:
448,192,38093,128,0,38169:0:0:0:0:
448,192,38246,128,0,38477:0:0:0:0:
192,192,38246,1,0,0:0:0:0:
320,192,38554,128,0,38785:0:0:0:0:
64,192,38554,1,0,0:0:0:0:
192,192,38862,128,0,38939:0:0:0:0:
192,192,39016,128,0,39169:0:0:0:0:
64,192,39169,128,0,39477:0:0:0:0:
448,192,39169,1,0,0:0:0:0:
320,192,39323,128,0,39477:0:0:0:0:
448,192,39631,128,0,39939:0:0:0:0:
64,192,39785,1,0,0:0:0:0:
192,192,39785,1,0,0:0:0:0:
320,192,39939,128,0,40093:0:0:0:0:
64,192,40093,128,0,40708:0:0:0:0:
192,192,40246,1,0,0:0:0:0:
448,192,40400,1,0,0:0:0:0:
192,192,40554,128,0,40708:0:0:0:0:
448,192,40708,128,0,41016:0:0:0:0:
320,192,40708,1,0,0:0:0:0:
320,192,41016,128,0,41323:0:0:0:0:
192,192,41016,1,0,0:0:0:0:
64,192,41323,128,0,41631:0:0:0:0:
320,192,41631,128,0,41785:0:0:0:0:
448,192,41631,1,0,0:0:0:0:
192,192,41785,128,0,42093:0:0:0:0:
64,192,42093,128,0,42400:0:0:0:0:
448,192,42246,1,0,0:0:0:0:
320,192,42246,1,0,0:0:0:0:
192,192,42400,128,0,42554:0:0:0:0:
192,192,42708,128,0,42862:0:0:0:0:
448,192,42862,128,0,43016:0:0:0:0:
64,192,42862,1,0,0:0:0:0:
320,192,43016,128,0,43169:0:0:0:0:
192,192,43169,128,0,43477:0:0:0:0:
64,192,43169,1,0,0:0:0:0:
64,192,43477,128,0,43785:0:0:0:0:
448,192,43477,1,0,0:0:0:0:
320,192,43785,128,0,44093:0:0:0:0:
192,192,44093,128,0,44246:0:0:0:0:
64,192,44093,1,0,0:0:0:0:
448,192,44246,128,0,44708:0:0:0:0:
320,192,44554,1,0,0:0:0:0:
64,192,44708,128,0,44785:0:0:0:0:
192,192,44708,1,0,0:0:0:0:
64,192,44862,128,0,45016:0:0:0:0:
320,192,45016,128,0,45323:0:0:0:0:
192,192,45016,1,0,0:0:0:0:
448,192,45169,128,0,45323:0:0:0:0:
192,192,45323,128,0,45631:0:0:0:0:
64,192,45323,1,0,0:0:0:0:
448,192,45631,128,0,46708:0:0:0:0:
64,192,45631,128,0,45939:0:0:0:0:
192,192,45785,128,0,45939:0:0:0:0:
320,192,45939,128,0,46246:0:0:0:0:
192,192,46093,128,0,46246:0:0:0:0:
64,192,46246,128,0,46554:0:0:0:0:
192,192,46554,128,0,46708:0:0:0:0:
320,192,46708,128,0,47016:0:0:0:0:
192,192,47016,128,0,47169:0:0:0:0:
64,192,47169,128,0,47323:0:0:0:0:
448,192,47169,1,0,0:0:0:0:
320,192,47323,128,0,47477:0:0:0:0:
448,192,47477,128,0,47554:0:0:0:0:
448,192,47631,128,0,47708:0:0:0:0:
448,192,47785,128,0,47862:0:0:0:0:
64,192,47785,1,0,0:0:0:0:
448,192,47939,128,0,48093:0:0:0:0:
64,192,48093,128,0,48400:0:0:0:0:
320,192,48093,1,0,0:0:0:0:
192,192,48246,128,0,48400:0:0:0:0:
320,192,48400,128,0,48708:0:0:0:0:
448,192,48400,1,0,0:0:0:0:
64,192,48554,128,0,48708:0:0:0:0:
448,192,48708,128,0,49016:0:0:0:0:
64,192,49016,128,0,49169:0:0:0:0:
192,192,49016,1,0,0:0:0:0:
320,192,49169,128,0,49477:0:0:0:0:
64,192,49477,128,0,49631:0:0:0:0:
192,192,49631,128,0,49785:0:0:0:0:
448,192,49631,1,0,0:0:0:0:
320,192,49785,128,0,49939:0:0:0:0:
192,192,49939,128,0,50093:0:0:0:0:
448,192,50093,128,0,50246:0:0:0:0:
320,192,50093,1,0,0:0:0:0:
192,192,50246,128,0,50554:0:0:0:0:
64,192,50246,128,0,50554:0:0:0:0:
448,192,50554,128,0,53016:0:0:0:0:
320,192,50554,128,0,51169:0:0:0:0:
64,192,50708,1,0,0:0:0:0:
192,192,50862,1,0,0:0:0:0:
64,192,51016,1,0,0:0:0:0:
192,192,51169,128,0,51477:0:0:0:0:
320,192,51323,1,0,0:0:0:0:
64,192,51477,128,0,51631:0:0:0:0:
320,192,51631,128,0,52093:0:0:0:0:
192,192,51785,1,0,0:0:0:0:
64,192,51939,1,0,0:0:0:0:
192,192,52093,128,0,52400:0:0:0:0:
320,192,52246,1,0,0:0:0:0:
64,192,52400,128,0,52631:0:0:0:0:
320,192,52554,1,0,0:0:0:0:
64,192,52708,128,0,53016:0:0:0:0:
192,192,52862,1,0,0:0:0:0:
192,192,53016,128,0,55169:0:0:0:0:
320,192,53016,128,0,53323:0:0:0:0:
64,192,53169,1,0,0:0:0:0:
448,192,53323,128,0,53554:0:0:0:0:
64,192,53477,128,0,53631:0:0:0:0:
448,192,53631,128,0,53785:0:0:0:0:
64,192,53785,128,0,53939:0:0:0:0:
320,192,53939,128,0,54093:0:0:0:0:
64,192,54093,128,0,54862:0:0:0:0:
320,192,54246,1,0,0:0:0:0:
448,192,54400,1,0,0:0:0:0:
320,192,54554,1,0,0:0:0:0:
448,192,54708,1,0,0:0:0:0:
320,192,54862,1,0,0:0:0:0:
448,192,54939,1,0,0:0:0:0:
64,192,55016,1,0,0:0:0:0:
448,192,55093,1,0,0:0:0:0:
320,192,55169,128,0,55323:0:0:0:0:
448,192,55477,128,0,55785:0:0:0:0:
192,192,55477,128,0,55631:0:0:0:0:
320,192,55631,1,0,0:0:0:0:
64,192,55785,128,0,56093:0:0:0:0:
192,192,55785,128,0,55939:0:0:0:0:
448,192,55939,1,0,0:0:0:0:
192,192,56093,128,0,56400:0:0:0:0:
320,192,56093,128,0,56246:0:0:0:0:
448,192,56246,1,0,0:0:0:0:
64,192,56400,128,0,56554:0:0:0:0:
320,192,56400,128,0,56554:0:0:0:0:
448,192,56554,128,0,56862:0:0:0:0:
192,192,56554,128,0,56708:0:0:0:0:
320,192,56708,1,0,0:0:0:0:
192,192,56862,128,0,57169:0:0:0:0:
64,192,56862,128,0,57016:0:0:0:0:
448,192,57016,1,0,0:0:0:0:
320,192,57169,128,0,57323:0:0:0:0:
64,192,57169,128,0,57323:0:0:0:0:
448,192,57323,1,0,0:0:0:0:
64,192,57477,128,0,57631:0:0:0:0:
192,192,57477,128,0,57631:0:0:0:0:
448,192,57631,128,0,57785:0:0:0:0:
320,192,57631,128,0,57785:0:0:0:0:
64,192,57785,128,0,57939:0:0:0:0:
192,192,57785,128,0,57939:0:0:0:0:
320,192,57939,128,0,58016:0:0:0:0:
448,192,57939,128,0,58246:0:0:0:0:
320,192,58093,128,0,58246:0:0:0:0:
64,192,58093,128,0,58246:0:0:0:0:
192,192,58400,128,0,58477:0:0:0:0:
64,192,58400,128,0,58708:0:0:0:0:
192,192,58554,128,0,58708:0:0:0:0:
448,192,58554,128,0,58708:0:0:0:0:
192,192,58862,128,0,58939:0:0:0:0:
320,192,58862,128,0,59016:0:0:0:0:
64,192,59016,128,0,59323:0:0:0:0:
192,192,59016,128,0,59323:0:0:0:0:
448,192,59323,128,0,59477:0:0:0:0:
320,192,59323,128,0,59400:0:0:0:0:
64,192,59477,128,0,59631:0:0:0:0:
192,192,59477,128,0,59554:0:0:0:0:
192,192,59631,128,0,59708:0:0:0:0:
320,192,59631,128,0,59785:0:0:0:0:
64,192,59785,128,0,60093:0:0:0:0:
448,192,59785,128,0,60093:0:0:0:0:
192,192,60093,128,0,60400:0:0:0:0:
320,192,60093,128,0,60400:0:0:0:0:
448,192,60400,128,0,60708:0:0:0:0:
64,192,60554,128,0,60862:0:0:0:0:
192,192,60708,1,0,0:0:0:0:
192,192,60862,128,0,61169:0:0:0:0:
448,192,61016,128,0,61323:0:0:0:0:
320,192,61169,128,0,61477:0:0:0:0:
64,192,61323,1,0,0:0:0:0:
64,192,61477,128,0,61785:0:0:0:0:
320,192,61631,128,0,61939:0:0:0:0:
192,192,61785,128,0,62093:0:0:0:0:
448,192,61939,1,0,0:0:0:0:
448,192,62093,128,0,62400:0:0:0:0:
320,192,62093,1,0,0:0:0:0:
64,192,62246,128,0,62554:0:0:0:0:
192,192,62246,1,0,0:0:0:0:
320,192,62400,128,0,62554:0:0:0:0:
192,192,62554,128,0,62862:0:0:0:0:
448,192,62554,1,0,0:0:0:0:
448,192,62708,128,0,62862:0:0:0:0:
320,192,62708,1,0,0:0:0:0:
64,192,62862,128,0,63169:0:0:0:0:
320,192,63016,128,0,63323:0:0:0:0:
192,192,63169,1,0,0:0:0:0:
192,192,63323,128,0,63631:0:0:0:0:
448,192,63477,128,0,63785:0:0:0:0:
64,192,63631,128,0,63939:0:0:0:0:
320,192,63785,1,0,0:0:0:0:
320,192,63939,128,0,64246:0:0:0:0:
192,192,64093,128,0,64400:0:0:0:0:
448,192,64246,128,0,64554:0:0:0:0:
64,192,64400,1,0,0:0:0:0:
192,192,64554,128,0,64862:0:0:0:0:
320,192,64708,128,0,64862:0:0:0:0:
448,192,64862,128,0,65169:0:0:0:0:
64,192,65016,1,0,0:0:0:0:
320,192,65093,1,0,0:0:0:0:
192,192,65169,1,0,0:0:0:0:
64,192,65246,1,0,0:0:0:0:
448,192,65323,1,0,0:0:0:0:
320,192,65323,128,0,65631:0:0:0:0:
192,192,65477,128,0,65631:0:0:0:0:
64,192,65631,128,0,65862:0:0:0:0:
448,192,65631,1,0,0:0:0:0:
448,192,65785,128,0,65939:0:0:0:0:
64,192,65939,128,0,66246:0:0:0:0:
320,192,66093,128,0,66246:0:0:0:0:
192,192,66246,128,0,66400:0:0:0:0:
448,192,66246,1,0,0:0:0:0:
320,192,66400,128,0,66631:0:0:0:0:
64,192,66554,128,0,66708:0:0:0:0:
320,192,66708,128,0,67016:0:0:0:0:
192,192,66862,128,0,67016:0:0:0:0:
64,192,66862,1,0,0:0:0:0:
448,192,67016,128,0,67323:0:0:0:0:
64,192,67169,128,0,67323:0:0:0:0:
320,192,67323,128,0,67477:0:0:0:0:
192,192,67477,128,0,67631:0:0:0:0:
448,192,67477,1,0,0:0:0:0:
64,192,67631,128,0,67708:0:0:0:0:
64,192,67785,128,0,68093:0:0:0:0:
448,192,67785,1,0,0:0:0:0:
320,192,67939,128,0,68246:0:0:0:0:
448,192,68093,1,0,0:0:0:0:
192,192,68246,128,0,68554:0:0:0:0:
448,192,68400,128,0,68708:0:0:0:0:
64,192,68554,1,0,0:0:0:0:
192,192,68708,128,0,69016:0:0:0:0:
320,192,68862,128,0,69169:0:0:0:0:
64,192,69016,1,0,0:0:0:0:
448,192,69016,1,0,0:0:0:0:
192,192,69169,128,0,69246:0:0:0:0:
448,192,69246,1,0,0:0:0:0:
64,192,69323,1,0,0:0:0:0:
320,192,69323,128,0,69400:0:0:0:0:
320,192,69477,128,0,69554:0:0:0:0:
192,192,69477,1,0,0:0:0:0:
64,192,69631,128,0,69708:0:0:0:0:
448,192,69631,1,0,0:0:0:0:
64,192,69785,128,0,69862:0:0:0:0:
192,192,69785,1,0,0:0:0:0:
448,192,69939,128,0,70016:0:0:0:0:
320,192,69939,1,0,0:0:0:0:
448,192,70093,128,0,70169:0:0:0:0:
192,192,70093,1,0,0:0:0:0:
64,192,70246,128,0,70554:0:0:0:0:
320,192,70246,1,0,0:0:0:0:
448,192,70400,128,0,70708:0:0:0:0:
320,192,70554,1,0,0:0:0:0:
320,192,70708,128,0,71016:0:0:0:0:
64,192,70862,128,0,71169:0:0:0:0:
192,192,71016,128,0,71323:0:0:0:0:
448,192,71169,1,0,0:0:0:0:
448,192,71323,128,0,71631:0:0:0:0:
192,192,71477,128,0,71785:0:0:0:0:
320,192,71631,128,0,71939:0:0:0:0:
64,192,71785,1,0,0:0:0:0:
64,192,71939,128,0,72246:0:0:0:0:
192,192,71939,1,0,0:0:0:0:
448,192,72093,128,0,72400:0:0:0:0:
320,192,72093,1,0,0:0:0:0:
192,192,72246,128,0,72400:0:0:0:0:
320,192,72400,128,0,72708:0:0:0:0:
64,192,72400,1,0,0:0:0:0:
64,192,72554,128,0,72708:0:0:0:0:
192,192,72554,1,0,0:0:0:0:
448,192,72708,128,0,73016:0:0:0:0:
192,192,72862,128,0,73169:0:0:0:0:
320,192,73016,1,0,0:0:0:0:
320,192,73169,128,0,73477:0:0:0:0:
64,192,73323,128,0,73631:0:0:0:0:
448,192,73477,128,0,73785:0:0:0:0:
192,192,73631,1,0,0:0:0:0:
192,192,73785,128,0,74093:0:0:0:0:
320,192,73939,128,0,74246:0:0:0:0:
64,192,74093,128,0,74400:0:0:0:0:
448,192,74246,1,0,0:0:0:0:
320,192,74400,128,0,74708:0:0:0:0:
192,192,74554,128,0,74708:0:0:0:0:
64,192,74708,128,0,75016:0:0:0:0:
448,192,74862,1,0,0:0:0:0:
192,192,74939,1,0,0:0:0:0:
320,192,75016,1,0,0:0:0:0:
448,192,75093,1,0,0:0:0:0:
64,192,75169,1,0,0:0:0:0:
192,192,75169,128,0,75477:0:0:0:0:
320,192,75323,128,0,75477:0:0:0:0:
448,192,75477,128,0,75708:0:0:0:0:
64,192,75477,1,0,0:0:0:0:
192,192,75631,128,0,75785:0:0:0:0:
448,192,75785,128,0,76093:0:0:0:0:
192,192,75939,128,0,76093:0:0:0:0:
320,192,76093,128,0,76246:0:0:0:0:
64,192,76093,1,0,0:0:0:0:
192,192,76246,128,0,76477:0:0:0:0:
448,192,76400,1,0,0:0:0:0:
192,192,76554,128,0,76862:0:0:0:0:
320,192,76708,1,0,0:0:0:0:
448,192,76708,1,0,0:0:0:0:
64,192,76862,128,0,77169:0:0:0:0:
320,192,77016,1,0,0:0:0:0:
448,192,77169,128,0,77323:0:0:0:0:
320,192,77323,128,0,77477:0:0:0:0:
64,192,77323,1,0,0:0:0:0:
192,192,77477,128,0,77631:0:0:0:0:
448,192,77631,128,0,77939:0:0:0:0:
64,192,77631,1,0,0:0:0:0:
192,192,77785,128,0,78093:0:0:0:0:
64,192,77939,1,0,0:0:0:0:
320,192,77939,1,0,0:0:0:0:
448,192,78093,128,0,78400:0:0:0:0:
64,192,78246,128,0,78554:0:0:0:0:
192,192,78400,1,0,0:0:0:0:
320,192,78554,128,0,78862:0:0:0:0:
448,192,78554,1,0,0:0:0:0:
192,192,78708,128,0,79016:0:0:0:0:
64,192,78862,1,0,0:0:0:0:
320,192,79016,128,0,79093:0:0:0:0:
448,192,79016,1,0,0:0:0:0:
448,192,79169,1,0,0:0:0:0:
192,192,79169,128,0,79246:0:0:0:0:
192,192,79323,128,0,79400:0:0:0:0:
64,192,79323,1,0,0:0:0:0:
448,192,79477,1,0,0:0:0:0:
320,192,79477,128,0,79631:0:0:0:0:
192,192,79631,1,0,0:0:0:0:
320,192,79708,1,0,0:0:0:0:
64,192,79785,128,0,80093:0:0:0:0:
448,192,79785,1,0,0:0:0:0:
192,192,79939,1,0,0:0:0:0:
448,192,80093,128,0,81016:0:0:0:0:
320,192,80093,1,0,0:0:0:0:
64,192,80246,128,0,80400:0:0:0:0:
192,192,80400,128,0,80708:0:0:0:0:
320,192,80554,128,0,80708:0:0:0:0:
64,192,80708,128,0,81016:0:0:0:0:
192,192,81016,128,0,81169:0:0:0:0:
320,192,81016,1,0,0:0:0:0:
448,192,81169,128,0,81477:0:0:0:0:
320,192,81477,128,0,81631:0:0:0:0:
64,192,81631,128,0,81785:0:0:0:0:
448,192,81631,1,0,0:0:0:0:
192,192,81785,128,0,81939:0:0:0:0:
320,192,81939,128,0,82016:0:0:0:0:
320,192,82093,128,0,82169:0:0:0:0:
320,192,82246,128,0,82323:0:0:0:0:
64,192,82246,1,0,0:0:0:0:
320,192,82400,128,0,82554:0:0:0:0:
64,192,82554,128,0,82862:0:0:0:0:
448,192,82708,128,0,82862:0:0:0:0:
192,192,82862,128,0,83169:0:0:0:0:
320,192,82862,1,0,0:0:0:0:
64,192,83016,128,0,83169:0:0:0:0:
448,192,83169,128,0,83477:0:0:0:0:
320,192,83477,128,0,83631:0:0:0:0:
64,192,83477,1,0,0:0:0:0:
448,192,83631,128,0,83939:0:0:0:0:
320,192,83939,128,0,84093:0:0:0:0:
192,192,84093,128,0,84246:0:0:0:0:
64,192,84093,1,0,0:0:0:0:
320,192,84246,128,0,84400:0:0:0:0:
192,192,84400,128,0,84477:0:0:0:0:
320,192,84554,128,0,84631:0:0:0:0:
448,192,84554,1,0,0:0:0:0:
192,192,84708,1,0,0:0:0:0:
64,192,84862,1,0,0:0:0:0:
448,192,84862,128,0,84939:0:0:0:0:
320,192,85016,1,0,0:0:0:0:
64,192,85016,128,0,85323:0:0:0:0:
192,192,85169,128,0,85323:0:0:0:0:
320,192,85323,128,0,85631:0:0:0:0:
448,192,85323,1,0,0:0:0:0:
192,192,85477,128,0,85631:0:0:0:0:
448,192,85631,128,0,85939:0:0:0:0:
64,192,85939,128,0,86093:0:0:0:0:
192,192,85939,1,0,0:0:0:0:
320,192,86093,128,0,86400:0:0:0:0:
192,192,86400,128,0,86554:0:0:0:0:
64,192,86554,128,0,86708:0:0:0:0:
448,192,86554,1,0,0:0:0:0:
320,192,86708,128,0,86862:0:0:0:0:
448,192,86862,128,0,86939:0:0:0:0:
448,192,87016,128,0,87093:0:0:0:0:
448,192,87169,128,0,87246:0:0:0:0:
64,192,87169,1,0,0:0:0:0:
448,192,87323,128,0,87477:0:0:0:0:
64,192,87477,128,0,87785:0:0:0:0:
320,192,87631,128,0,87785:0:0:0:0:
192,192,87785,128,0,88093:0:0:0:0:
448,192,87785,1,0,0:0:0:0:
320,192,87939,128,0,88093:0:0:0:0:
448,192,88093,128,0,88400:0:0:0:0:
320,192,88400,128,0,88554:0:0:0:0:
64,192,88400,1,0,0:0:0:0:
448,192,88554,128,0,88862:0:0:0:0:
320,192,88862,128,0,89016:0:0:0:0:
192,192,89016,128,0,89169:0:0:0:0:
64,192,89016,1,0,0:0:0:0:
320,192,89169,128,0,89323:0:0:0:0:
192,192,89323,128,0,89400:0:0:0:0:
320,192,89477,128,0,89554:0:0:0:0:
448,192,89477,1,0,0:0:0:0:
192,192,89631,1,0,0:0:0:0:
64,192,89785,1,0,0:0:0:0:
448,192,89785,128,0,89862:0:0:0:0:
320,192,89939,1,0,0:0:0:0:
64,192,89939,128,0,92400:0:0:0:0:
448,192,90246,1,0,0:0:0:0:
320,192,90246,1,0,0:0:0:0:
192,192,90554,1,0,0:0:0:0:
192,192,90708,1,0,0:0:0:0:
320,192,90862,1,0,0:0:0:0:
448,192,90862,1,0,0:0:0:0:
192,192,91016,1,0,0:0:0:0:
192,192,91169,1,0,0:0:0:0:
320,192,91477,1,0,0:0:0:0:
448,192,91477,1,0,0:0:0:0:
192,192,91785,1,0,0:0:0:0:
192,192,91939,1,0,0:0:0:0:
320,192,92093,1,0,0:0:0:0:
448,192,92093,1,0,0:0:0:0:
192,192,92246,1,0,0:0:0:0:
320,192,92554,1,0,0:0:0:0:
448,192,92554,1,0,0:0:0:0:
320,192,92708,1,0,0:0:0:0:
448,192,92708,1,0,0:0:0:0:
64,192,92862,1,0,0:0:0:0:
192,192,92862,1,0,0:0:0:0:
320,192,92939,1,0,0:0:0:0:
448,192,92939,1,0,0:0:0:0:
64,192,93093,1,0,0:0:0:0:
448,192,93093,1,0,0:0:0:0:
320,192,93169,1,0,0:0:0:0:
192,192,93169,1,0,0:0:0:0:
64,192,93323,1,0,0:0:0:0:
448,192,93323,1,0,0:0:0:0:
64,192,93477,1,0,0:0:0:0:
192,192,93477,1,0,0:0:0:0:
320,192,93631,1,0,0:0:0:0:
448,192,93631,1,0,0:0:0:0:
192,192,93708,1,0,0:0:0:0:
64,192,93708,1,0,0:0:0:0:
64,192,93862,1,0,0:0:0:0:
192,192,93862,1,0,0:0:0:0:
320,192,93939,1,0,0:0:0:0:
448,192,93939,1,0,0:0:0:0:
192,192,94093,1,0,0:0:0:0:
320,192,94093,1,0,0:0:0:0:
64,192,94169,1,0,0:0:0:0:
448,192,94169,1,0,0:0:0:0:
448,192,94323,1,0,0:0:0:0:
64,192,94323,1,0,0:0:0:0:
320,192,94400,1,0,0:0:0:0:
192,192,94400,1,0,0:0:0:0:
320,192,94554,1,0,0:0:0:0:
64,192,94554,128,0,94862:0:0:0:0:
192,192,94862,128,0,95016:0:0:0:0:
320,192,94862,1,0,0:0:0:0:
448,192,95016,128,0,95169:0:0:0:0:
320,192,95169,128,0,95323:0:0:0:0:
192,192,95169,1,0,0:0:0:0:
64,192,95323,128,0,95477:0:0:0:0:
192,192,95477,128,0,95631:0:0:0:0:
448,192,95631,128,0,95785:0:0:0:0:
192,192,95785,128,0,95939:0:0:0:0:
64,192,95785,1,0,0:0:0:0:
320,192,95939,128,0,96093:0:0:0:0:
448,192,96093,128,0,96246:0:0:0:0:
64,192,96246,128,0,96400:0:0:0:0:
448,192,96400,128,0,96554:0:0:0:0:
320,192,96400,1,0,0:0:0:0:
192,192,96554,128,0,96862:0:0:0:0:
320,192,96862,128,0,96939:0:0:0:0:
192,192,96939,128,0,97016:0:0:0:0:
64,192,97016,128,0,97093:0:0:0:0:
448,192,97016,1,0,0:0:0:0:
448,192,97169,128,0,97323:0:0:0:0:
64,192,97323,128,0,97477:0:0:0:0:
192,192,97323,1,0,0:0:0:0:
320,192,97477,128,0,97631:0:0:0:0:
192,192,97631,128,0,97785:0:0:0:0:
64,192,97631,1,0,0:0:0:0:
448,192,97785,128,0,97939:0:0:0:0:
320,192,97939,128,0,98093:0:0:0:0:
64,192,98093,128,0,98246:0:0:0:0:
320,192,98246,128,0,98400:0:0:0:0:
448,192,98246,1,0,0:0:0:0:
192,192,98400,128,0,98554:0:0:0:0:
64,192,98554,128,0,99016:0:0:0:0:
448,192,98708,128,0,99016:0:0:0:0:
320,192,98862,128,0,99016:0:0:0:0:
192,192,99016,128,0,99323:0:0:0:0:
64,192,99323,1,0,0:0:0:0:
448,192,99323,1,0,0:0:0:0:
320,192,99477,1,0,0:0:0:0:
192,192,99631,1,0,0:0:0:0:
64,192,99631,1,0,0:0:0:0:
448,192,99785,128,0,99862:0:0:0:0:
64,192,99785,1,0,0:0:0:0:
448,192,99939,128,0,100016:0:0:0:0:
448,192,100093,128,0,100169:0:0:0:0:
320,192,100093,1,0,0:0:0:0:
64,192,100246,128,0,100323:0:0:0:0:
192,192,100246,1,0,0:0:0:0:
320,192,100323,128,0,100400:0:0:0:0:
64,192,100400,128,0,100477:0:0:0:0:
448,192,100400,1,0,0:0:0:0:
192,192,100554,128,0,100631:0:0:0:0:
64,192,100708,128,0,100785:0:0:0:0:
448,192,100708,1,0,0:0:0:0:
320,192,100785,128,0,100862:0:0:0:0:
64,192,100862,128,0,100939:0:0:0:0:
192,192,100862,1,0,0:0:0:0:
320,192,101016,128,0,101169:0:0:0:0:
448,192,101016,1,0,0:0:0:0:
192,192,101169,128,0,101323:0:0:0:0:
64,192,101169,1,0,0:0:0:0:
448,192,101323,128,0,101477:0:0:0:0:
320,192,101323,1,0,0:0:0:0:
192,192,101477,128,0,101631:0:0:0:0:
64,192,101477,1,0,0:0:0:0:
320,192,101631,128,0,101785:0:0:0:0:
64,192,101785,128,0,101939:0:0:0:0:
448,192,101785,1,0,0:0:0:0:
192,192,101939,128,0,102093:0:0:0:0:
448,192,101939,1,0,0:0:0:0:
320,192,102093,128,0,102246:0:0:0:0:
64,192,102169,128,0,102246:0:0:0:0:
448,192,102246,128,0,102631:0:0:0:0:
192,192,102246,1,0,0:0:0:0:
320,192,102400,1,0,0:0:0:0:
192,192,102554,128,0,102708:0:0:0:0:
64,192,102554,1,0,0:0:0:0:
448,192,102708,128,0,103093:0:0:0:0:
192,192,102862,1,0,0:0:0:0:
64,192,103016,128,0,103169:0:0:0:0:
448,192,103169,128,0,103554:0:0:0:0:
320,192,103169,1,0,0:0:0:0:
192,192,103323,1,0,0:0:0:0:
64,192,103477,128,0,103631:0:0:0:0:
448,192,103631,128,0,104016:0:0:0:0:
192,192,103785,1,0,0:0:0:0:
320,192,103785,1,0,0:0:0:0:
64,192,103939,128,0,104093:0:0:0:0:
448,192,104093,128,0,104246:0:0:0:0:
320,192,104093,1,0,0:0:0:0:
192,192,104246,128,0,104400:0:0:0:0:
64,192,104400,128,0,104554:0:0:0:0:
320,192,104400,1,0,0:0:0:0:
192,192,104554,128,0,104708:0:0:0:0:
320,192,104708,128,0,104785:0:0:0:0:
448,192,104708,1,0,0:0:0:0:
320,192,104862,128,0,104939:0:0:0:0:
448,192,104862,1,0,0:0:0:0:
320,192,105016,128,0,105093:0:0:0:0:
448,192,105016,1,0,0:0:0:0:
192,192,105169,128,0,105246:0:0:0:0:
64,192,105169,1,0,0:0:0:0:
448,192,105246,128,0,105323:0:0:0:0:
192,192,105323,128,0,105400:0:0:0:0:
64,192,105323,1,0,0:0:0:0:
192,192,105477,128,0,105554:0:0:0:0:
320,192,105631,128,0,105708:0:0:0:0:
448,192,105631,1,0,0:0:0:0:
64,192,105708,128,0,105785:0:0:0:0:
320,192,105785,128,0,105862:0:0:0:0:
448,192,105785,1,0,0:0:0:0:
320,192,105939,128,0,106016:0:0:0:0:
64,192,106093,128,0,106169:0:0:0:0:
192,192,106169,128,0,106246:0:0:0:0:
320,192,106246,128,0,106400:0:0:0:0:
448,192,106246,1,0,0:0:0:0:
192,192,106400,128,0,106554:0:0:0:0:
64,192,106554,128,0,106708:0:0:0:0:
448,192,106708,128,0,106862:0:0:0:0:
320,192,106862,128,0,107016:0:0:0:0:
64,192,106862,1,0,0:0:0:0:
192,192,107016,128,0,107169:0:0:0:0:
448,192,107016,1,0,0:0:0:0:
320,192,107169,128,0,107323:0:0:0:0:
64,192,107169,1,0,0:0:0:0:
192,192,107323,128,0,107477:0:0:0:0:
64,192,107477,128,0,107631:0:0:0:0:
320,192,107477,1,0,0:0:0:0:
448,192,107631,128,0,107785:0:0:0:0:
64,192,107785,128,0,107939:0:0:0:0:
320,192,107939,128,0,108093:0:0:0:0:
448,192,108093,128,0,108246:0:0:0:0:
64,192,108093,1,0,0:0:0:0:
192,192,108246,128,0,108400:0:0:0:0:
448,192,108400,128,0,108554:0:0:0:0:
320,192,108554,128,0,108708:0:0:0:0:
192,192,108708,128,0,108862:0:0:0:0:
448,192,108708,1,0,0:0:0:0:
64,192,108862,128,0,109169:0:0:0:0:
448,192,109169,1,0,0:0:0:0:
192,192,109323,1,0,0:0:0:0:
448,192,109477,128,0,109554:0:0:0:0:
448,192,109631,128,0,110093:0:0:0:0:
64,192,109631,1,0,0:0:0:0:
320,192,109785,128,0,110093:0:0:0:0:
192,192,109939,128,0,110093:0:0:0:0:
64,192,110093,128,0,110246:0:0:0:0:
320,192,110246,128,0,110400:0:0:0:0:
448,192,110400,128,0,110554:0:0:0:0:
64,192,110554,128,0,111016:0:0:0:0:
320,192,110554,1,0,0:0:0:0:
192,192,110708,128,0,111016:0:0:0:0:
320,192,110862,128,0,111016:0:0:0:0:
448,192,111016,128,0,111169:0:0:0:0:
320,192,111169,128,0,111323:0:0:0:0:
64,192,111169,1,0,0:0:0:0:
192,192,111323,128,0,111477:0:0:0:0:
448,192,111477,128,0,111631:0:0:0:0:
192,192,111631,128,0,111785:0:0:0:0:
320,192,111785,128,0,111939:0:0:0:0:
64,192,111785,1,0,0:0:0:0:
448,192,111939,128,0,112093:0:0:0:0:
64,192,112093,128,0,112246:0:0:0:0:
448,192,112246,128,0,112400:0:0:0:0:
320,192,112400,128,0,112554:0:0:0:0:
64,192,112400,1,0,0:0:0:0:
192,192,112554,128,0,112708:0:0:0:0:
448,192,112708,128,0,112862:0:0:0:0:
192,192,112862,128,0,113016:0:0:0:0:
320,192,113016,128,0,113169:0:0:0:0:
448,192,113016,1,0,0:0:0:0:
64,192,113169,128,0,113323:0:0:0:0:
320,192,113323,128,0,113477:0:0:0:0:
192,192,113477,128,0,113631:0:0:0:0:
64,192,113631,128,0,113785:0:0:0:0:
320,192,113631,1,0,0:0:0:0:
192,192,113785,128,0,113939:0:0:0:0:
448,192,113939,128,0,114093:0:0:0:0:
320,192,113939,1,0,0:0:0:0:
64,192,114093,128,0,114246:0:0:0:0:
192,192,114169,1,0,0:0:0:0:
448,192,114246,128,0,114554:0:0:0:0:
320,192,114246,128,0,114554:0:0:0:0:
192,192,114554,128,0,115169:0:0:0:0:
64,192,114554,128,0,117016:0:0:0:0:
448,192,114708,1,0,0:0:0:0:
320,192,114862,1,0,0:0:0:0:
448,192,115016,1,0,0:0:0:0:
320,192,115169,128,0,115477:0:0:0:0:
192,192,115323,1,0,0:0:0:0:
448,192,115477,128,0,115631:0:0:0:0:
192,192,115631,128,0,116093:0:0:0:0:
320,192,115785,1,0,0:0:0:0:
448,192,115939,1,0,0:0:0:0:
320,192,116093,128,0,116400:0:0:0:0:
192,192,116246,1,0,0:0:0:0:
448,192,116400,128,0,116631:0:0:0:0:
320,192,116554,1,0,0:0:0:0:
448,192,116708,128,0,117016:0:0:0:0:
192,192,116862,1,0,0:0:0:0:
192,192,117016,128,0,117323:0:0:0:0:
320,192,117016,128,0,119169:0:0:0:0:
448,192,117169,1,0,0:0:0:0:
64,192,117323,128,0,117554:0:0:0:0:
448,192,117477,128,0,117631:0:0:0:0:
64,192,117631,128,0,117939:0:0:0:0:
448,192,117785,128,0,117939:0:0:0:0:
192,192,117939,128,0,118093:0:0:0:0:
448,192,118093,128,0,118862:0:0:0:0:
192,192,118246,1,0,0:0:0:0:
64,192,118400,1,0,0:0:0:0:
192,192,118554,1,0,0:0:0:0:
64,192,118708,1,0,0:0:0:0:
192,192,118862,1,0,0:0:0:0:
64,192,118939,1,0,0:0:0:0:
448,192,119016,1,0,0:0:0:0:
64,192,119093,1,0,0:0:0:0:
192,192,119169,128,0,119323:0:0:0:0:
64,192,119477,128,0,119785:0:0:0:0:
320,192,119477,128,0,119631:0:0:0:0:
192,192,119631,1,0,0:0:0:0:
448,192,119785,128,0,120093:0:0:0:0:
320,192,119785,128,0,119939:0:0:0:0:
64,192,119939,1,0,0:0:0:0:
320,192,120093,128,0,120400:0:0:0:0:
192,192,120093,128,0,120246:0:0:0:0:
64,192,120246,1,0,0:0:0:0:
448,192,120400,128,0,120554:0:0:0:0:
192,192,120400,1,0,0:0:0:0:
64,192,120554,128,0,120862:0:0:0:0:
320,192,120554,128,0,120708:0:0:0:0:
192,192,120708,1,0,0:0:0:0:
320,192,120862,128,0,121169:0:0:0:0:
448,192,120862,128,0,121016:0:0:0:0:
64,192,121016,1,0,0:0:0:0:
192,192,121169,128,0,121323:0:0:0:0:
64,192,121169,128,0,121323:0:0:0:0:
320,192,121323,1,0,0:0:0:0:
320,192,121477,128,0,121631:0:0:0:0:
448,192,121477,128,0,121631:0:0:0:0:
192,192,121631,128,0,121785:0:0:0:0:
64,192,121631,128,0,121785:0:0:0:0:
320,192,121785,128,0,121939:0:0:0:0:
448,192,121785,128,0,121939:0:0:0:0:
64,192,121939,128,0,122246:0:0:0:0:
192,192,121939,128,0,122016:0:0:0:0:
448,192,122093,128,0,122246:0:0:0:0:
192,192,122093,128,0,122246:0:0:0:0:
448,192,122400,128,0,122708:0:0:0:0:
320,192,122400,128,0,122477:0:0:0:0:
64,192,122554,128,0,122708:0:0:0:0:
320,192,122554,128,0,122708:0:0:0:0:
64,192,122862,128,0,123016:0:0:0:0:
448,192,122862,128,0,122939:0:0:0:0:
320,192,123016,128,0,123323:0:0:0:0:
448,192,123016,128,0,123323:0:0:0:0:
192,192,123323,128,0,123400:0:0:0:0:
64,192,123323,128,0,123477:0:0:0:0:
320,192,123477,128,0,123554:0:0:0:0:
448,192,123477,128,0,123631:0:0:0:0:
192,192,123631,128,0,123785:0:0:0:0:
320,192,123631,128,0,123708:0:0:0:0:
64,192,123785,128,0,124093:0:0:0:0:
448,192,123785,1,0,0:0:0:0:
192,192,123862,1,0,0:0:0:0:
320,192,123939,1,0,0:0:0:0:
448,192,124016,1,0,0:0:0:0:
192,192,124093,1,0,0:0:0:0:
64,192,124400,128,0,124708:0:0:0:0:
448,192,124400,128,0,124554:0:0:0:0:
320,192,124400,128,0,124554:0:0:0:0:
448,192,124708,1,0,0:0:0:0:
320,192,124785,1,0,0:0:0:0:
192,192,124862,1,0,0:0:0:0:
64,192,124939,1,0,0:0:0:0:
320,192,125016,1,0,0:0:0:0:
448,192,125016,128,0,125323:0:0:0:0:
64,192,125169,128,0,125477:0:0:0:0:
192,192,125323,1,0,0:0:0:0:
192,192,125477,128,0,125785:0:0:0:0:
320,192,125631,128,0,125939:0:0:0:0:
448,192,125785,128,0,126092:0:0:0:0:
64,192,125939,1,0,0:0:0:0:
64,192,126092,128,0,126400:0:0:0:0:
320,192,126246,128,0,126554:0:0:0:0:
192,192,126400,128,0,126708:0:0:0:0:
448,192,126554,1,0,0:0:0:0:
448,192,126708,128,0,127016:0:0:0:0:
320,192,126708,1,0,0:0:0:0:
64,192,126862,128,0,127169:0:0:0:0:
192,192,126862,1,0,0:0:0:0:
320,192,127016,128,0,127169:0:0:0:0:
192,192,127169,128,0,127477:0:0:0:0:
448,192,127169,1,0,0:0:0:0:
448,192,127323,128,0,127477:0:0:0:0:
320,192,127323,1,0,0:0:0:0:
64,192,127477,128,0,127785:0:0:0:0:
320,192,127631,128,0,127939:0:0:0:0:
192,192,127785,1,0,0:0:0:0:
192,192,127939,128,0,128246:0:0:0:0:
448,192,128092,128,0,128400:0:0:0:0:
64,192,128246,128,0,128554:0:0:0:0:
320,192,128400,1,0,0:0:0:0:
320,192,128554,128,0,128862:0:0:0:0:
192,192,128708,128,0,129016:0:0:0:0:
448,192,128862,128,0,129169:0:0:0:0:
64,192,129016,1,0,0:0:0:0:
192,192,129169,128,0,129477:0:0:0:0:
320,192,129323,128,0,129477:0:0:0:0:
448,192,129477,128,0,129785:0:0:0:0:
64,192,129631,1,0,0:0:0:0:
320,192,129708,1,0,0:0:0:0:
192,192,129785,1,0,0:0:0:0:
64,192,129862,1,0,0:0:0:0:
448,192,129939,1,0,0:0:0:0:
320,192,129939,128,0,130246:0:0:0:0:
192,192,130092,128,0,130246:0:0:0:0:
64,192,130246,128,0,130477:0:0:0:0:
448,192,130400,128,0,130554:0:0:0:0:
64,192,130554,128,0,130862:0:0:0:0:
448,192,130708,128,0,130862:0:0:0:0:
192,192,130862,128,0,131016:0:0:0:0:
320,192,131016,128,0,131246:0:0:0:0:
64,192,131169,128,0,131323:0:0:0:0:
320,192,131323,128,0,131631:0:0:0:0:
192,192,131477,128,0,131631:0:0:0:0:
448,192,131631,128,0,131939:0:0:0:0:
64,192,131785,128,0,131939:0:0:0:0:
320,192,131939,128,0,132092:0:0:0:0:
192,192,132092,128,0,132246:0:0:0:0:
64,192,132246,128,0,132323:0:0:0:0:
64,192,132400,128,0,132708:0:0:0:0:
448,192,132400,1,0,0:0:0:0:
320,192,132554,128,0,132862:0:0:0:0:
448,192,132708,1,0,0:0:0:0:
192,192,132862,128,0,133169:0:0:0:0:
448,192,133016,128,0,133323:0:0:0:0:
64,192,133169,1,0,0:0:0:0:
192,192,133323,128,0,133631:0:0:0:0:
320,192,133477,128,0,133785:0:0:0:0:
64,192,133631,1,0,0:0:0:0:
448,192,133631,1,0,0:0:0:0:
192,192,133785,128,0,133862:0:0:0:0:
448,192,133862,1,0,0:0:0:0:
64,192,133939,1,0,0:0:0:0:
320,192,133939,128,0,134016:0:0:0:0:
320,192,134092,128,0,134169:0:0:0:0:
448,192,134092,1,0,0:0:0:0:
192,192,134246,128,0,134323:0:0:0:0:
448,192,134246,1,0,0:0:0:0:
192,192,134400,128,0,134554:0:0:0:0:
64,192,134400,1,0,0:0:0:0:
448,192,134554,128,0,134708:0:0:0:0:
320,192,134554,1,0,0:0:0:0:
64,192,134708,128,0,134785:0:0:0:0:
192,192,134708,1,0,0:0:0:0:
64,192,134862,128,0,135169:0:0:0:0:
192,192,134862,1,0,0:0:0:0:
448,192,135016,128,0,135323:0:0:0:0:
320,192,135169,1,0,0:0:0:0:
320,192,135323,128,0,135631:0:0:0:0:
64,192,135477,128,0,135785:0:0:0:0:
192,192,135631,128,0,135939:0:0:0:0:
448,192,135785,1,0,0:0:0:0:
448,192,135939,128,0,136246:0:0:0:0:
192,192,136092,128,0,136400:0:0:0:0:
320,192,136246,128,0,136554:0:0:0:0:
64,192,136400,1,0,0:0:0:0:
64,192,136554,128,0,136862:0:0:0:0:
192,192,136554,1,0,0:0:0:0:
448,192,136708,128,0,137016:0:0:0:0:
320,192,136708,1,0,0:0:0:0:
192,192,136862,128,0,137016:0:0:0:0:
320,192,137016,128,0,137323:0:0:0:0:
64,192,137016,1,0,0:0:0:0:
64,192,137169,128,0,137323:0:0:0:0:
192,192,137169,1,0,0:0:0:0:
448,192,137323,128,0,137631:0:0:0:0:
192,192,137477,128,0,137785:0:0:0:0:
320,192,137631,1,0,0:0:0:0:
320,192,137785,128,0,138092:0:0:0:0:
64,192,137939,128,0,138246:0:0:0:0:
448,192,138092,128,0,138400:0:0:0:0:
192,192,138246,1,0,0:0:0:0:
192,192,138400,128,0,138708:0:0:0:0:
320,192,138554,128,0,138862:0:0:0:0:
64,192,138708,128,0,139016:0:0:0:0:
448,192,138862,1,0,0:0:0:0:
320,192,139016,128,0,139323:0:0:0:0:
192,192,139169,128,0,139323:0:0:0:0:
64,192,139323,128,0,139631:0:0:0:0:
448,192,139477,1,0,0:0:0:0:
192,192,139554,1,0,0:0:0:0:
320,192,139631,1,0,0:0:0:0:
448,192,139708,1,0,0:0:0:0:
64,192,139785,1,0,0:0:0:0:
192,192,139785,128,0,140092:0:0:0:0:
320,192,139939,128,0,140092:0:0:0:0:
448,192,140092,128,0,140323:0:0:0:0:
64,192,140246,128,0,140400:0:0:0:0:
448,192,140400,128,0,140708:0:0:0:0:
64,192,140554,128,0,140708:0:0:0:0:
320,192,140708,128,0,140862:0:0:0:0:
192,192,140862,128,0,141092:0:0:0:0:
448,192,141016,1,0,0:0:0:0:
192,192,141169,128,0,141477:0:0:0:0:
320,192,141323,1,0,0:0:0:0:
448,192,141323,1,0,0:0:0:0:
64,192,141477,128,0,141785:0:0:0:0:
320,192,141631,1,0,0:0:0:0:
192,192,141785,128,0,141939:0:0:0:0:
320,192,141939,128,0,142092:0:0:0:0:
64,192,141939,1,0,0:0:0:0:
448,192,142092,128,0,142169:0:0:0:0:
448,192,142246,128,0,142554:0:0:0:0:
64,192,142246,1,0,0:0:0:0:
192,192,142400,128,0,142708:0:0:0:0:
64,192,142554,1,0,0:0:0:0:
320,192,142708,128,0,143016:0:0:0:0:
64,192,142862,128,0,143169:0:0:0:0:
448,192,143016,1,0,0:0:0:0:
320,192,143169,128,0,143477:0:0:0:0:
192,192,143323,128,0,143631:0:0:0:0:
448,192,143477,1,0,0:0:0:0:
320,192,143631,128,0,143708:0:0:0:0:
64,192,143631,128,0,143708:0:0:0:0:
192,192,143785,128,0,143862:0:0:0:0:
448,192,143785,128,0,143862:0:0:0:0:
192,192,143939,128,0,144016:0:0:0:0:
64,192,143939,128,0,144016:0:0:0:0:
320,192,144092,128,0,144169:0:0:0:0:
448,192,144092,128,0,144169:0:0:0:0:
320,192,144246,128,0,144323:0:0:0:0:
64,192,144246,128,0,144323:0:0:0:0:
192,192,144400,128,0,144477:0:0:0:0:
448,192,144400,128,0,144477:0:0:0:0:
192,192,144554,128,0,144708:0:0:0:0:
320,192,144554,128,0,144631:0:0:0:0:
448,192,144708,128,0,145016:0:0:0:0:
192,192,144862,128,0,145169:0:0:0:0:
320,192,145016,1,0,0:0:0:0:
64,192,145169,128,0,145477:0:0:0:0:
448,192,145323,128,0,145631:0:0:0:0:
320,192,145477,128,0,145785:0:0:0:0:
64,192,145631,1,0,0:0:0:0:
64,192,145785,128,0,146092:0:0:0:0:
448,192,145939,128,0,146246:0:0:0:0:
192,192,146092,128,0,146400:0:0:0:0:
320,192,146246,1,0,0:0:0:0:
448,192,146400,128,0,146708:0:0:0:0:
64,192,146400,1,0,0:0:0:0:
320,192,146554,128,0,146862:0:0:0:0:
64,192,146554,1,0,0:0:0:0:
192,192,146708,128,0,146862:0:0:0:0:
448,192,146862,1,0,0:0:0:0:
64,192,146862,128,0,147169:0:0:0:0:
448,192,147016,128,0,147169:0:0:0:0:
320,192,147016,1,0,0:0:0:0:
192,192,147169,128,0,147477:0:0:0:0:
320,192,147323,128,0,147631:0:0:0:0:
64,192,147477,1,0,0:0:0:0:
64,192,147631,128,0,147939:0:0:0:0:
448,192,147785,128,0,148092:0:0:0:0:
192,192,147939,128,0,148246:0:0:0:0:
320,192,148092,1,0,0:0:0:0:
320,192,148246,128,0,148554:0:0:0:0:
64,192,148400,128,0,148708:0:0:0:0:
448,192,148554,128,0,148862:0:0:0:0:
192,192,148708,1,0,0:0:0:0:
64,192,148862,128,0,149169:0:0:0:0:
320,192,149016,128,0,149169:0:0:0:0:
448,192,149169,128,0,149477:0:0:0:0:
64,192,149323,1,0,0:0:0:0:
320,192,149400,1,0,0:0:0:0:
192,192,149477,1,0,0:0:0:0:
64,192,149554,1,0,0:0:0:0:
448,192,149631,1,0,0:0:0:0:
320,192,149631,128,0,149939:0:0:0:0:
64,192,149785,128,0,149939:0:0:0:0:
192,192,149939,128,0,150169:0:0:0:0:
448,192,150092,128,0,150246:0:0:0:0:
192,192,150246,128,0,150554:0:0:0:0:
320,192,150400,128,0,150554:0:0:0:0:
64,192,150554,128,0,150708:0:0:0:0:
320,192,150708,128,0,150939:0:0:0:0:
192,192,150862,128,0,151016:0:0:0:0:
320,192,151016,128,0,151323:0:0:0:0:
64,192,151169,128,0,151323:0:0:0:0:
448,192,151323,128,0,151631:0:0:0:0:
192,192,151477,128,0,151631:0:0:0:0:
320,192,151631,128,0,151785:0:0:0:0:
192,192,151785,128,0,151939:0:0:0:0:
64,192,151939,128,0,152016:0:0:0:0:
64,192,152092,128,0,152400:0:0:0:0:
448,192,152092,1,0,0:0:0:0:
320,192,152246,128,0,152554:0:0:0:0:
448,192,152400,1,0,0:0:0:0:
192,192,152554,128,0,152862:0:0:0:0:
448,192,152708,128,0,153016:0:0:0:0:
64,192,152862,1,0,0:0:0:0:
192,192,153016,128,0,153323:0:0:0:0:
320,192,153169,128,0,153477:0:0:0:0:
64,192,153323,1,0,0:0:0:0:
448,192,153323,1,0,0:0:0:0:
192,192,153477,128,0,153554:0:0:0:0:
448,192,153554,1,0,0:0:0:0:
64,192,153631,1,0,0:0:0:0:
320,192,153631,128,0,153708:0:0:0:0:
320,192,153785,128,0,153862:0:0:0:0:
448,192,153785,1,0,0:0:0:0:
192,192,153939,128,0,154016:0:0:0:0:
64,192,153939,1,0,0:0:0:0:
192,192,154092,128,0,154246:0:0:0:0:
448,192,154092,1,0,0:0:0:0:
448,192,154246,128,0,154400:0:0:0:0:
320,192,154246,1,0,0:0:0:0:
64,192,154400,128,0,154477:0:0:0:0:
192,192,154400,1,0,0:0:0:0:
64,192,154554,128,0,154862:0:0:0:0:
192,192,154554,1,0,0:0:0:0:
448,192,154708,128,0,155016:0:0:0:0:
320,192,154862,1,0,0:0:0:0:
320,192,155016,128,0,155323:0:0:0:0:
64,192,155169,128,0,155477:0:0:0:0:
192,192,155323,128,0,155631:0:0:0:0:
448,192,155477,1,0,0:0:0:0:
448,192,155631,128,0,155939:0:0:0:0:
192,192,155785,128,0,156092:0:0:0:0:
320,192,155939,128,0,156246:0:0:0:0:
64,192,156092,1,0,0:0:0:0:
64,192,156246,128,0,156554:0:0:0:0:
192,192,156246,1,0,0:0:0:0:
448,192,156400,128,0,156708:0:0:0:0:
320,192,156400,1,0,0:0:0:0:
192,192,156554,128,0,156708:0:0:0:0:
320,192,156708,128,0,157016:0:0:0:0:
64,192,156708,1,0,0:0:0:0:
64,192,156862,128,0,157016:0:0:0:0:
192,192,156862,1,0,0:0:0:0:
448,192,157016,128,0,157323:0:0:0:0:
192,192,157169,128,0,157477:0:0:0:0:
320,192,157323,1,0,0:0:0:0:
320,192,157477,128,0,157785:0:0:0:0:
64,192,157631,128,0,157939:0:0:0:0:
448,192,157785,128,0,158092:0:0:0:0:
192,192,157939,1,0,0:0:0:0:
192,192,158092,128,0,158400:0:0:0:0:
320,192,158246,128,0,158554:0:0:0:0:
64,192,158400,128,0,158708:0:0:0:0:
448,192,158554,1,0,0:0:0:0:
320,192,158708,128,0,159016:0:0:0:0:
192,192,158862,128,0,159016:0:0:0:0:
64,192,159016,128,0,159323:0:0:0:0:
448,192,159169,1,0,0:0:0:0:
192,192,159246,1,0,0:0:0:0:
320,192,159323,1,0,0:0:0:0:
448,192,159400,1,0,0:0:0:0:
64,192,159477,1,0,0:0:0:0:
192,192,159477,128,0,159785:0:0:0:0:
320,192,159631,128,0,159785:0:0:0:0:
448,192,159785,128,0,160016:0:0:0:0:
64,192,159939,128,0,160092:0:0:0:0:
448,192,160092,128,0,160400:0:0:0:0:
64,192,160246,128,0,160400:0:0:0:0:
320,192,160400,128,0,160554:0:0:0:0:
192,192,160554,128,0,160785:0:0:0:0:
448,192,160708,1,0,0:0:0:0:
192,192,160862,128,0,161169:0:0:0:0:
320,192,161016,1,0,0:0:0:0:
448,192,161016,1,0,0:0:0:0:
64,192,161169,128,0,161477:0:0:0:0:
448,192,161323,1,0,0:0:0:0:
192,192,161477,128,0,161631:0:0:0:0:
320,192,161631,128,0,161785:0:0:0:0:
64,192,161631,1,0,0:0:0:0:
448,192,161785,128,0,161862:0:0:0:0:
448,192,161939,128,0,162246:0:0:0:0:
64,192,161939,1,0,0:0:0:0:
192,192,162092,128,0,162400:0:0:0:0:
64,192,162246,1,0,0:0:0:0:
320,192,162400,128,0,162708:0:0:0:0:
64,192,162554,128,0,162862:0:0:0:0:
448,192,162708,1,0,0:0:0:0:
320,192,162862,128,0,163169:0:0:0:0:
192,192,163016,128,0,163323:0:0:0:0:
448,192,163169,1,0,0:0:0:0:
64,192,163169,1,0,0:0:0:0:
320,192,163323,128,0,163400:0:0:0:0:
64,192,163400,1,0,0:0:0:0:
448,192,163477,1,0,0:0:0:0:
192,192,163477,128,0,163554:0:0:0:0:
192,192,163631,128,0,163708:0:0:0:0:
64,192,163631,1,0,0:0:0:0:
320,192,163785,128,0,164092:0:0:0:0:
448,192,163785,1,0,0:0:0:0:
192,192,163939,1,0,0:0:0:0:
64,192,163939,1,0,0:0:0:0:
64,192,164092,128,0,164400:0:0:0:0:
448,192,164092,1,0,0:0:0:0:
192,192,164246,1,0,0:0:0:0:
320,192,164246,1,0,0:0:0:0:
320,192,164400,1,0,0:0:0:0:
448,192,164400,1,0,0:0:0:0:
