osu file format v14

[General]
AudioFilename: audio.mp3
AudioLeadIn: 0
PreviewTime: 107429
Countdown: 0
SampleSet: Soft
StackLeniency: 0.7
Mode: 0
LetterboxInBreaks: 0
WidescreenStoryboard: 0

[Editor]
Bookmarks: 47363,78577
DistanceSpacing: 1.1
BeatDivisor: 2
GridSize: 4
TimelineZoom: 2.799999

[Metadata]
Title:Scarborough Fair
TitleUnicode:Scarborough Fair
Artist:Tamaru Yamada
ArtistUnicode:山田タマル
Creator:Nozhomi
Version:Easy
Source:終末なにしてますか?忙しいですか?救ってもらっていいですか?
Tags:sukasuka worldend shumatsu nani shitemasu ka? isogashidesu ka? sukutte moratte iidesu ka?
BeatmapID:1480901
BeatmapSetID:679044

[Difficulty]
HPDrainRate:2
CircleSize:3
OverallDifficulty:2
ApproachRate:3
SliderMultiplier:1
SliderTickRate:1

[Events]
//Background and Video events
0,0,"happiestgirlintheworld.jpg",0,0
//Break Periods
//Storyboard Layer 0 (Background)
//Storyboard Layer 1 (Fail)
//Storyboard Layer 2 (Pass)
//Storyboard Layer 3 (Foreground)
//Storyboard Sound Samples

[TimingPoints]
1909,500,3,2,1,50,1,0
2409,476.190476190476,3,2,1,50,1,0
2885,425.531914893617,3,2,1,40,1,0
3168,476.190476190476,3,2,1,40,1,0
3644,594.059405940594,3,2,1,25,1,0
4238,487.80487804878,3,2,1,40,1,0
5457,-100,3,2,1,5,0,0
5701,560.747663551402,3,2,1,40,1,0
9065,472.44094488189,3,2,1,30,1,0
9301,-100,3,2,1,40,0,0
11899,468.75,3,2,1,40,1,0
13774,475.247524752475,3,2,1,40,1,0
14604,-100,3,2,1,5,0,0
14724,476.190476190476,3,2,1,40,1,0
19009,461.538461538462,3,2,1,40,1,0
20393,464.2166344294,3,2,1,40,1,0
21785,476.190476190476,3,2,1,40,1,0
25118,458.015267175573,3,2,1,40,1,0
26025,472.44094488189,3,2,1,40,1,0
30285,474.308300395257,3,2,1,40,1,0
34079,439.56043956044,3,2,1,40,1,0
34518,454.545454545455,3,2,1,40,1,0
35199,491.803278688525,3,2,1,40,1,0
35444,444.444444444444,3,2,1,40,1,0
35666,681.818181818182,3,2,1,40,1,0
36007,447.761194029851,3,2,1,40,1,0
36454,472.44094488189,3,2,1,30,1,0
36690,681.818181818182,3,2,1,30,1,0
36775,-100,3,2,1,20,0,0
36917,-100,3,2,1,30,0,0
37031,377.358490566038,3,2,1,20,1,0
37408,454.545454545455,3,2,1,40,1,0
38345,468.75,3,2,1,40,1,0
38814,468.75,3,2,1,40,1,0
40220,465.116279069767,3,2,1,40,1,0
41150,502.092050209205,3,2,1,40,1,0
41652,441.176470588235,3,2,1,40,1,0
42313,468.75,3,2,1,40,1,0
44431,468.75,3,2,1,40,1,0
45870,497.92531120332,3,2,1,40,1,0
47239,-100,3,2,1,5,0,0
47363,470.588235294118,3,2,1,50,1,0
53010,464.756003098373,3,2,1,50,1,0
57192,470.957613814757,3,2,1,50,1,0
62843,478.08764940239,3,2,1,50,1,0
64278,469.483568075117,3,2,1,40,1,0
69911,480,3,2,1,40,1,0
70871,545.454545454546,3,2,1,40,1,0
71280,-100,3,2,1,5,0,0
71416,466.926070038911,3,2,1,50,1,0
76552,521.739130434783,3,2,1,50,1,0
77073,461.538461538462,3,2,1,50,1,0
77765,540.540540540541,3,2,1,50,1,0
78577,456.968773800457,3,2,1,60,1,0
89544,458.260139005575,3,2,1,60,1,0
102604,446.096654275093,3,2,1,60,1,0
103272,458.015267175573,3,2,1,60,1,0
104646,468.75,3,2,1,60,1,0
106052,458.015267175573,3,2,1,60,1,0
106739,493.827160493827,3,2,1,60,1,0
107479,454.545454545455,3,2,1,60,1,1
110246,465.116279069767,3,2,1,60,1,1
122339,521.739130434783,3,2,1,60,1,0
122832,465.116279069767,3,2,1,60,1,1
128413,470.588235294118,3,2,1,60,1,1
132648,491.803278688525,3,2,1,60,1,1
133631,530.035335689046,3,2,1,60,1,1
134161,674.157303370787,3,2,1,50,1,0
134666,-100,3,2,1,5,0,0
134835,705.882352941176,3,2,1,50,1,0
135364,-100,3,2,1,5,0,0
135540,-100,3,2,1,50,0,0
136070,-100,3,2,1,5,0,0
136246,-100,3,2,1,50,0,0
136837,764.331210191083,3,2,1,50,1,0
138174,-100,3,2,1,40,0,0
138481,810.810810810811,3,2,1,40,1,0
138683,-100,3,2,1,35,0,0
140102,731.707317073171,3,2,1,35,1,0
140467,845.070422535211,3,2,1,35,1,0
141100,875.912408759124,3,2,1,35,1,0
141865,1132.07547169811,3,2,1,35,1,0
142431,1363.63636363637,3,2,1,30,1,0
144476,-100,3,2,1,25,0,0
144646,-100,3,2,1,20,0,0
146521,-100,3,2,1,10,0,0
146692,-100,3,2,1,5,0,0

[Colours]
Combo1 : 214,106,35
Combo2 : 128,255,255
Combo3 : 191,0,5
Combo4 : 24,37,197

[HitObjects]
256,192,1909,12,0,4238,0:0:0:0:
352,16,5701,6,0,B|493:138|434:356|434:356|344:271|349:151,1,600,0|4,0:0|0:0,0:0:0:0:
268,76,9537,22,0,P|218:67|169:74,1,100,2|2,0:0|0:0,0:0:0:0:
92,152,10482,2,0,P|85:201|93:250,1,100,2|0,0:0|0:0,0:0:0:0:
136,284,11190,2,0,L|200:280,1,50,2|2,0:0|0:0,0:0:0:0:
288,324,11899,22,0,L|387:330,2,100,2|2|2,0:0|0:0|0:0,0:0:0:0:
268,216,13305,2,0,P|260:168|276:96,1,100,2|2,0:0|0:0,0:0:0:0:
460,12,14724,22,0,P|492:104|472:208,1,200,2|2,0:0|0:0,0:0:0:0:
396,280,16152,2,0,B|268:276,1,100,2|2,0:0|0:0,0:0:0:0:
228,364,17104,1,2,0:0:0:0:
184,264,17581,22,0,L|188:108,1,150,2|0,0:0|0:0,0:0:0:0:
144,80,18533,1,2,0:0:0:0:
56,152,19009,2,0,P|25:243|85:335,1,200,2|2,0:0|0:0,0:0:0:0:
180,356,20393,22,0,L|300:352,1,100,2|2,0:0|0:0,0:0:0:0:
372,296,21321,2,0,L|492:292,1,100,2|2,0:0|0:0,0:0:0:0:
420,196,22261,1,2,0:0:0:0:
460,92,22737,1,2,0:0:0:0:
364,36,23213,22,0,B|312:28|312:28|265:36,1,100,2|0,0:0|0:0,0:0:0:0:
180,108,24165,1,2,0:0:0:0:
252,192,24642,2,0,P|260:241|255:290,1,100,2|2,0:0|0:0,0:0:0:0:
176,368,25576,1,2,0:0:0:0:
100,292,26025,22,0,B|77:240|100:196|100:196|66:152|87:101,1,200,2|0,0:0|0:0,0:0:0:0:
180,40,27442,1,2,0:0:0:0:
276,96,27914,2,0,P|288:144|268:192,1,100,2|2,0:0|0:0,0:0:0:0:
176,248,28859,1,2,0:0:0:0:
148,356,29332,1,2,0:0:0:0:
255,327,29804,1,2,0:0:0:0:
311,231,30285,22,0,P|338:136|310:41,1,200,2|2,0:0|0:0,0:0:0:0:
201,41,31707,2,0,P|173:136|201:231,1,200,2|2,0:0|0:0,0:0:0:0:
255,327,33130,22,0,L|355:327,1,100,2|2,0:0|0:0,0:0:0:0:
460,276,34079,1,2,0:0:0:0:
396,192,34518,22,0,P|380:144|396:92,1,100,2|0,0:0|0:0,0:0:0:0:
353,64,35199,2,0,P|289:72|261:60,1,95,2|0,0:0|0:0,0:0:0:0:
192,12,36007,2,0,L|92:16,1,100,2|0,0:0|0:0,0:0:0:0:
240,196,37408,22,0,P|279:276|234:380,1,200,2|0,0:0|0:0,0:0:0:0:
161,286,38814,2,0,L|161:170,1,100,2|2,0:0|0:0,0:0:0:0:
104,92,39751,1,2,0:0:0:0:
198,34,40220,22,0,P|247:27|296:35,1,100,2|2,0:0|0:0,0:0:0:0:
391,69,41150,1,2,0:0:0:0:
484,152,41652,22,0,B|504:252|504:252|484:348,1,203,2|2,0:0|0:0,0:0:0:0:
376,292,43016,1,2,0:0:0:0:
280,343,43484,2,0,P|258:356|233:359,2,50,2|0|2,0:0|0:0|0:0,0:0:0:0:
280,232,44431,21,2,0:0:0:0:
300,124,44899,2,0,L|349:121,2,50,2|0|2,0:0|0:0|0:0,0:0:0:0:
220,60,45870,2,0,L|111:66,1,100,2|2,0:0|0:0,0:0:0:0:
40,140,46865,1,2,0:0:0:0:
156,152,47363,6,0,L|255:157,1,100,2|2,0:0|0:0,0:0:0:0:
348,220,48304,1,2,0:0:0:0:
292,316,48774,2,0,P|344:352|412:352,1,100,2|2,0:0|0:0,0:0:0:0:
472,300,49715,1,2,0:0:0:0:
496,192,50186,38,0,L|492:40,1,150,2|0,0:0|0:0,0:0:0:0:
444,16,51127,1,2,0:0:0:0:
352,72,51598,2,0,P|330:168|358:263,1,200,2|0,0:0|0:0,0:0:0:0:
328,308,52774,22,0,L|212:304,1,99.5,2|0,0:0|0:0,0:0:0:0:
188,340,53474,1,2,0:0:0:0:
64,232,54171,2,0,L|12:232,2,50,0|2|0,0:0|0:0|0:0,0:0:0:0:
104,196,54869,2,0,P|111:146|102:97,1,100,2|2,0:0|0:0,0:0:0:0:
192,36,55798,22,0,P|218:131|206:230,1,200,2|2,0:0|0:0,0:0:0:0:
148,323,57192,2,0,P|197:315|246:322,1,100,2|2,0:0|0:0,0:0:0:0:
348,360,58133,1,2,0:0:0:0:
304,260,58604,22,0,P|284:180|384:120,1,200,2|2,0:0|0:0,0:0:0:0:
432,208,60017,2,0,L|428:328,1,100,2|0,0:0|0:0,0:0:0:0:
323,347,60959,38,0,P|224:328|126:351,1,200,2|2,0:0|0:0,0:0:0:0:
20,368,62372,2,0,P|52:268|40:168,1,201.5,2|0,0:0|0:0,0:0:0:0:
4,68,63799,1,2,0:0:0:0:
113,97,64278,38,0,B|177:113|177:113|310:97,1,200,2|2,0:0|0:0,0:0:0:0:
409,49,65686,2,0,P|422:96|410:144,1,100,2|2,0:0|0:0,0:0:0:0:
328,220,66625,1,2,0:0:0:0:
256,140,67094,21,2,0:0:0:0:
184,220,67564,1,2,0:0:0:0:
200,328,68033,1,2,0:0:0:0:
312,327,68503,2,0,P|394:264|404:152,1,200,2|2,0:0|0:0,0:0:0:0:
352,80,69911,22,0,B|256:56|256:56|157:79,1,200,2|2,0:0|0:0,0:0:0:0:
156,208,71416,22,0,B|254:231|254:231|350:207,1,200,2|2,0:0|0:0,0:0:0:0:
444,152,72816,2,0,P|451:248|379:312,1,200,2|2,0:0|0:0,0:0:0:0:
304,231,74217,38,0,P|256:223|207:231,1,100,2|2,0:0|0:0,0:0:0:0:
132,313,75151,1,2,0:0:0:0:
56,232,75618,1,2,0:0:0:0:
131,152,76085,2,0,P|143:103|131:55,1,100,2|2,0:0|0:0,0:0:0:0:
16,104,77073,37,2,0:0:0:0:
68,200,77534,2,0,P|102:227|168:224,1,108.5,2|2,0:0|0:0,0:0:0:0:
288,176,78577,6,0,P|384:153|480:177,1,200,4|2,3:2|0:0,0:0:0:0:
499,288,79947,2,0,P|476:331|433:354,1,100,0|2,1:0|0:0,0:0:0:0:
380,364,80633,2,0,L|312:360,1,50,0|2,0:0|0:0,0:0:0:0:
256,280,81318,22,0,L|256:116,1,150,4|0,0:3|1:0,0:0:0:0:
232,80,82232,1,2,0:0:0:0:
124,100,82689,2,0,B|92:192|92:192|130:287,1,200,0|4,1:0|0:3,0:0:0:0:
220,352,84060,5,4,0:3:0:0:
320,304,84517,2,0,P|368:294|417:303,1,100,2|2,0:0|0:0,0:0:0:0:
471,207,85431,2,0,P|375:184|277:203,1,200,0|2,1:0|0:0,0:0:0:0:
184,260,86802,5,4,0:3:0:0:
80,220,87259,2,0,P|44:176|44:112,1,100,2|2,0:0|0:0,0:0:0:0:
124,64,88173,2,0,L|288:56,2,150,0|0|0,1:0|1:0|1:0,0:0:0:0:
268,144,90231,2,0,P|316:134|350:99,1,100,2|0,0:0|1:0,0:0:0:0:
392,60,90918,22,0,L|396:280,1,200,4|2,0:3|0:0,0:0:0:0:
451,356,92293,2,0,P|500:301|501:227,2,150,0|0|4,1:0|0:0|0:3,0:0:0:0:
396,260,94126,1,2,0:0:0:0:
288,236,94584,1,2,0:0:0:0:
180,260,95043,6,0,P|96:272|32:184,1,200,4|2,0:3|0:0,0:0:0:0:
67,84,96417,2,0,P|116:72|166:75,1,100,0|2,1:0|0:0,0:0:0:0:
220,88,97105,2,0,P|268:99|318:96,1,100,0|0,0:0|0:3,0:0:0:0:
372,80,97792,6,0,P|400:200|364:296,1,200,4|2,0:3|0:0,0:0:0:0:
296,340,99167,2,0,P|199:361|104:332,1,200,0|2,1:0|0:0,0:0:0:0:
56,232,100542,22,0,L|48:76,2,150,0|0|0,1:0|0:3|1:0,0:0:0:0:
180,348,102604,22,0,B|256:364|256:364|326:348,1,150,0|0,1:0|1:0,0:0:0:0:
472,272,103959,1,2,0:0:0:0:
336,187,104646,22,0,P|315:116|338:46,1,150,4|8,0:0|0:3,0:0:0:0:
380,12,105583,1,2,0:0:0:0:
468,76,106051,5,0,1:0:0:0:
484,184,106510,2,0,L|480:320,1,104,2|0,0:0|0:0,0:0:0:0:
372,344,107479,6,0,P|320:332|260:341,1,100,4|2,3:2|0:0,0:0:0:0:
168,364,108388,1,2,0:0:0:0:
212,264,108842,2,0,L|208:144,1,100,0|2,1:0|0:0,0:0:0:0:
176,60,109751,1,2,0:0:0:0:
80,128,110246,22,0,P|68:188|76:240,1,100,4|2,0:3|0:0,0:0:0:0:
100,272,110943,2,0,L|100:324,1,50,0|2,1:0|0:0,0:0:0:0:
208,344,111641,2,0,P|216:294|206:246,1,100,0|2,1:0|0:0,0:0:0:0:
164,144,112571,1,0,0:3:0:0:
272,144,113036,21,4,0:3:0:0:
244,36,113501,1,2,0:0:0:0:
296,24,113734,2,0,P|345:15|393:26,1,100,2|4,0:0|0:3,0:0:0:0:
440,56,114432,1,0,1:0:0:0:
424,164,114897,2,0,P|419:213|437:259,1,100,2|2,0:0|0:0,0:0:0:0:
363,339,115827,22,0,P|310:256|311:158,1,200,4|2,0:3|0:0,0:0:0:0:
360,60,117222,2,0,P|310:67|261:63,1,100,0|2,1:0|0:0,0:0:0:0:
160,24,118152,1,2,0:0:0:0:
84,104,118618,22,0,P|55:172|77:247,1,150,4|0,0:3|1:0,0:0:0:0:
166,180,119780,1,4,0:3:0:0:
180,232,120013,2,0,P|207:300|276:338,1,150,0|2,1:0|0:0,0:0:0:0:
288,228,121176,1,0,0:3:0:0:
336,256,121408,2,0,P|404:285|479:263,1,150,4|0,0:3|1:0,0:0:0:0:
504,224,122339,1,2,0:0:0:0:
413,150,122832,22,0,L|213:154,1,200,4|2,3:2|0:0,0:0:0:0:
286,69,124227,2,0,B|385:67,1,100,4|2,0:3|0:0,0:0:0:0:
488,108,125157,1,2,0:0:0:0:
400,176,125622,22,0,P|379:220|382:270,1,100,4|2,0:3|0:0,0:0:0:0:
390,381,126552,1,2,0:0:0:0:
280,368,127018,2,0,L|180:364,1,100,4|2,0:3|0:0,0:0:0:0:
80,320,127948,2,0,B|68:276|68:276|81:223,1,100,2|0,0:0|1:0,0:0:0:0:
100,116,128883,2,0,P|75:95|56:56,2,50,2|0|8,0:0|0:3|0:3,0:0:0:0:
204,156,129824,22,0,L|416:152,1,200,4|2,3:2|0:0,0:0:0:0:
352,56,131236,2,0,L|252:58,1,100,0|2,1:0|0:0,0:0:0:0:
140,60,132177,1,2,0:0:0:0:
196,148,132648,22,0,P|199:197|180:242,1,100,4|2,0:3|0:0,0:0:0:0:
100,304,133631,1,8,0:3:0:0:
172,352,134161,22,0,L|284:348,1,100,4|2,0:3|0:0,0:0:0:0:
352,276,135540,2,0,L|451:272,1,100,2|2,0:0|0:0,0:0:0:0:
504,180,136837,2,0,P|448:128|352:128,1,150,2|0,0:0|0:0,0:0:0:0:
316,148,138481,5,2,0:0:0:0:
256,192,138683,12,2,142431,0:0:0:0:
256,192,144476,12,0,146692,0:0:0:0:
