osu file format v14

[General]
AudioFilename: audio.mp3
AudioLeadIn: 0
PreviewTime: 107429
Countdown: 0
SampleSet: Soft
StackLeniency: 0.7
Mode: 0
LetterboxInBreaks: 0
WidescreenStoryboard: 0

[Editor]
Bookmarks: 47363,78577
DistanceSpacing: 1.2
BeatDivisor: 4
GridSize: 4
TimelineZoom: 1.7

[Metadata]
Title:Scarborough Fair
TitleUnicode:Scarborough Fair
Artist:Tamaru Yamada
ArtistUnicode:山田タマル
Creator:Nozhomi
Version:Normal
Source:終末なにしてますか?忙しいですか?救ってもらっていいですか?
Tags:sukasuka worldend shumatsu nani shitemasu ka? isogashidesu ka? sukutte moratte iidesu ka?
BeatmapID:1435741
BeatmapSetID:679044

[Difficulty]
HPDrainRate:4
CircleSize:4
OverallDifficulty:4
ApproachRate:5
SliderMultiplier:1.3
SliderTickRate:1

[Events]
//Background and Video events
0,0,"happiestgirlintheworld.jpg",0,0
//Break Periods
//Storyboard Layer 0 (Background)
//Storyboard Layer 1 (Fail)
//Storyboard Layer 2 (Pass)
//Storyboard Layer 3 (Foreground)
//Storyboard Sound Samples

[TimingPoints]
1909,500,3,2,1,50,1,0
2409,476.190476190476,3,2,1,50,1,0
2885,425.531914893617,3,2,1,40,1,0
3168,476.190476190476,3,2,1,40,1,0
3644,594.059405940594,3,2,1,25,1,0
4238,487.80487804878,3,2,1,40,1,0
5457,-100,3,2,1,5,0,0
5701,560.747663551402,3,2,1,40,1,0
9065,472.44094488189,3,2,1,30,1,0
9301,-100,3,2,1,40,0,0
11899,468.75,3,2,1,40,1,0
13774,475.247524752475,3,2,1,40,1,0
14604,-100,3,2,1,5,0,0
14724,476.190476190476,3,2,1,40,1,0
19009,461.538461538462,3,2,1,40,1,0
20393,464.2166344294,3,2,1,40,1,0
21785,476.190476190476,3,2,1,40,1,0
25118,458.015267175573,3,2,1,40,1,0
26025,472.44094488189,3,2,1,40,1,0
30285,474.308300395257,3,2,1,40,1,0
34079,439.56043956044,3,2,1,40,1,0
34518,454.545454545455,3,2,1,40,1,0
35199,491.803278688525,3,2,1,40,1,0
35444,444.444444444444,3,2,1,40,1,0
35666,681.818181818182,3,2,1,40,1,0
36007,447.761194029851,3,2,1,40,1,0
36454,472.44094488189,3,2,1,30,1,0
36690,681.818181818182,3,2,1,30,1,0
36775,-100,3,2,1,20,0,0
36917,-100,3,2,1,30,0,0
37031,377.358490566038,3,2,1,20,1,0
37408,454.545454545455,3,2,1,40,1,0
38345,468.75,3,2,1,40,1,0
38814,468.75,3,2,1,40,1,0
40220,465.116279069767,3,2,1,40,1,0
41150,502.092050209205,3,2,1,40,1,0
41652,441.176470588235,3,2,1,40,1,0
42313,468.75,3,2,1,40,1,0
44431,468.75,3,2,1,40,1,0
45870,497.92531120332,3,2,1,40,1,0
47239,-100,3,2,1,5,0,0
47363,470.588235294118,3,2,1,50,1,0
53010,464.756003098373,3,2,1,50,1,0
57192,470.957613814757,3,2,1,50,1,0
62843,478.08764940239,3,2,1,50,1,0
64278,469.483568075117,3,2,1,40,1,0
69911,480,3,2,1,40,1,0
70871,545.454545454546,3,2,1,40,1,0
71280,-100,3,2,1,5,0,0
71416,466.926070038911,3,2,1,50,1,0
76552,521.739130434783,3,2,1,50,1,0
77073,461.538461538462,3,2,1,50,1,0
77765,540.540540540541,3,2,1,50,1,0
78577,456.968773800457,3,2,1,60,1,0
89544,458.260139005575,3,2,1,60,1,0
102604,446.096654275093,3,2,1,60,1,0
103272,458.015267175573,3,2,1,60,1,0
104646,468.75,3,2,1,60,1,0
106052,458.015267175573,3,2,1,60,1,0
106739,493.827160493827,3,2,1,60,1,0
107479,454.545454545455,3,2,1,60,1,1
110246,465.116279069767,3,2,1,60,1,1
122339,521.739130434783,3,2,1,60,1,0
122832,465.116279069767,3,2,1,60,1,1
128413,470.588235294118,3,2,1,60,1,1
132648,491.803278688525,3,2,1,60,1,1
133631,530.035335689046,3,2,1,60,1,1
134161,674.157303370787,3,2,1,50,1,0
134666,-100,3,2,1,5,0,0
134835,705.882352941176,3,2,1,50,1,0
135364,-100,3,2,1,5,0,0
135540,-100,3,2,1,50,0,0
136070,-100,3,2,1,5,0,0
136246,-100,3,2,1,50,0,0
136837,764.331210191083,3,2,1,50,1,0
138174,-100,3,2,1,40,0,0
138481,810.810810810811,3,2,1,40,1,0
138683,-100,3,2,1,35,0,0
140102,731.707317073171,3,2,1,35,1,0
140467,845.070422535211,3,2,1,35,1,0
141100,875.912408759124,3,2,1,35,1,0
141865,1132.07547169811,3,2,1,35,1,0
142431,1363.63636363637,3,2,1,30,1,0
144476,-100,3,2,1,25,0,0
144646,-100,3,2,1,20,0,0
146521,-100,3,2,1,10,0,0
146692,-100,3,2,1,5,0,0

[Colours]
Combo1 : 214,106,35
Combo2 : 128,255,255
Combo3 : 191,0,5
Combo4 : 24,37,197

[HitObjects]
256,192,1909,12,0,4238,0:0:0:0:
348,20,5701,6,0,B|231:-6|132:68|132:68|336:164|452:34|452:34|486:45|503:86|496:118|474:140|474:140|504:183|482:234,1,780,2|4,0:0|0:0,0:0:0:0:
432,356,9537,22,0,P|404:344|332:272,1,130,2|2,0:0|0:0,0:0:0:0:
178,274,10482,2,0,P|136:323|80:356,1,130,2|0,0:0|0:0,0:0:0:0:
48,284,11190,2,0,L|48:220,1,65,2|2,0:0|0:0,0:0:0:0:
52,64,11899,22,0,P|24:48|5:21,2,65,2|0|2,0:0|0:0|0:0,0:0:0:0:
128,84,12602,1,2,0:0:0:0:
204,72,12836,1,2,0:0:0:0:
356,32,13305,2,0,L|356:97,1,65,2|0,0:0|0:0,0:0:0:0:
428,67,13774,2,0,L|428:132,1,65,2|0,0:0|0:0,0:0:0:0:
428,132,14724,22,0,P|462:221|427:310,1,195,2|0,0:0|0:0,0:0:0:0:
364,352,15676,1,2,0:0:0:0:
256,240,16152,2,0,B|244:172|268:172|256:111,1,130,2|2,0:0|0:0,0:0:0:0:
128,20,17104,2,0,P|111:50|104:79,1,65,2|0,0:0|0:0,0:0:0:0:
96,158,17581,22,0,L|104:364,1,195,2|0,0:0|0:0,0:0:0:0:
176,380,18533,1,2,0:0:0:0:
312,293,19009,2,0,P|380:191|312:90,1,260,2|2,0:0|0:0,0:0:0:0:
184,176,20393,22,0,L|188:316,1,130,2|2,0:0|0:0,0:0:0:0:
120,344,21089,1,0,0:0:0:0:
44,364,21321,2,0,L|40:234,1,130,2|2,0:0|0:0,0:0:0:0:
60,80,22261,1,2,0:0:0:0:
184,176,22737,1,2,0:0:0:0:
308,80,23213,22,0,P|384:68|448:168,1,195,2|0,0:0|0:0,0:0:0:0:
436,232,24165,1,2,0:0:0:0:
336,352,24642,2,0,L|268:348,1,65,2|0,0:0|0:0,0:0:0:0:
216,288,25118,2,0,L|148:284,1,65,2|0,0:0|0:0,0:0:0:0:
100,224,25576,2,0,L|32:220,1,65,2|0,0:0|0:0,0:0:0:0:
0,151,26025,22,0,P|123:120|239:175,1,260,2|0,0:0|0:0,0:0:0:0:
340,296,27442,2,0,L|344:380,1,65,2|0,0:0|0:0,0:0:0:0:
420,360,27914,2,0,L|416:295,1,65,2|0,0:0|0:0,0:0:0:0:
468,236,28387,2,0,L|460:80,1,130,2|2,0:0|0:0,0:0:0:0:
328,24,29332,2,0,B|296:20|296:20|264:24,1,65,2|0,0:0|0:0,0:0:0:0:
188,40,29804,1,2,0:0:0:0:
256,180,30285,22,0,P|244:280|152:336,1,195,2|0,0:0|0:0,0:0:0:0:
96,336,31233,1,2,0:0:0:0:
23,195,31707,2,0,P|32:101|107:43,1,195,2|0,0:0|0:0,0:0:0:0:
184,40,32655,1,2,0:0:0:0:
311,191,33130,22,0,P|374:208|436:191,1,130,2|2,0:0|0:0,0:0:0:0:
372,36,34079,1,2,0:0:0:0:
240,108,34518,2,0,L|244:264,1,130,2|0,0:0|0:0,0:0:0:0:
172,244,35199,2,0,L|170:180,1,65,2|2,0:0|0:0,0:0:0:0:
140,112,35666,1,2,0:0:0:0:
44,184,36007,22,0,P|28:246|45:308,1,130,2|0,0:0|0:0,0:0:0:0:
108,356,36690,2,0,L|204:352,1,65,2|0,0:0|0:0,0:0:0:0:
256,252,37408,22,0,B|284:160|228:160|256:60,1,195,2|0,0:0|0:0,0:0:0:0:
328,20,38345,2,0,L|408:24,1,65,2|0,0:0|0:0,0:0:0:0:
460,64,38814,2,0,P|480:124|460:185,1,130,2|2,0:0|0:0,0:0:0:0:
352,296,39751,2,0,L|354:360,1,65,2|0,0:0|0:0,0:0:0:0:
276,368,40220,22,0,L|272:238,1,130,2|2,0:0|0:0,0:0:0:0:
344,112,41150,1,2,0:0:0:0:
200,192,41652,22,0,P|92:192|48:120,1,195,2|0,0:0|0:0,0:0:0:0:
56,48,42547,1,2,0:0:0:0:
212,36,43016,1,2,0:0:0:0:
200,192,43484,1,2,0:0:0:0:
252,252,43719,2,0,L|252:320,1,65,0|2,0:0|0:0,0:0:0:0:
344,188,44431,22,0,P|360:125|343:63,1,130,2|2,0:0|0:0,0:0:0:0:
278,20,45133,1,0,0:0:0:0:
212,64,45368,2,0,L|120:60,1,65,2|0,0:0|0:0,0:0:0:0:
72,56,45870,2,0,L|69:124,1,65,2|0,0:0|0:0,0:0:0:0:
108,188,46367,1,2,0:0:0:0:
152,336,46865,1,2,0:0:0:0:
316,324,47363,6,0,P|341:259|310:200,1,130,2|2,0:0|0:0,0:0:0:0:
180,132,48304,2,0,L|104:136,1,65,2|0,0:0|0:0,0:0:0:0:
84,64,48774,2,0,L|213:57,1,130,2|2,0:0|0:0,0:0:0:0:
256,208,49715,1,2,0:0:0:0:
299,57,50186,38,0,L|428:64,1,130,2|2,0:0|0:0,0:0:0:0:
492,108,50892,2,0,P|499:139|493:170,1,65,0|2,0:0|0:0,0:0:0:0:
400,296,51598,2,0,P|376:236|387:173,1,130,2|0,0:0|0:0,0:0:0:0:
256,88,52539,1,0,0:0:0:0:
180,100,52774,22,0,L|84:108,2,65,2|2|0,0:0|0:0|0:0,0:0:0:0:
228,160,53474,2,0,P|243:222|229:284,1,130,2|2,0:0|0:0,0:0:0:0:
160,320,54171,2,0,P|127:316|96:322,2,65,0|2|0,0:0|0:0|0:0,0:0:0:0:
224,364,54869,2,0,P|284:372|376:340,1,130,2|2,0:0|0:0,0:0:0:0:
468,252,55798,22,0,L|472:52,1,195,2|0,0:0|0:0,0:0:0:0:
408,16,56728,1,2,0:0:0:0:
332,148,57192,2,0,L|334:277,1,130,2|2,0:0|0:0,0:0:0:0:
186,326,58133,2,0,P|175:292|178:262,1,65,2|0,0:0|0:0,0:0:0:0:
212,192,58604,22,0,P|232:112|144:56,1,195,2|0,0:0|0:0,0:0:0:0:
84,100,59546,1,2,0:0:0:0:
212,192,60017,2,0,L|436:184,1,195,2|0,0:0|0:0,0:0:0:0:
412,264,60959,2,0,L|282:268,1,130,2|2,0:0|0:0,0:0:0:0:
128,292,61901,37,0,0:0:0:0:
91,223,62137,2,0,P|87:192|91:160,1,65,0|2,0:0|0:0,0:0:0:0:
120,88,62608,1,0,0:0:0:0:
192,120,62843,2,0,B|256:132|256:132|320:120,1,130,2|2,0:0|0:0,0:0:0:0:
464,62,63799,2,0,P|448:90|424:112,1,65,2|0,0:0|0:0,0:0:0:0:
375,175,64278,38,0,P|405:267|379:360,1,195,2|0,0:0|0:0,0:0:0:0:
304,376,65216,2,0,L|224:368,1,65,2|0,0:0|0:0,0:0:0:0:
188,308,65686,2,0,L|42:293,1,130,2|2,0:0|0:0,0:0:0:0:
140,160,66625,1,2,0:0:0:0:
188,308,67094,21,2,0:0:0:0:
292,192,67564,1,2,0:0:0:0:
140,160,68033,1,2,0:0:0:0:
256,264,68503,2,0,L|344:260,1,65,2|0,0:0|0:0,0:0:0:0:
384,216,68972,2,0,P|404:155|310:58,1,195,2|0,0:0|0:0,0:0:0:0:
260,94,69911,22,0,P|164:134|28:60,1,260,2|2,0:0|0:0,0:0:0:0:
100,236,71416,22,0,B|108:304|88:360|88:360|132:344|180:340,1,195,2|0,0:0|0:0,0:0:0:0:
232,356,72349,1,2,0:0:0:0:
360,268,72816,2,0,L|352:60,1,195,2|0,0:0|0:0,0:0:0:0:
297,18,73750,1,2,0:0:0:0:
276,172,74217,38,0,L|280:301,1,130,2|2,0:0|0:0,0:0:0:0:
436,296,75151,1,2,0:0:0:0:
480,148,75618,2,0,P|468:112|436:80,1,65,2|0,0:0|0:0,0:0:0:0:
392,44,76085,2,0,P|358:27|312:27,2,65,2|0|2,0:0|0:0|0:0,0:0:0:0:
445,214,77073,37,2,0:0:0:0:
360,344,77534,1,2,0:0:0:0:
300,304,77765,2,0,P|269:299|237:304,1,65,0|2,1:0|0:0,0:0:0:0:
64,352,78577,6,0,P|43:286|72:220,1,130,4|2,3:2|0:0,0:0:0:0:
160,108,79490,2,0,L|232:112,1,65,2|4,0:0|0:3,0:0:0:0:
292,152,79947,2,0,B|421:144,1,130,0|2,1:0|0:0,0:0:0:0:
492,180,80633,2,0,P|498:211|493:243,1,65,0|2,0:0|0:0,0:0:0:0:
380,352,81318,22,0,L|376:216,1,130,4|2,0:3|0:0,0:0:0:0:
328,160,82004,1,0,1:0:0:0:
268,207,82232,2,0,P|235:211|203:207,1,65,2|4,0:0|0:3,0:0:0:0:
144,160,82689,2,0,L|140:28,1,130,0|2,1:0|0:0,0:0:0:0:
68,60,83375,2,0,L|71:189,1,130,2|0,0:0|1:0,0:0:0:0:
124,248,84060,5,4,0:3:0:0:
272,200,84517,2,0,P|303:194|335:200,1,65,2|0,0:0|0:0,0:0:0:0:
404,240,84974,2,0,P|430:258|448:285,1,65,2|4,0:0|0:3,0:0:0:0:
412,356,85431,2,0,L|192:348,1,195,0|0,1:0|0:0,0:0:0:0:
156,304,86344,2,0,P|151:271|155:239,1,65,2|0,0:0|0:3,0:0:0:0:
196,172,86802,5,4,0:3:0:0:
104,48,87259,1,2,0:0:0:0:
260,68,87716,2,0,L|328:64,1,65,2|4,0:0|0:3,0:0:0:0:
356,136,88173,2,0,P|292:152|226:139,1,130,0|2,1:0|0:0,0:0:0:0:
168,92,88858,2,0,L|164:28,2,65,0|2|4,1:0|0:0|0:3,0:0:0:0:
127,160,89544,22,0,P|115:222|140:282,1,130,0|2,1:0|0:0,0:0:0:0:
200,332,90231,1,2,0:0:0:0:
276,356,90460,2,0,L|340:352,1,65,2|0,0:0|1:0,0:0:0:0:
395,295,90918,22,0,P|375:234|389:172,1,130,4|2,0:3|0:0,0:0:0:0:
440,112,91606,1,0,0:0:0:0:
368,80,91835,2,0,L|284:76,1,65,2|4,0:0|0:3,0:0:0:0:
236,36,92293,2,0,L|106:29,1,130,0|2,1:0|0:0,0:0:0:0:
90,106,92980,2,0,L|162:110,1,65,0|2,0:0|0:0,0:0:0:0:
234,114,93439,1,0,0:3:0:0:
302,154,93668,22,0,P|318:216|301:278,1,130,4|2,0:3|0:0,0:0:0:0:
256,344,94355,1,0,1:0:0:0:
210,277,94585,2,0,P|199:248|194:207,1,65,2|0,0:0|0:3,0:0:0:0:
220,144,95043,2,0,L|220:-4,1,130,4|2,0:3|0:0,0:0:0:0:
88,97,95959,2,0,L|88:162,1,65,2|4,0:0|0:3,0:0:0:0:
88,240,96417,6,0,P|116:288|200:316,1,130,0|2,1:0|0:0,0:0:0:0:
256,288,97105,2,0,L|256:212,2,65
329,316,97792,6,0,P|389:293|424:240,1,130,4|0,0:3|0:0,0:0:0:0:
380,92,98708,2,0,L|292:92,1,65,2|4,0:0|0:3,0:0:0:0:
252,44,99167,2,0,P|168:28|64:84,1,195,0|0,1:0|0:0,0:0:0:0:
64,152,100083,2,0,L|68:228,1,65,2|4,0:0|0:3,0:0:0:0:
141,240,100542,22,0,P|160:180|134:121,1,130,0|8,1:0|0:3,0:0:0:0:
73,74,101229,2,0,L|9:79,2,65,0|4|0,0:3|0:3|0:0,0:0:0:0:
144,44,101917,1,0,1:0:0:0:
256,152,102375,1,2,0:0:0:0:
325,193,102604,22,0,P|386:210|448:192,1,130,0|0,1:0|0:0,0:0:0:0:
448,116,103272,2,0,P|386:97|324:115,1,130,0|0,1:0|0:0,0:0:0:0:
256,152,103959,1,0,0:0:0:0:
192,195,104188,2,0,P|162:205|130:203,1,65,2|4,0:0|0:3,0:0:0:0:
68,247,104646,22,0,P|80:180|68:112,1,130,4|2,0:0|0:0,0:0:0:0:
40,48,105349,1,8,0:3:0:0:
116,54,105583,2,0,L|196:50,1,65,2|4,0:0|0:3,0:0:0:0:
256,28,106051,5,0,1:0:0:0:
412,48,106510,1,2,0:0:0:0:
480,28,106739,2,0,P|481:64|454:105,1,65,0|8,1:0|0:3,0:0:0:0:
344,203,107479,6,0,P|284:187|208:207,1,130,4|2,3:2|0:0,0:0:0:0:
320,320,108388,2,0,P|352:324|388:316,1,65,2|4,0:0|0:3,0:0:0:0:
416,248,108842,2,0,L|410:107,1,130,0|2,1:0|0:0,0:0:0:0:
272,44,109751,2,0,L|269:108,1,65,2|0,0:0|0:3,0:0:0:0:
211,180,110246,22,0,P|148:191|85:178,1,130,4|2,0:3|0:0,0:0:0:0:
23,128,110943,1,0,1:0:0:0:
88,84,111176,2,0,P|116:80|152:80,1,65,2|4,0:0|0:3,0:0:0:0:
228,104,111641,2,0,L|364:100,1,130,0|2,1:0|0:0,0:0:0:0:
432,75,112339,2,0,P|447:47|468:22,2,65,0|0|8,0:0|0:3|0:3,0:0:0:0:
420,152,113036,21,4,0:3:0:0:
476,296,113501,2,0,P|484:327|483:359,2,65,2|2|0,0:0|0:0|0:0,0:0:0:0:
424,240,114199,1,4,0:3:0:0:
348,224,114432,1,0,1:0:0:0:
204,284,114897,2,0,P|185:223|212:152,1,130,2|2,0:0|0:0,0:0:0:0:
280,300,115827,22,0,P|256:340|104:324,1,195,4|0,0:3|0:0,0:0:0:0:
52,308,116757,2,0,L|56:231,1,65,2|4,0:0|0:3,0:0:0:0:
129,215,117222,2,0,L|122:344,1,130,0|2,1:0|0:0,0:0:0:0:
204,212,118152,2,0,L|208:135,1,65,2|0,0:0|0:3,0:0:0:0:
284,124,118618,22,0,P|300:185|276:244,1,130,4|2,0:3|0:0,0:0:0:0:
212,292,119315,1,0,1:0:0:0:
152,148,119780,1,4,0:3:0:0:
196,84,120013,2,0,P|241:38|304:30,1,130,0|0,1:0|0:0,0:0:0:0:
377,62,120711,1,2,0:0:0:0:
284,188,121176,1,0,0:3:0:0:
206,181,121409,22,0,P|144:164|105:113,1,130,4|2,0:3|0:0,0:0:0:0:
97,36,122106,1,0,1:0:0:0:
32,82,122339,2,0,P|25:112|35:152,1,65,2|4,0:0|0:3,0:0:0:0:
76,212,122832,22,0,L|72:341,1,130,4|2,3:2|0:0,0:0:0:0:
224,300,123762,2,0,B|256:296|256:296|288:300,1,65,2|0,0:0|0:3,0:0:0:0:
320,228,124227,2,0,B|256:219|256:219|192:228,1,130,4|2,0:3|0:0,0:0:0:0:
116,244,124925,1,0,0:0:0:0:
140,168,125157,2,0,P|143:135|139:103,1,65,2|0,0:0|0:3,0:0:0:0:
80,52,125622,22,0,P|140:75|204:64,1,130,4|2,0:3|0:0,0:0:0:0:
256,8,126320,1,0,1:0:0:0:
309,64,126552,2,0,P|340:70|372:63,1,65,2|0,0:0|0:3,0:0:0:0:
444,96,127018,2,0,P|428:160|440:225,1,130,4|2,0:3|0:0,0:0:0:0:
368,360,127948,2,0,L|288:356,1,65,2|4,0:0|0:3,0:0:0:0:
256,296,128413,21,0,1:0:0:0:
104,328,128883,2,0,P|96:296|104:264,1,65,2|0,0:0|0:3,0:0:0:0:
140,196,129354,2,0,P|156:167|185:150,1,65,8|4,0:3|0:3,0:0:0:0:
260,140,129824,22,0,L|396:144,1,130,4|2,3:2|0:0,0:0:0:0:
260,60,130765,2,0,L|195:57,1,65,2|4,0:0|0:3,0:0:0:0:
132,103,131236,2,0,P|116:166|134:227,1,130,0|2,1:0|0:0,0:0:0:0:
272,300,132177,2,0,L|348:298,1,65,2|0,0:0|0:3,0:0:0:0:
368,368,132648,22,0,B|238:371,1,130,4|2,0:3|0:0,0:0:0:0:
188,312,133385,1,0,0:0:0:0:
236,252,133631,2,0,P|239:219|236:184,1,65,8|0,0:3|0:3,0:0:0:0:
184,132,134161,22,0,P|124:144|56:128,1,130,4|2,0:3|0:0,0:0:0:0:
184,40,135540,2,0,P|244:28|312:44,1,130,2|2,0:0|0:0,0:0:0:0:
356,156,136837,2,0,P|318:246|285:154,1,243.75,2|0,0:0|0:0,0:0:0:0:
291,120,138481,22,0,P|200:148|109:117,1,195,2|0,0:0|0:0,0:0:0:0:
196,260,140467,21,2,0:0:0:0:
115,226,141100,2,0,P|98:172|108:117,1,113.75,2|2,0:0|0:0,0:0:0:0:
152,80,142431,22,0,L|239:83,1,81.25,2|2,0:0|0:0,0:0:0:0:
292,128,143624,1,2,0:0:0:0:
292,128,144476,37,2,0:0:0:0:
256,192,144646,12,0,146692,0:0:0:0:
