osu file format v14

[General]
AudioFilename: audio.mp3
AudioLeadIn: 0
PreviewTime: 107429
Countdown: 0
SampleSet: Soft
StackLeniency: 0.6
Mode: 0
LetterboxInBreaks: 0
WidescreenStoryboard: 0

[Editor]
Bookmarks: 47363,78577
DistanceSpacing: 1.3
BeatDivisor: 6
GridSize: 4
TimelineZoom: 2.899999

[Metadata]
Title:Scarborough Fair
TitleUnicode:Scarborough Fair
Artist:Tamaru Yamada
ArtistUnicode:山田タマル
Creator:Nozhomi
Version:Happiest Girl in the World
Source:終末なにしてますか?忙しいですか?救ってもらっていいですか?
Tags:sukasuka worldend shumatsu nani shitemasu ka? isogashidesu ka? sukutte moratte iidesu ka?
BeatmapID:1435740
BeatmapSetID:679044

[Difficulty]
HPDrainRate:5.5
CircleSize:5
OverallDifficulty:7
ApproachRate:8
SliderMultiplier:1.6
SliderTickRate:1

[Events]
//Background and Video events
0,0,"happiestgirlintheworld.jpg",0,0
//Break Periods
//Storyboard Layer 0 (Background)
//Storyboard Layer 1 (Fail)
//Storyboard Layer 2 (Pass)
//Storyboard Layer 3 (Foreground)
//Storyboard Sound Samples

[TimingPoints]
1909,500,3,2,1,50,1,0
2409,476.190476190476,3,2,1,50,1,0
2885,425.531914893617,3,2,1,40,1,0
3168,476.190476190476,3,2,1,40,1,0
3644,594.059405940594,3,2,1,25,1,0
4238,487.80487804878,3,2,1,40,1,0
5457,-100,3,2,1,5,0,0
5701,560.747663551402,3,2,1,40,1,0
9065,472.44094488189,3,2,1,30,1,0
9065,-133.333333333333,3,2,1,30,0,0
9301,-133.333333333333,3,2,1,40,0,0
11899,468.75,3,2,1,40,1,0
11899,-133.333333333333,3,2,1,40,0,0
13774,475.247524752475,3,2,1,40,1,0
13774,-133.333333333333,3,2,1,40,0,0
14604,-133.333333333333,3,2,1,5,0,0
14724,476.190476190476,3,2,1,40,1,0
14724,-133.333333333333,3,2,1,40,0,0
19009,461.538461538462,3,2,1,40,1,0
19009,-133.333333333333,3,2,1,40,0,0
20393,464.2166344294,3,2,1,40,1,0
20393,-133.333333333333,3,2,1,40,0,0
21785,476.190476190476,3,2,1,40,1,0
21785,-133.333333333333,3,2,1,40,0,0
25118,458.015267175573,3,2,1,40,1,0
25118,-133.333333333333,3,2,1,40,0,0
26025,472.44094488189,3,2,1,40,1,0
26025,-133.333333333333,3,2,1,40,0,0
30285,474.308300395257,3,2,1,40,1,0
30285,-133.333333333333,3,2,1,40,0,0
34079,439.56043956044,3,2,1,40,1,0
34079,-133.333333333333,3,2,1,40,0,0
34518,454.545454545455,3,2,1,40,1,0
34518,-133.333333333333,3,2,1,40,0,0
35199,491.803278688525,3,2,1,40,1,0
35444,444.444444444444,3,2,1,40,1,0
35666,681.818181818182,3,2,1,40,1,0
36007,447.761194029851,3,2,1,40,1,0
36007,-133.333333333333,3,2,1,40,0,0
36454,472.44094488189,3,2,1,30,1,0
36690,681.818181818182,3,2,1,30,1,0
36775,-100,3,2,1,20,0,0
36917,-100,3,2,1,30,0,0
37031,377.358490566038,3,2,1,20,1,0
37408,454.545454545455,3,2,1,40,1,0
37408,-133.333333333333,3,2,1,40,0,0
38345,468.75,3,2,1,40,1,0
38345,-133.333333333333,3,2,1,40,0,0
38813,-133.333333333333,3,2,1,40,0,0
38814,468.75,3,2,1,40,1,0
38814,-133.333333333333,3,2,1,40,0,0
40220,465.116279069767,3,2,1,40,1,0
40220,-133.333333333333,3,2,1,40,0,0
41150,502.092050209205,3,2,1,40,1,0
41150,-133.333333333333,3,2,1,40,0,0
41652,441.176470588235,3,2,1,40,1,0
41652,-133.333333333333,3,2,1,40,0,0
42313,468.75,3,2,1,40,1,0
42313,-133.333333333333,3,2,1,40,0,0
44431,468.75,3,2,1,40,1,0
44431,-133.333333333333,3,2,1,40,0,0
45870,497.92531120332,3,2,1,40,1,0
45870,-133.333333333333,3,2,1,40,0,0
47239,-133.333333333333,3,2,1,5,0,0
47363,470.588235294118,3,2,1,50,1,0
47363,-133.333333333333,3,2,1,50,0,0
53010,464.756003098373,3,2,1,50,1,0
53010,-133.333333333333,3,2,1,50,0,0
57192,470.957613814757,3,2,1,50,1,0
57192,-133.333333333333,3,2,1,50,0,0
62843,478.08764940239,3,2,1,50,1,0
62843,-133.333333333333,3,2,1,50,0,0
64278,469.483568075117,3,2,1,40,1,0
64278,-133.333333333333,3,2,1,40,0,0
69911,480,3,2,1,40,1,0
69911,-133.333333333333,3,2,1,40,0,0
70871,545.454545454546,3,2,1,40,1,0
70871,-133.333333333333,3,2,1,40,0,0
71280,-133.333333333333,3,2,1,5,0,0
71416,466.926070038911,3,2,1,50,1,0
71416,-133.333333333333,3,2,1,50,0,0
76552,521.739130434783,3,2,1,50,1,0
76552,-133.333333333333,3,2,1,50,0,0
77073,461.538461538462,3,2,1,50,1,0
77073,-133.333333333333,3,2,1,50,0,0
77765,540.540540540541,3,2,1,50,1,0
77765,-117.647058823529,3,2,1,50,0,0
78577,456.968773800457,3,2,1,60,1,0
89544,458.260139005575,3,2,1,60,1,0
102604,446.096654275093,3,2,1,60,1,0
103272,458.015267175573,3,2,1,60,1,0
104646,468.75,3,2,1,60,1,0
106052,458.015267175573,3,2,1,60,1,0
106739,493.827160493827,3,2,1,60,1,0
107479,454.545454545455,3,2,1,60,1,1
110246,465.116279069767,3,2,1,60,1,1
122339,521.739130434783,3,2,1,60,1,0
122832,465.116279069767,3,2,1,60,1,1
128413,470.588235294118,3,2,1,60,1,1
132648,491.803278688525,3,2,1,60,1,1
133631,530.035335689046,3,2,1,60,1,1
134161,674.157303370787,3,2,1,50,1,0
134666,-100,3,2,1,5,0,0
134835,705.882352941176,3,2,1,50,1,0
135364,-100,3,2,1,5,0,0
135540,-100,3,2,1,50,0,0
136070,-100,3,2,1,5,0,0
136246,-100,3,2,1,50,0,0
136837,764.331210191083,3,2,1,50,1,0
138174,-100,3,2,1,40,0,0
138481,810.810810810811,3,2,1,40,1,0
138683,-100,3,2,1,35,0,0
140102,731.707317073171,3,2,1,35,1,0
140467,845.070422535211,3,2,1,35,1,0
141100,875.912408759124,3,2,1,35,1,0
141865,1132.07547169811,3,2,1,35,1,0
142431,1363.63636363637,3,2,1,30,1,0
144476,-100,3,2,1,25,0,0
144646,-100,3,2,1,20,0,0
146521,-100,3,2,1,10,0,0
146692,-100,3,2,1,5,0,0

[Colours]
Combo1 : 214,106,35
Combo2 : 128,255,255
Combo3 : 191,0,5
Combo4 : 24,37,197

[HitObjects]
256,192,1909,12,0,3644,0:0:0:0:
256,192,4238,12,0,5457,0:0:0:0:
256,192,5701,12,4,9065,0:0:0:0:
120,40,9537,5,2,0:0:0:0:
84,103,9774,1,0,0:0:0:0:
128,160,10009,2,0,P|132:192|127:219,1,60.0000022888184,2|2,0:0|0:0,0:0:0:0:
197,200,10482,2,0,P|255:187|313:199,1,120.000004577637,2|0,0:0|0:0,0:0:0:0:
372,240,11190,1,2,0:0:0:0:
346,307,11427,2,0,P|328:331|304:348,1,60.0000022888184,2|0,0:0|0:0,0:0:0:0:
232,364,11899,22,0,L|172:368,2,60.0000022888184,2|0|2,0:0|0:0|0:0,0:0:0:0:
304,348,12602,1,2,0:0:0:0:
255,296,12836,1,2,0:0:0:0:
255,296,13305,2,0,P|248:267|256:238,1,60.0000022888184,2|0,0:0|0:0,0:0:0:0:
312,192,13774,1,2,0:0:0:0:
256,148,14011,2,0,P|248:68|312:16,1,150.000005722046,2|0,0:0|0:0,0:0:0:0:
293,22,14724,22,0,P|228:68|132:56,1,180.000006866455,2|0,0:0|0:0,0:0:0:0:
72,16,15676,1,2,0:0:0:0:
72,16,16152,2,0,L|80:156,1,120.000004577637,2|2,0:0|0:0,0:0:0:0:
88,208,16866,1,0,0:0:0:0:
148,168,17104,2,0,L|144:108,1,60.0000022888184,2|0,0:0|0:0,0:0:0:0:
216,56,17581,22,0,P|260:130|227:211,1,180.000006866455,2|0,0:0|0:0,0:0:0:0:
168,256,18533,1,2,0:0:0:0:
168,256,19009,2,0,B|252:244|252:244|328:256|328:256|416:244,1,240.000009155274,2|2,0:0|0:0,0:0:0:0:
420,104,20393,22,0,P|388:104|360:112,1,60.0000022888184,2|0,0:0|0:0,0:0:0:0:
296,212,20857,2,0,P|312:184|318:156,1,60.0000022888184,2|0,0:0|0:0,0:0:0:0:
264,51,21321,2,0,P|280:78|301:98,1,60.0000022888184,2|0,0:0|0:0,0:0:0:0:
420,104,21785,1,2,0:0:0:0:
420,104,22261,2,0,L|360:100,1,60.0000022888184,2|0,0:0|0:0,0:0:0:0:
296,132,22737,2,0,L|236:128,1,60.0000022888184,2|0,0:0|0:0,0:0:0:0:
144,124,23213,22,0,P|192:184|168:288,1,180.000006866455,2|0,0:0|0:0,0:0:0:0:
112,312,24165,2,0,P|72:304|44:280,1,60.0000022888184,2|0,0:0|0:0,0:0:0:0:
16,236,24642,2,0,P|8:208|16:168,1,60.0000022888184,2|0,0:0|0:0,0:0:0:0:
32,104,25118,2,0,P|40:76|32:36,1,60.0000022888184,2|0,0:0|0:0,0:0:0:0:
72,156,25576,2,0,P|107:156|148:148,1,60.0000022888184,2|0,0:0|0:0,0:0:0:0:
236,100,26025,22,0,P|344:145|236:191,1,300.000011444092,2|0,0:0|0:0,0:0:0:0:
164,144,27442,2,0,L|160:84,1,60.0000022888184,2|0,0:0|0:0,0:0:0:0:
96,116,27914,2,0,L|92:56,1,60.0000022888184,2|0,0:0|0:0,0:0:0:0:
28,88,28387,1,2,0:0:0:0:
32,160,28623,22,0,L|36:220,2,60.0000022888184,0|2|0,0:0|0:0|0:0,0:0:0:0:
100,184,29332,2,0,L|104:244,1,60.0000022888184,2|0,0:0|0:0,0:0:0:0:
168,212,29804,1,2,0:0:0:0:
168,212,30285,22,0,B|256:232|256:232|344:212,1,180.000006866455,2|0,0:0|0:0,0:0:0:0:
396,164,31233,2,0,P|401:134|396:105,1,60.0000022888184,2|0,0:0|0:0,0:0:0:0:
344,56,31707,2,0,B|256:36|256:36|168:56,1,180.000006866455,2|0,0:0|0:0,0:0:0:0:
115,105,32656,2,0,P|110:134|115:163,1,60.0000022888184,2|0,0:0|0:0,0:0:0:0:
148,228,33130,22,0,L|140:356,1,120.000004577637,2|2,0:0|0:0,0:0:0:0:
184,168,34079,1,2,0:0:0:0:
300,296,34518,2,0,P|356:308|424:288,1,120.000004577637,2|0,0:0|0:0,0:0:0:0:
476,228,35199,1,2,0:0:0:0:
476,136,35444,1,2,0:0:0:0:
420,64,35666,1,2,0:0:0:0:
292,20,36007,22,0,L|164:24,1,120.000004577637,2|0,0:0|0:0,0:0:0:0:
103,140,36690,2,0,P|111:133|115:123,1,20,2|0,0:0|0:0,0:0:0:0:
183,123,36917,2,0,P|178:111|176:98,1,26.6666666666667,2|0,0:0|0:0,0:0:0:0:
160,304,37408,22,0,P|140:249|158:193,1,120.000004577637,2|2,0:0|0:0,0:0:0:0:
183,123,38089,1,0,0:0:0:0:
116,84,38345,2,0,L|32:80,1,60.0000022888184,2|0,0:0|0:0,0:0:0:0:
183,123,38814,2,0,L|309:117,1,120.000004577637,2|2,0:0|0:0,0:0:0:0:
356,68,39517,1,0,0:0:0:0:
412,112,39751,2,0,P|417:141|412:170,1,60.0000022888185,2|0,0:0|0:0,0:0:0:0:
408,244,40220,22,0,L|409:303,1,60.0000022888184,2|0,0:0|0:0,0:0:0:0:
344,344,40685,1,2,0:0:0:0:
344,344,40801,2,0,L|342:299,2,45.0000017166138,2|0|0,0:0|0:0|0:0,0:0:0:0:
296,256,41652,22,0,P|204:276|108:244,1,180.000006866455,2|0,0:0|0:0,0:0:0:0:
76,200,42547,2,0,P|76:164|88:132,1,60.0000022888184,2|0,0:0|0:0,0:0:0:0:
128,84,43016,1,2,0:0:0:0:
288,168,43484,2,0,P|262:183|233:191,1,60.0000022888184,2|0,0:0|0:0,0:0:0:0:
161,179,43953,1,2,0:0:0:0:
157,0,44431,22,0,P|183:14|204:35,1,60.0000022888184,2|0,0:0|0:0,0:0:0:0:
230,104,44899,2,0,L|228:188,1,60.0000022888184,2|0,0:0|0:0,0:0:0:0:
256,232,45368,1,2,0:0:0:0:
316,268,45602,1,0,0:0:0:0:
384,264,45870,2,0,P|411:257|440:236,1,60.0000022888184,2|0,0:0|0:0,0:0:0:0:
468,172,46367,1,2,0:0:0:0:
456,100,46616,1,0,0:0:0:0:
408,48,46865,2,0,P|360:48|312:40,1,90.0000034332277,2|0,0:0|0:0,0:0:0:0:
319,41,47363,6,0,P|340:96|319:169,1,120.000004577637,2|2,0:0|0:0,0:0:0:0:
260,216,48068,1,0,0:0:0:0:
184,264,48304,2,0,L|120:260,1,60.0000022888185,2|0,0:0|0:0,0:0:0:0:
268,296,48774,2,0,L|389:288,1,120.000004577637,2|2,0:0|0:0,0:0:0:0:
216,344,49715,2,0,L|152:340,1,60.0000022888185,2|0,0:0|0:0,0:0:0:0:
60,304,50186,38,0,P|43:247|62:190,1,120.000004577637,2|2,0:0|0:0,0:0:0:0:
124,128,50892,1,0,0:0:0:0:
212,104,51127,2,0,P|216:136|204:176,1,60.0000022888184,2|0,0:0|0:0,0:0:0:0:
152,55,51598,2,0,P|202:27|261:45,1,120.000004577637,2|0,0:0|0:0,0:0:0:0:
332,96,52304,2,0,P|361:99|392:96,1,60.0000022888184,2|0,0:0|0:0,0:0:0:0:
476,64,52774,22,0,P|484:35|503:12,1,60.0000022888184,2|2,0:0|0:0,0:0:0:0:
461,152,53242,1,0,0:0:0:0:
461,152,53474,2,0,P|477:216|445:284,1,120.000004577637,2|2,0:0|0:0,0:0:0:0:
396,328,54171,1,0,0:0:0:0:
308,348,54404,2,0,L|248:344,1,60.0000022888184,2|0,0:0|0:0,0:0:0:0:
208,264,54869,2,0,L|327:272,1,120.000004577637,2|2,0:0|0:0,0:0:0:0:
164,344,55798,22,0,P|118:263|173:180,1,180.000006866455,2|0,0:0|0:0,0:0:0:0:
232,148,56728,2,0,L|296:152,1,60.0000022888184,2|0,0:0|0:0,0:0:0:0:
376,124,57192,2,0,P|400:72|368:20,1,120.000004577637,2|2,0:0|0:0,0:0:0:0:
141,21,58133,2,0,P|121:44|112:72,1,60.0000022888184,2|0,0:0|0:0,0:0:0:0:
156,172,58604,22,0,B|160:328|160:328|128:312,1,180.000006866455,2|0,0:0|0:0,0:0:0:0:
60,276,59546,1,2,0:0:0:0:
220,128,60017,2,0,L|225:332,1,180.000006866455,2|0,0:0|0:0,0:0:0:0:
309,277,60959,2,0,P|322:219|303:162,1,120.000004577637,2|2,0:0|0:0,0:0:0:0:
220,128,61666,37,0,0:0:0:0:
304,163,61901,2,0,P|336:168|373:161,1,60.0000022888184,2|0,0:0|0:0,0:0:0:0:
444,124,62372,2,0,P|470:104|491:73,1,60.0000022888184,2|0,0:0|0:0,0:0:0:0:
424,188,62843,2,0,P|436:244|416:324,1,120.000004577637,2|2,0:0|0:0,0:0:0:0:
360,368,63560,1,0,0:0:0:0:
352,280,63799,2,0,L|352:216,1,60.0000022888184,2|0,0:0|0:0,0:0:0:0:
285,331,64278,38,0,P|198:352|112:330,1,180.000006866455,2|0,0:0|0:0,0:0:0:0:
60,280,65216,2,0,L|60:216,1,60.0000022888184,2|0,0:0|0:0,0:0:0:0:
128,144,65686,2,0,L|128:264,1,120.000004577637,2|2,0:0|0:0,0:0:0:0:
256,328,66625,1,2,0:0:0:0:
384,264,67094,21,2,0:0:0:0:
436,128,67564,1,2,0:0:0:0:
352,12,68033,1,2,0:0:0:0:
208,28,68503,2,0,P|184:40|152:68,1,60.0000022888184,2|0,0:0|0:0,0:0:0:0:
140,132,68972,2,0,L|144:256,1,120.000004577637,2|2,0:0|0:0,0:0:0:0:
104,332,69677,1,0,0:0:0:0:
104,332,69911,22,0,L|24:316,1,80.0000030517579,2|0,0:0|0:0,0:0:0:0:
72,260,70391,2,0,L|48:256,5,20.0000007629395,2|0|0|0|0|0,0:0|0:0|0:0|0:0|0:0|0:0,0:0:0:0:
16,204,70871,2,0,P|6:163|24:112,1,90.0000034332277,2|0,0:0|0:0,0:0:0:0:
44,84,71416,22,0,P|105:38|206:64,1,180.000006866455,2|0,0:0|0:0,0:0:0:0:
228,151,72349,2,0,B|256:161|256:161|284:151,1,60.0000022888184,2|0,0:0|0:0,0:0:0:0:
311,59,72816,2,0,P|395:35|468:84,1,180.000006866455,2|0,0:0|0:0,0:0:0:0:
496,184,73750,1,2,0:0:0:0:
496,184,74217,38,0,L|492:303,1,120.000004577637,2|2,0:0|0:0,0:0:0:0:
332,252,75151,1,2,0:0:0:0:
168,328,75618,1,2,0:0:0:0:
110,258,75851,1,0,0:0:0:0:
168,188,76086,2,0,P|179:160|172:112,2,60.0000022888184,2|0|2,0:0|0:0|0:0,0:0:0:0:
20,48,77073,37,2,0:0:0:0:
179,131,77534,1,2,0:0:0:0:
244,56,77765,1,0,1:0:0:0:
333,131,78035,2,0,P|392:136|456:108,1,102.000001945496,2|0,0:0|0:0,0:0:0:0:
432,123,78577,6,0,P|416:200|448:280,1,160,4|2,3:2|0:0,0:0:0:0:
480,56,79490,2,0,P|443:41|385:58,1,80,2|4,0:0|0:3,0:0:0:0:
288,100,79947,2,0,B|153:81|153:81|192:60,1,160,0|2,1:0|0:0,0:0:0:0:
252,0,80633,1,0,0:0:0:0:
288,100,80861,2,0,P|296:140|284:196,1,80,2|0,0:0|0:3,0:0:0:0:
207,275,81318,22,0,P|150:313|205:344,1,160,4|2,0:3|0:0,0:0:0:0:
304,304,82004,1,0,1:0:0:0:
280,204,82232,2,0,L|284:112,1,80,2|4,0:0|0:3,0:0:0:0:
400,88,82689,2,0,L|392:247,1,160,0|2,1:0|0:0,0:0:0:0:
287,233,83375,2,0,L|284:207,3,26.6666666666667,2|0|0|4,0:0|0:0|0:0|0:3,0:0:0:0:
272,104,83832,1,0,1:0:0:0:
160,164,84060,5,4,0:3:0:0:
160,164,84517,2,0,P|148:204|156:252,1,80,2|0,0:0|0:0,0:0:0:0:
200,112,84974,2,0,P|203:72|192:34,1,80,2|4,0:0|0:3,0:0:0:0:
228,172,85431,2,0,P|300:184|384:160,1,160,0|2,1:0|0:0,0:0:0:0:
444,76,86116,1,0,0:0:0:0:
492,168,86344,2,0,L|488:268,1,80,2|0,0:0|0:3,0:0:0:0:
383,161,86802,5,4,0:3:0:0:
256,324,87259,1,2,0:0:0:0:
128,160,87716,2,0,P|90:151|51:160,1,80,2|4,0:0|0:3,0:0:0:0:
160,228,88173,2,0,L|152:52,1,160,0|2,1:0|0:0,0:0:0:0:
244,144,88858,1,0,1:0:0:0:
216,264,89087,2,0,L|219:343,1,80,2|4,0:0|0:3,0:0:0:0:
280,216,89544,22,0,P|352:192|440:224,1,160,0|2,1:0|0:0,0:0:0:0:
504,288,90231,1,2,0:0:0:0:
408,332,90460,1,2,0:0:0:0:
384,328,90575,1,2,0:0:0:0:
360,324,90689,1,0,1:0:0:0:
336,320,90804,1,2,0:0:0:0:
312,316,90918,22,0,B|174:328|174:328|185:309,1,160,4|2,0:3|0:0,0:0:0:0:
244,224,91606,1,0,0:0:0:0:
183,139,91835,2,0,P|173:101|184:63,1,80,2|4,0:0|0:3,0:0:0:0:
180,204,92293,2,0,P|104:200|32:156,1,160,0|2,1:0|0:0,0:0:0:0:
60,256,92980,2,0,P|66:290|56:348,1,80,0|2,0:0|0:0,0:0:0:0:
4,220,93439,1,0,0:3:0:0:
4,220,93668,21,4,0:3:0:0:
68,140,93897,1,0,0:0:0:0:
200,180,94126,2,0,P|240:184|304:152,1,80,2|0,0:0|1:0,0:0:0:0:
324,267,94584,2,0,P|355:244|374:209,1,80,2|0,0:0|0:3,0:0:0:0:
464,264,95043,2,0,L|456:80,1,160,4|2,0:3|0:0,0:0:0:0:
388,24,95730,1,0,0:0:0:0:
294,76,95959,2,0,P|256:84|217:76,1,80,2|4,0:0|0:3,0:0:0:0:
92,24,96417,6,0,P|124:80|120:228,1,160,0|2,1:0|0:0,0:0:0:0:
108,276,97104,1,0,0:0:0:0:
204,232,97333,2,0,L|308:236,1,80,2|0,0:0|0:3,0:0:0:0:
312,368,97792,6,0,L|152:362,1,160,4|0,0:3|0:0,0:0:0:0:
48,360,98479,1,0,0:0:0:0:
108,276,98708,2,0,P|122:238|122:199,1,80,2|4,0:0|0:3,0:0:0:0:
40,48,99167,2,0,B|168:56|168:56|140:76,1,160,0|2,1:0|0:0,0:0:0:0:
51,124,99854,1,0,0:0:0:0:
123,199,100083,2,0,P|161:207|201:203,1,80,2|4,0:0|0:3,0:0:0:0:
301,91,100542,22,0,P|241:123|201:227,1,160,0|8,1:0|0:3,0:0:0:0:
212,308,101229,1,0,0:3:0:0:
212,308,101458,1,4,0:3:0:0:
332,244,101687,1,0,0:0:0:0:
201,203,101917,1,0,1:0:0:0:
460,120,102375,1,2,0:0:0:0:
376,56,102604,22,0,P|272:84|240:148,1,160,0|0,1:0|0:0,0:0:0:0:
246,260,103272,2,0,P|298:319|376:328,1,160,0|0,1:0|0:0,0:0:0:0:
476,300,103959,1,0,0:0:0:0:
420,212,104188,2,0,L|424:124,1,80,2|4,0:0|0:3,0:0:0:0:
324,32,104646,22,0,L|332:208,1,160,4|2,0:0|0:0,0:0:0:0:
300,292,105349,1,8,0:3:0:0:
204,332,105583,1,2,0:0:0:0:
180,333,105700,1,0,0:0:0:0:
156,328,105817,1,4,0:3:0:0:
134,319,105934,1,0,0:0:0:0:
115,304,106051,5,0,1:0:0:0:
115,304,106510,1,2,0:0:0:0:
56,228,106739,1,0,1:0:0:0:
88,128,106985,2,0,L|84:40,1,80,8|0,0:3|0:0,0:0:0:0:
208,116,107479,6,0,P|272:144|364:108,1,160,4|2,3:2|0:0,0:0:0:0:
408,28,108160,1,0,0:0:0:0:
456,120,108388,2,0,L|452:208,1,80,2|4,0:0|0:3,0:0:0:0:
362,277,108842,2,0,L|354:117,1,160,0|2,1:0|0:0,0:0:0:0:
272,52,109524,1,0,0:0:0:0:
212,136,109751,2,0,P|204:168|224:236,1,80,2|0,0:0|0:3,0:0:0:0:
312,324,110246,22,0,L|500:312,1,160,4|2,0:3|0:0,0:0:0:0:
392,244,110943,1,0,1:0:0:0:
312,324,111176,2,0,L|232:329,1,80,2|4,0:0|0:3,0:0:0:0:
116,272,111641,2,0,P|89:190|120:112,1,160,0|2,1:0|0:0,0:0:0:0:
180,44,112339,1,0,0:0:0:0:
256,128,112571,1,0,0:3:0:0:
332,44,112804,1,8,0:3:0:0:
195,104,113036,22,0,P|191:143|211:177,1,80,4|0,0:3|0:0,0:0:0:0:
312,200,113501,2,0,L|420:188,2,80,2|2|0,0:0|0:0|0:0,0:0:0:0:
264,292,114199,1,4,0:3:0:0:
352,352,114432,2,0,P|390:357|428:336,1,80,0|0,1:0|0:0,0:0:0:0:
460,240,114897,2,0,L|464:56,1,160,2|2,0:0|0:0,0:0:0:0:
388,4,115594,1,0,0:3:0:0:
324,124,115827,22,0,L|328:284,1,160,4|2,0:3|0:0,0:0:0:0:
256,360,116525,1,0,0:0:0:0:
184,284,116757,2,0,P|145:275|106:284,1,80,2|4,0:0|0:3,0:0:0:0:
248,296,117222,2,0,P|252:224|208:128,1,160,0|2,1:0|0:0,0:0:0:0:
40,40,118152,2,0,P|72:60|128:64,1,80,2|0,0:0|0:3,0:0:0:0:
248,40,118618,22,0,B|388:44|388:44|376:72,1,160,4|2,0:3|0:0,0:0:0:0:
340,192,119315,1,0,1:0:0:0:
340,192,119780,1,4,0:3:0:0:
448,263,120013,2,0,P|480:192|447:121,1,160,0|0,1:0|0:0,0:0:0:0:
346,43,120711,1,2,0:0:0:0:
346,43,121176,1,0,0:3:0:0:
236,108,121408,22,0,P|144:128|80:104,1,160,4|2,0:3|0:0,0:0:0:0:
24,24,122106,1,0,1:0:0:0:
84,106,122339,2,0,L|80:192,1,80,2|4,0:0|0:3,0:0:0:0:
88,345,122832,22,0,L|80:185,1,160,4|2,3:2|0:0,0:0:0:0:
8,112,123529,1,0,0:0:0:0:
88,43,123762,2,0,P|126:36|165:44,1,80,2|0,0:0|0:3,0:0:0:0:
256,136,124227,2,0,B|280:216|232:216|256:292,1,160,4|2,0:3|0:0,0:0:0:0:
344,352,124925,1,0,0:0:0:0:
376,184,125157,1,2,0:0:0:0:
420,280,125390,1,0,0:3:0:0:
271,187,125622,22,0,P|196:212|100:200,1,160,4|2,0:3|0:0,0:0:0:0:
20,164,126320,1,0,1:0:0:0:
110,85,126552,1,2,0:0:0:0:
116,205,126785,1,0,0:3:0:0:
20,164,127018,2,0,L|16:84,1,80,4|0,0:3|0:0,0:0:0:0:
48,240,127483,2,0,L|52:332,1,80,2|0,0:0|0:0,0:0:0:0:
96,128,127948,2,0,L|92:48,1,80,2|4,0:0|0:3,0:0:0:0:
116,205,128413,21,0,1:0:0:0:
116,205,128883,1,2,0:0:0:0:
180,124,129118,1,0,0:3:0:0:
256,196,129354,1,8,0:3:0:0:
332,124,129589,1,4,0:3:0:0:
396,205,129824,22,0,P|431:154|406:52,1,160,4|2,3:2|0:0,0:0:0:0:
320,20,130530,1,0,0:0:0:0:
256,104,130765,2,0,L|264:208,1,80,2|4,0:0|0:3,0:0:0:0:
172,288,131236,2,0,L|185:129,1,160,0|2,1:0|0:0,0:0:0:0:
172,24,131942,1,0,0:0:0:0:
87,84,132177,2,0,P|78:118|85:162,1,80,2|0,0:0|0:3,0:0:0:0:
188,228,132648,22,0,B|316:220|316:220|304:256,1,160,4|2,0:3|0:0,0:0:0:0:
264,344,133385,1,0,0:0:0:0:
160,336,133631,1,8,0:3:0:0:
101,249,133896,1,0,0:3:0:0:
128,148,134161,22,0,P|164:108|232:84,1,120,4|0,0:3|0:0,0:0:0:0:
284,112,134835,2,0,P|300:163|287:234,1,120,2|0,0:0|0:0,0:0:0:0:
237,262,135540,2,0,P|184:250|129:203,1,120,2|0,0:0|0:0,0:0:0:0:
128,148,136246,1,2,0:0:0:0:
240,67,136837,22,0,P|340:105|238:138,1,280,2|0,0:0|0:0,0:0:0:0:
239,139,138481,22,0,B|284:188|245:251|245:251|174:237|164:175,1,240,2|0,0:0|0:0,0:0:0:0:
144,92,140102,2,0,P|112:72|48:88,1,80,2|2,0:0|0:0,0:0:0:0:
236,72,141100,2,0,P|283:56|332:64,1,100,2|0,0:0|0:0,0:0:0:0:
420,128,141865,2,0,L|416:200,1,40,2|0,0:0|0:0,0:0:0:0:
348,228,142431,22,0,L|354:128,1,100,2|2,0:0|0:0,0:0:0:0:
332,64,143624,1,2,0:0:0:0:
256,192,144476,37,2,0:0:0:0:
256,192,144646,12,0,146692,0:0:0:0:
