osu file format v12

[General]
AudioFilename: 03 - feat..mp3
AudioLeadIn: 0
PreviewTime: 107429
Countdown: 0
SampleSet: None
StackLeniency: 0.7
Mode: 0
LetterboxInBreaks: 1
WidescreenStoryboard: 0

[Editor]
Bookmarks: 63274,137640,264189
DistanceSpacing: 0.9
BeatDivisor: 2
GridSize: 8

[Metadata]
Title:Mattsutobitto feat.Hakana
TitleUnicode:マッツトビット feat.儚
Artist:Tamaonsen
ArtistUnicode:魂音泉
Creator:Dark and Hard
Version:Dark and Hard
Source:
Tags:
BeatmapID:313893
BeatmapSetID:119086

[Difficulty]
HPDrainRate:7
CircleSize:4
OverallDifficulty:8
ApproachRate:10
SliderMultiplier:1.1
SliderTickRate:1

[Events]
//Background and Video events
0,0,"BG1.jpg",0,0
//Break Periods
//Storyboard Layer 0 (Background)
//Storyboard Layer 1 (Fail)
//Storyboard Layer 2 (Pass)
//Storyboard Layer 3 (Foreground)
//Storyboard Sound Samples
//Background Colour Transformations
3,100,163,162,255

[TimingPoints]
18697,211.267605633803,4,1,0,45,1,0
33908,-58.8235294117647,4,1,0,45,0,0
36549,-76.9230769230769,4,1,0,45,0,0
37341,-76.9230769230769,4,1,0,5,0,0
37394,-76.9230769230769,4,1,0,45,0,0
39982,-76.9230769230769,4,1,0,5,0,0
40035,-76.9230769230769,4,1,0,45,0,0
47429,-200,4,1,0,45,0,0
47851,-76.9230769230769,4,1,0,45,0,0
91373,-100,4,2,0,65,0,0
107429,-71.4285714285714,4,1,0,45,0,0
135739,-200,4,1,0,5,0,0
137640,-76.9230769230769,4,1,0,45,0,0
165739,-200,4,2,0,45,0,0
180950,-76.9230769230769,4,1,0,45,0,0
188133,-66.6666666666667,4,1,0,45,0,0
188556,-58.8235294117647,4,1,0,45,0,0
188873,-66.6666666666667,4,1,0,45,0,0
236091,-100,4,1,0,45,0,0
236302,-100,4,2,0,45,0,0
239260,-76.9230769230769,4,2,0,45,0,0
262077,-133.333333333333,4,2,0,45,0,0

[Colours]
Combo1 : 251,0,251
Combo2 : 255,147,38
Combo3 : 60,60,251
Combo4 : 251,72,72

[HitObjects]
56,192,18697,1,0,0:0:0:0:
256,48,19119,1,0,0:0:0:0:
456,192,19542,1,0,0:0:0:0:
256,128,19964,1,0,0:0:0:0:
56,192,20387,1,0,0:0:0:0:
256,256,20809,1,0,0:0:0:0:
256,336,21232,1,0,0:0:0:0:
368,232,21654,5,0,0:0:0:0:
400,184,21866,1,0,0:0:0:0:
432,136,22077,1,0,0:0:0:0:
472,328,22499,5,0,0:0:0:0:
40,240,22922,1,0,0:0:0:0:
480,136,23344,1,0,0:0:0:0:
48,48,23767,1,0,0:0:0:0:
160,352,24189,1,0,0:0:0:0:
240,32,24612,1,0,0:0:0:0:
288,264,25035,5,0,0:0:0:0:
352,216,25246,1,0,0:0:0:0:
424,248,25457,1,0,0:0:0:0:
480,352,25668,1,0,0:0:0:0:
512,208,25880,2,0,P|440:120|336:80,1,220
200,168,26725,5,0,0:0:0:0:
264,312,26936,1,0,0:0:0:0:
120,288,27147,1,0,0:0:0:0:
120,208,27358,1,0,0:0:0:0:
40,192,27570,2,0,P|80:88|176:32,1,220
352,272,28415,6,0,L|456:224,2,110
80,336,29260,1,0,0:0:0:0:
184,56,29682,1,0,0:0:0:0:
408,272,30105,1,0,0:0:0:0:
256,112,30527,1,0,0:0:0:0:
256,136,30950,1,0,0:0:0:0:
256,160,31373,1,0,0:0:0:0:
256,320,31795,5,0,0:0:0:0:
256,320,32006,1,0,0:0:0:0:
96,248,33908,5,0,0:0:0:0:
168,288,34013,1,0,0:0:0:0:
208,216,34119,1,0,0:0:0:0:
160,144,34225,1,0,0:0:0:0:
80,136,34330,2,0,P|-8:256|64:352,1,280.500005350113
136,336,34753,5,0,0:0:0:0:
208,224,34858,1,0,0:0:0:0:
328,288,34964,1,0,0:0:0:0:
392,160,35070,2,0,P|448:192|464:224,2,93.500001783371
328,48,35387,2,0,P|272:24|240:24,1,93.500001783371
160,136,35598,2,0,P|200:128|256:136,1,93.500001783371
280,256,35809,2,0,L|344:328,1,93.500001783371
136,336,36020,2,0,B|80:264|112:240|152:208|96:152,1,187.000003566742
224,184,36337,5,0,0:0:0:0:
272,80,36443,1,0,0:0:0:0:
416,104,36549,2,0,P|472:168|480:208,1,71.4999967269899
384,304,36760,2,0,P|360:240|336:224,1,71.4999967269899
248,192,36971,1,0,0:0:0:0:
192,344,37077,1,0,0:0:0:0:
192,344,37182,2,0,P|120:304|96:256,1,107.249995090485
64,312,37394,6,0,P|48:224|64:160,1,142.99999345398
248,192,37711,1,0,0:0:0:0:
312,320,37816,1,0,0:0:0:0:
368,216,37922,1,0,0:0:0:0:
320,96,38027,2,0,P|376:48|432:40,1,71.4999967269899
456,248,38239,6,0,P|464:200|448:152,2,71.4999967269899
312,320,38556,2,0,P|256:280|224:280,1,71.4999967269899
88,168,38767,2,0,P|160:136|192:144,1,71.4999967269899
280,232,38978,2,0,P|264:144|296:56,1,142.99999345398
360,48,39295,1,0,0:0:0:0:
376,128,39401,1,0,0:0:0:0:
455,172,39506,2,0,P|468:139|464:104,2,71.4999967269899
328,288,39823,6,0,P|256:240|208:232,1,107.249995090485
208,256,40035,2,0,P|160:232|128:184,1,107.249995090485
96,80,40246,1,0,0:0:0:0:
360,344,40668,6,0,P|424:320|480:248,1,142.99999345398
352,200,40985,1,0,0:0:0:0:
440,168,41091,1,0,0:0:0:0:
448,72,41197,2,0,P|392:64|296:88,1,142.99999345398
240,24,41513,1,0,0:0:0:0:
168,104,41619,1,0,0:0:0:0:
232,192,41725,1,0,0:0:0:0:
168,280,41830,1,0,0:0:0:0:
80,192,41936,1,0,0:0:0:0:
168,104,42042,2,0,P|132:100|96:101,2,71.4999967269899
296,296,42358,6,0,P|360:304|392:328,1,71.4999967269899
352,192,42570,2,0,P|408:208|440:232,1,71.4999967269899
368,96,42781,2,0,P|392:48|416:24,1,71.4999967269899
264,80,42992,2,0,P|232:112|224:144,1,71.4999967269899
136,256,43204,2,0,L|104:192,3,71.4999967269899
24,56,43626,1,0,0:0:0:0:
24,56,43732,2,0,P|72:32|176:80,1,142.99999345398
208,200,44049,5,0,0:0:0:0:
208,200,44154,2,0,P|273:223|338:198,1,142.99999345398
264,96,44471,2,0,P|288:64|320:40,1,71.4999967269899
408,160,44682,2,0,P|432:192|440:224,1,71.4999967269899
296,320,44894,2,0,P|240:288|200:280,1,71.4999967269899
64,264,45105,1,0,0:0:0:0:
64,264,45211,1,0,0:0:0:0:
64,264,45316,2,0,P|64:184|112:112,1,142.99999345398
280,200,45739,6,0,P|312:128|368:88,2,142.99999345398
432,192,46267,1,0,0:0:0:0:
432,192,46373,2,0,P|448:136|440:96,1,71.4999967269899
344,256,46584,2,0,P|312:288|280:296,1,71.4999967269899
256,88,46795,1,0,0:0:0:0:
256,88,46901,1,0,0:0:0:0:
256,88,47006,2,0,P|208:104|136:176,1,142.99999345398
256,304,47429,6,0,L|256:216,1,82.5
256,88,47851,1,0,0:0:0:0:
256,88,47957,2,0,P|288:64|328:56,1,71.4999967269899
344,200,48168,2,0,P|360:240|352:272,1,71.4999967269899
296,360,48380,1,0,0:0:0:0:
200,312,48485,1,0,0:0:0:0:
144,152,48591,1,0,0:0:0:0:
48,280,48697,1,0,0:0:0:0:
0,152,48802,2,0,L|40:56,1,71.4999967269899
320,32,49119,6,0,P|392:48|456:120,1,142.99999345398
442,93,49436,1,0,0:0:0:0:
344,200,49542,2,0,P|384:192|424:200,1,71.4999967269899
384,288,49753,2,0,P|408:320|408:360,1,71.4999967269899
296,320,49964,2,0,L|224:360,1,71.4999967269899
168,328,50175,2,0,P|112:280|80:216,1,142.99999345398
192,224,50492,1,0,0:0:0:0:
192,224,50598,2,0,P|184:160|224:96,1,142.99999345398
288,16,51020,1,0,0:0:0:0:
416,280,51232,6,0,P|440:264|488:256,2,71.4999967269899
296,320,51549,1,0,0:0:0:0:
296,320,51654,2,0,P|256:280|152:240,1,142.99999345398
40,336,51971,2,0,P|56:304|64:264,1,71.4999967269899
160,144,52182,2,0,P|160:88|176:56,1,71.4999967269899
312,72,52499,5,0,0:0:0:0:
384,32,52605,1,0,0:0:0:0:
408,112,52711,1,0,0:0:0:0:
200,312,52922,5,0,0:0:0:0:
128,352,53028,1,0,0:0:0:0:
104,272,53134,1,0,0:0:0:0:
160,144,53344,5,0,0:0:0:0:
160,144,53450,2,0,P|112:112|104:32,1,142.99999345398
24,144,53767,1,0,0:0:0:0:
24,144,53978,1,0,0:0:0:0:
312,32,54189,5,0,0:0:0:0:
392,64,54295,2,0,P|448:80|480:104,1,71.4999967269899
352,232,54506,2,0,P|408:192|440:192,1,71.4999967269899
336,352,54718,2,0,P|288:352|256:336,1,71.4999967269899
112,216,54929,1,0,0:0:0:0:
112,216,55035,6,0,P|160:200|256:224,1,142.99999345398
64,304,55352,1,0,0:0:0:0:
64,304,55457,2,0,P|22:216|55:161,1,142.99999345398
128,40,55774,2,0,L|152:112,1,71.4999967269899
280,160,55985,2,0,L|248:88,1,71.4999967269899
400,32,56197,1,0,0:0:0:0:
400,32,56302,2,0,P|432:48|464:144,1,142.99999345398
408,312,56619,5,0,0:0:0:0:
408,312,56724,2,0,P|376:296|344:200,1,142.99999345398
343,200,57042,1,0,0:0:0:0:
408,104,57147,2,0,L|480:72,2,71.4999967269899
64,168,57570,6,0,P|112:104|192:80,1,142.99999345398
272,32,57887,1,0,0:0:0:0:
280,144,57992,2,0,L|192:184,2,71.4999967269899
384,200,58309,2,0,P|432:200|464:208,1,71.4999967269899
344,296,58520,2,0,P|376:312|400:344,2,71.4999967269899
184,296,58837,2,0,P|184:248|144:152,1,142.99999345398
48,56,59260,6,0,P|88:48|152:56,1,71.4999967269899
232,72,59471,1,0,0:0:0:0:
344,40,59577,1,0,0:0:0:0:
392,144,59682,2,0,P|336:168|320:200,1,71.4999967269899
216,176,59894,1,0,0:0:0:0:
168,280,59999,2,0,P|128:264|88:264,1,71.4999967269899
280,312,60211,2,0,P|368:288|408:240,1,142.99999345398
504,200,60527,1,0,0:0:0:0:
432,104,60633,2,0,L|344:88,2,71.4999967269899
152,88,63274,5,0,0:0:0:0:
232,64,63485,1,0,0:0:0:0:
280,136,63697,1,0,0:0:0:0:
224,200,63908,1,0,0:0:0:0:
144,168,64119,1,0,0:0:0:0:
64,240,64330,6,0,P|104:272|216:312,1,142.99999345398
344,240,64647,1,0,0:0:0:0:
344,240,64753,2,0,P|352:168|304:80,1,142.99999345398
232,48,65070,2,0,P|192:40|144:56,1,71.4999967269899
144,152,65281,2,0,P|96:152|64:168,1,71.4999967269899
64,256,65492,1,0,0:0:0:0:
136,312,65598,2,0,P|168:264|256:208,1,142.99999345398
304,344,65915,1,0,0:0:0:0:
304,344,66020,2,0,P|360:304|408:216,1,142.99999345398
376,64,66337,5,0,0:0:0:0:
320,120,66443,1,0,0:0:0:0:
256,72,66549,1,0,0:0:0:0:
200,128,66654,1,0,0:0:0:0:
232,200,66760,1,0,0:0:0:0:
312,200,66866,2,0,P|344:208|440:288,1,142.99999345398
80,216,67288,2,0,P|96:160|160:64,1,142.99999345398
320,120,67711,6,0,P|368:104|472:120,1,142.99999345398
352,248,68133,2,0,P|328:280|280:304,1,71.4999967269899
200,336,68344,1,0,0:0:0:0:
200,336,68450,1,0,0:0:0:0:
112,272,68556,2,0,P|120:224|144:184,2,71.4999967269899
232,232,68873,1,0,0:0:0:0:
160,120,68978,2,0,P|208:112|256:112,1,71.4999967269899
80,128,69189,1,0,0:0:0:0:
312,32,69401,6,0,P|368:48|432:104,1,142.99999345398
288,312,69823,2,0,P|280:224|256:176,1,142.99999345398
255,175,70140,1,0,0:0:0:0:
160,224,70246,2,0,P|144:160|144:136,1,71.4999967269899
32,128,70457,2,0,P|64:96|104:72,1,71.4999967269899
192,24,70668,2,0,P|256:48|280:64,1,71.4999967269899
400,160,70880,2,0,P|408:120|376:24,1,142.99999345398
144,136,71302,6,0,P|184:112|224:96,1,71.4999967269899
224,216,71513,2,0,P|264:224|312:256,1,71.4999967269899
408,336,71725,2,0,P|424:296|432:256,1,71.4999967269899
304,160,71936,2,0,P|336:112|416:80,1,142.99999345398
464,176,72253,1,0,0:0:0:0:
464,176,72358,1,0,0:0:0:0:
376,240,72464,2,0,L|312:288,1,71.4999967269899
216,344,72675,1,0,0:0:0:0:
104,272,72781,2,0,P|112:224|184:128,1,142.99999345398
104,56,73098,5,0,0:0:0:0:
208,32,73204,2,0,P|248:24|288:24,1,71.4999967269899
344,112,73415,2,0,P|400:112|440:128,1,71.4999967269899
376,240,73626,2,0,B|416:320|400:344|400:344|368:328,1,142.99999345398
272,280,73943,1,0,0:0:0:0:
176,336,74049,2,0,P|128:320|104:288,1,71.4999967269899
160,168,74260,2,0,P|168:112|192:80,1,71.4999967269899
256,240,74471,5,0,0:0:0:0:
272,136,74577,2,0,P|320:64|368:40,1,142.99999345398
336,192,74894,2,0,P|304:256|216:296,1,142.99999345398
48,112,75316,5,0,0:0:0:0:
72,224,75422,1,0,0:0:0:0:
48,112,75527,2,0,P|56:56|72:32,1,71.4999967269899
120,24,75739,2,0,P|160:16|264:48,1,142.99999345398
336,328,76161,6,0,P|416:312|448:264,1,142.99999345398
504,176,76478,1,0,0:0:0:0:
464,80,76584,2,0,P|416:80|376:104,1,71.4999967269899
336,176,76795,2,0,P|288:144|280:112,1,71.4999967269899
188,40,77006,2,0,P|257:23|328:32,2,142.99999345398
136,112,77535,5,0,0:0:0:0:
152,192,77640,1,0,0:0:0:0:
152,192,77746,1,0,0:0:0:0:
240,248,77851,2,0,P|176:272|80:264,1,142.99999345398
376,272,78274,5,0,0:0:0:0:
376,272,78379,1,0,0:0:0:0:
360,192,78485,1,0,0:0:0:0:
360,192,78590,1,0,0:0:0:0:
409,113,78697,2,0,P|338:111|272:136,1,142.99999345398
80,88,79119,6,0,P|128:64|240:56,1,142.99999345398
215,52,79436,1,0,0:0:0:0:
176,152,79542,2,0,P|144:176|120:216,1,71.4999967269899
184,288,79753,2,0,P|224:248|224:208,1,71.4999967269899
309,235,79964,2,0,P|322:267|352:288,1,71.4999967269899
409,201,80175,2,0,P|388:172|359:151,1,71.4999967269899
256,120,80387,2,0,P|272:88|376:48,1,142.99999345398
384,320,80809,5,0,0:0:0:0:
312,240,80915,1,0,0:0:0:0:
224,304,81020,2,0,P|168:288|88:208,1,142.99999345398
408,149,81443,2,0,P|355:102|288:80,1,142.99999345398
287,79,81760,1,0,0:0:0:0:
184,48,81866,2,0,P|136:40|96:40,1,71.4999967269899
80,144,82077,2,0,P|128:144|176:160,1,71.4999967269899
136,240,82288,1,0,0:0:0:0:
184,312,82394,1,0,0:0:0:0:
232,248,82499,2,0,P|248:184|216:96,1,142.99999345398
426,173,82922,6,0,P|440:248|424:320,1,142.99999345398
472,72,83344,2,0,P|432:48|392:40,1,71.4999967269899
320,104,83556,1,0,0:0:0:0:
232,40,83661,1,0,0:0:0:0:
184,136,83767,2,0,P|120:112|104:88,1,71.4999967269899
264,208,83978,2,0,B|208:248|144:232|144:232|128:272,1,142.99999345398
416,328,84401,5,0,0:0:0:0:
416,328,84612,2,0,P|440:280|424:176,1,142.99999345398
336,152,84929,1,0,0:0:0:0:
240,112,85035,2,0,P|296:48|376:40,1,142.99999345398
416,120,85351,2,0,P|448:64|448:40,1,71.4999967269899
408,216,85563,2,0,P|392:176|392:144,1,71.4999967269899
384,304,85774,1,0,0:0:0:0:
384,304,85880,2,0,P|352:272|240:240,1,142.99999345398
64,296,86302,6,0,L|112:232,1,71.4999967269899
216,40,86513,2,0,L|186:105,1,71.4999967269899
213,254,86725,2,0,L|248:192,1,71.4999967269899
111,76,86936,2,0,L|72:136,1,71.4999967269899
152,208,87147,2,0,L|104:288,1,71.4999967269899
240,152,87358,1,0,0:0:0:0:
240,152,87464,1,0,0:0:0:0:
240,152,87570,2,0,P|288:112|392:72,1,142.99999345398
96,352,87992,6,0,P|136:312|240:264,1,142.99999345398
416,32,88415,2,0,P|376:72|272:120,1,142.99999345398
64,184,88837,2,0,B|88:144|136:128|136:128,2,71.4999967269899
224,248,89154,2,0,P|264:280|280:304,2,71.4999967269899
160,256,89471,2,0,P|176:184|248:120,1,142.99999345398
344,48,89788,5,0,0:0:0:0:
384,144,89894,2,0,P|416:112|456:104,1,71.4999967269899
392,216,90105,2,0,P|360:232|312:240,1,71.4999967269899
296,136,90316,2,0,P|272:104|256:56,1,71.4999967269899
472,192,90527,2,0,P|496:224|512:272,1,71.4999967269899
424,320,90739,1,0,0:0:0:0:
424,320,90844,1,0,0:0:0:0:
320,320,90950,2,0,P|264:312|184:256,1,142.99999345398
64,80,91373,6,0,P|120:80|176:104,1,110
344,280,91795,2,0,P|384:224|384:168,1,110
104,240,92218,2,0,P|72:280|64:336,1,110
64,336,92535,1,0,0:0:0:0:
64,336,92640,1,0,0:0:0:0:
248,192,92851,5,0,0:0:0:0:
304,128,92957,1,0,0:0:0:0:
224,96,93063,2,0,P|248:64|336:56,1,110
344,224,93485,2,0,P|384:240|432:304,1,110
168,160,93908,2,0,P|128:144|80:80,1,110
328,48,94330,1,0,0:0:0:0:
456,232,94542,1,0,0:0:0:0:
456,232,94647,1,0,0:0:0:0:
456,232,94753,1,0,0:0:0:0:
416,88,94964,5,0,0:0:0:0:
392,304,95175,1,0,0:0:0:0:
216,176,95387,1,0,0:0:0:0:
32,56,95598,2,0,P|112:48|160:64,1,110
192,312,96020,2,0,P|264:320|320:312,1,110
384,48,96443,2,0,P|464:40|512:56,1,110
392,176,96866,6,0,P|344:160|328:160,1,55
256,184,97077,2,0,P|208:144|168:136,1,55
104,200,97288,2,0,P|80:144|80:72,2,110
216,320,97922,1,0,0:0:0:0:
392,80,98133,6,0,P|328:48|240:40,1,110
248,48,98450,1,0,0:0:0:0:
208,72,98556,1,0,0:0:0:0:
144,184,98767,1,0,0:0:0:0:
160,216,98873,1,0,0:0:0:0:
184,240,98978,2,0,P|200:176|256:120,1,110
48,96,99401,2,0,P|96:56|152:40,1,110
232,192,99823,6,0,P|296:152|360:144,1,110
376,144,100140,1,0,0:0:0:0:
416,168,100246,1,0,0:0:0:0:
440,208,100351,1,0,0:0:0:0:
440,256,100457,2,0,P|504:224|528:144,2,110
224,312,101091,2,0,P|200:248|208:176,1,110
248,48,101513,6,0,L|304:48,3,55
344,64,101936,2,0,P|384:112|408:208,1,110
392,240,102253,1,0,0:0:0:0:
320,328,102358,6,0,L|376:328,2,55
192,280,102675,2,0,L|144:248,2,55
72,200,102992,1,0,0:0:0:0:
272,128,103204,6,0,P|336:128|384:144,1,110
240,256,103626,2,0,P|176:256|128:240,1,110
344,248,104049,2,0,P|400:288|424:336,1,110
168,136,104471,2,0,P|112:96|88:48,1,110
256,192,104894,1,0,0:0:0:0:
96,72,107429,5,0,0:0:0:0:
96,72,107640,1,0,0:0:0:0:
144,168,107851,2,0,L|200:104,1,76.9999976501466
256,168,108063,2,0,L|304:104,1,76.9999976501466
256,24,108274,2,0,P|336:16|472:192,1,307.999990600586
360,304,108907,5,0,0:0:0:0:
272,224,109013,2,0,P|200:264|184:296,1,76.9999976501466
152,360,109225,2,0,P|80:320|72:288,1,76.9999976501466
0,232,109436,1,0,0:0:0:0:
0,232,109542,2,0,P|40:144|120:112,1,153.999995300293
144,208,109858,1,0,0:0:0:0:
200,128,109964,2,0,P|264:80|352:88,1,153.999995300293
336,200,110281,1,0,0:0:0:0:
440,248,110387,2,0,P|376:304|296:328,1,153.999995300293
120,272,110809,6,0,P|136:200|152:184,1,76.9999976501466
64,112,111020,2,0,P|144:96|176:104,1,76.9999976501466
240,176,111232,2,0,P|280:104|280:32,1,153.999995300293
240,280,111654,6,0,P|145:259|0:110,1,307.999990600586
272,104,112288,2,0,P|366:124|512:273,1,307.999990600586
344,320,112922,2,0,P|304:248|288:240,1,76.9999976501466
240,160,113133,2,0,P|168:160|144:184,1,76.9999976501466
144,280,113344,2,0,P|88:224|56:144,1,153.999995300293
160,208,113767,2,0,P|181:131|234:64,1,153.999995300293
232,184,114189,2,0,P|309:163|394:175,1,153.999995300293
385,38,114506,5,0,0:0:0:0:
336,152,114612,2,0,P|416:168|424:176,1,76.9999976501466
344,256,114824,2,0,P|264:264|256:256,1,76.9999976501466
216,168,115035,2,0,P|144:200|72:272,2,153.999995300293
440,160,115668,6,0,L|384:96,1,76.9999976501466
416,64,115880,2,0,P|336:40|240:56,1,153.999995300293
64,176,116302,2,0,P|160:184|176:192,1,76.9999976501466
152,272,116513,2,0,P|224:216|232:200,1,76.9999976501466
152,184,116725,2,0,P|216:128|304:96,1,153.999995300293
336,256,117042,1,0,0:0:0:0:
336,256,117147,2,0,P|416:216|464:152,1,153.999995300293
456,167,117464,1,0,0:0:0:0:
408,64,117570,2,0,P|328:48|296:48,1,76.9999976501466
272,120,117781,2,0,P|184:104|144:112,1,76.9999976501466
152,184,117992,2,0,P|96:248|64:312,1,153.999995300293
296,336,118415,6,0,P|304:208|360:160,1,153.999995300293
352,80,118732,1,0,0:0:0:0:
352,80,118837,2,0,P|224:48|160:56,1,153.999995300293
128,144,119154,1,0,0:0:0:0:
128,144,119260,2,0,P|104:240|128:304,1,153.999995300293
224,336,119577,1,0,0:0:0:0:
224,336,119682,2,0,L|304:288,1,76.9999976501466
224,248,119894,2,0,L|296:200,1,76.9999976501466
400,104,120105,6,0,L|352:176,1,76.9999976501466
312,40,120316,2,0,L|272:112,1,76.9999976501466
192,48,120527,2,0,L|144:128,1,76.9999976501466
80,232,120739,2,0,L|168:200,1,76.9999976501466
264,200,120950,2,0,L|344:248,1,76.9999976501466
424,304,121161,1,0,0:0:0:0:
424,304,121267,1,0,0:0:0:0:
424,304,121373,1,0,0:0:0:0:
424,304,121478,1,0,0:0:0:0:
424,304,121584,6,0,P|432:224|416:120,1,153.999995300293
112,128,122006,2,0,P|176:64|240:40,1,153.999995300293
233,41,122323,1,0,0:0:0:0:
288,112,122429,2,0,P|224:160|216:184,1,76.9999976501466
280,232,122640,2,0,P|240:280|144:312,1,153.999995300293
184,184,122957,1,0,0:0:0:0:
184,184,123063,2,0,P|144:104|80:72,1,153.999995300293
32,200,123380,1,0,0:0:0:0:
32,200,123485,6,0,L|104:160,1,76.9999976501466,0|0,0:0|0:0,0:0:0:0:
104,272,123697,2,0,L|176:224,1,76.9999976501466
192,328,123908,2,0,L|272:272,1,76.9999976501466
272,384,124119,2,0,L|336:336,1,76.9999976501466
400,280,124330,1,0,0:0:0:0:
368,88,124542,5,0,0:0:0:0:
288,48,124647,1,0,0:0:0:0:
232,128,124753,2,0,B|160:80|120:24|120:16,1,153.999995300293
88,312,125175,6,0,P|152:256|240:208,1,153.999995300293
424,72,125598,2,0,P|360:128|272:176,1,153.999995300293
300,163,125915,1,0,0:0:0:0:
216,120,126020,2,0,P|144:88|104:88,1,76.9999976501466
80,152,126232,2,0,P|48:224|48:240,1,76.9999976501466
184,344,126443,2,0,P|288:304|384:344,1,153.999995300293
184,40,126866,6,0,P|288:80|384:40,1,153.999995300293
344,344,127288,2,0,P|400:264|464:232,1,153.999995300293
64,237,127711,2,0,P|128:278|168:344,1,153.999995300293
232,336,128027,1,0,0:0:0:0:
264,280,128133,1,0,0:0:0:0:
296,224,128239,1,0,0:0:0:0:
320,168,128344,2,0,P|328:80|280:16,2,153.999995300293
264,280,128873,5,0,0:0:0:0:
176,200,128978,2,0,P|128:112|128:96,1,76.9999976501466
232,80,129189,2,0,P|232:16|240:0,1,76.9999976501466
328,80,129401,2,0,L|408:80,2,76.9999976501466
256,176,129718,2,0,L|168:176,2,76.9999976501466
360,232,130035,2,0,P|368:312|360:320,1,76.9999976501466
336,328,130246,2,0,P|248:288|184:280,1,153.999995300293
112,192,130563,1,0,0:0:0:0:
32,272,130668,2,0,P|16:192|56:88,2,153.999995300293
88,304,131197,5,0,0:0:0:0:
144,272,131302,1,0,0:0:0:0:
200,304,131408,1,0,0:0:0:0:
264,296,131513,2,0,P|368:288|424:224,1,153.999995300293
168,160,131936,6,0,P|128:80|56:48,1,153.999995300293
344,224,132358,2,0,P|384:304|456:336,2,153.999995300293
304,176,132887,1,0,0:0:0:0:
320,120,132992,1,0,0:0:0:0:
320,56,133098,1,0,0:0:0:0:
272,16,133204,2,0,L|184:32,1,76.9999976501466
184,128,133415,2,0,L|264:112,1,76.9999976501466
272,16,133626,2,0,L|184:32,1,76.9999976501466
120,208,133837,2,0,L|272:160,1,153.999995300293
352,208,134154,1,0,0:0:0:0:
416,128,134260,2,0,L|496:88,2,76.9999976501466
200,120,134577,2,0,L|120:80,2,76.9999976501466
264,200,134894,2,0,B|224:280|264:312|264:312|288:280,1,153.999995300293
384,304,137640,5,0,0:0:0:0:
248,176,137852,1,0,0:0:0:0:
176,312,138063,1,0,0:0:0:0:
152,168,138274,1,0,0:0:0:0:
264,264,138486,1,0,0:0:0:0:
112,248,138697,6,0,P|64:176|56:80,1,142.99999345398
96,32,139013,1,0,0:0:0:0:
184,88,139119,2,0,P|256:72|336:112,1,142.99999345398
368,184,139436,1,0,0:0:0:0:
440,112,139542,2,0,P|488:152|496:168,1,71.4999967269899
448,248,139753,2,0,P|384:224|368:232,1,71.4999967269899
352,296,139964,2,0,P|272:296|256:272,1,71.4999967269899
184,288,140175,2,0,P|192:216|184:192,1,71.4999967269899
104,256,140387,1,0,0:0:0:0:
40,192,140492,1,0,0:0:0:0:
112,136,140598,6,0,P|136:56|208:-32,2,142.99999345398
240,88,141126,1,0,0:0:0:0:
240,88,141231,2,0,P|320:88|408:136,1,142.99999345398
128,336,141654,2,0,P|104:256|120:160,1,142.99999345398
408,336,142077,6,0,P|432:256|424:232,1,71.4999967269899
504,208,142288,2,0,P|432:168|416:176,1,71.4999967269899
480,80,142499,2,0,P|400:88|392:96,1,71.4999967269899
368,160,142711,2,0,P|296:160|280:144,1,71.4999967269899
240,232,142922,2,0,P|184:184|184:152,1,71.4999967269899
208,56,143133,2,0,P|136:64|120:80,1,71.4999967269899
96,32,143344,2,0,P|40:88|32:160,1,142.99999345398
96,336,143767,6,0,P|112:256|136:232,1,71.4999967269899
48,192,143978,2,0,P|112:160|144:168,1,71.4999967269899
160,80,144189,2,0,P|256:64|352:88,2,142.99999345398
232,144,144718,1,0,0:0:0:0:
192,224,144823,2,0,L|264:256|264:256,2,71.4999967269899
48,56,145246,5,0,0:0:0:0:
48,56,145457,2,0,P|136:32|224:48,1,142.99999345398
264,88,145774,2,0,P|336:88|360:64,1,71.4999967269899
344,184,145985,2,0,P|424:152|440:120,1,71.4999967269899
360,32,146302,6,0,P|432:64|472:144,1,142.99999345398
344,184,146619,1,0,0:0:0:0:
344,184,146725,2,0,P|320:256|264:320,1,142.99999345398
184,296,147042,1,0,0:0:0:0:
80,328,147147,2,0,P|120:232|208:192,1,142.99999345398
104,128,147464,2,0,P|176:120|200:136,1,71.4999967269899
200,32,147675,2,0,P|256:80|256:112,1,71.4999967269899
240,168,147887,2,0,P|304:136|312:120,1,71.4999967269899
360,64,148098,1,0,0:0:0:0:
360,64,148204,2,0,P|456:120|464:184,1,142.99999345398
408,336,148626,5,0,0:0:0:0:
360,264,148732,1,0,0:0:0:0:
280,240,148837,1,0,0:0:0:0:
200,272,148943,2,0,P|176:176|152:152,1,71.4999967269899
48,216,149154,1,0,0:0:0:0:
48,216,149260,2,0,P|56:136|136:72,1,142.99999345398
216,176,149682,1,0,0:0:0:0:
264,96,149788,1,0,0:0:0:0:
192,40,149894,2,0,P|296:8|384:32,1,142.99999345398
352,320,150316,5,0,0:0:0:0:
368,136,150527,2,0,P|288:168|232:272,1,142.99999345398
80,320,150950,1,0,0:0:0:0:
80,176,151161,1,0,0:0:0:0:
80,248,151267,1,0,0:0:0:0:
80,320,151373,2,0,P|128:256|240:224,1,142.99999345398
304,112,151795,6,0,P|272:48|256:32,1,71.4999967269899
176,112,152006,2,0,P|144:48|144:16,1,71.4999967269899
256,184,152218,2,0,P|275:213|287:247,1,71.4999967269899
312,336,152429,1,0,0:0:0:0:
392,296,152535,1,0,0:0:0:0:
472,248,152640,2,0,P|464:168|392:72,1,142.99999345398
435,113,152957,5,0,0:0:0:0:
256,32,153063,2,0,P|184:56|120:120,1,142.99999345398
80,328,153485,2,0,P|128:256|200:232,1,142.99999345398
177,234,153802,1,0,0:0:0:0:
312,336,153908,2,0,P|304:224|336:144,1,142.99999345398
352,112,154225,1,0,0:0:0:0:
432,72,154330,2,0,P|384:16|360:0,1,71.4999967269899
248,136,154542,2,0,P|304:192|328:200,1,71.4999967269899
432,72,154753,2,0,P|384:16|360:0,1,71.4999967269899
248,136,154964,2,0,P|192:80|160:72,1,71.4999967269899
112,64,155175,5,0,0:0:0:0:
48,136,155281,1,0,0:0:0:0:
120,200,155387,2,0,P|184:240|224:320,1,142.99999345398
408,344,155809,5,0,0:0:0:0:
408,344,155915,2,0,P|392:264|432:136,1,214.49999018097
304,48,156337,1,0,0:0:0:0:
200,40,156443,2,0,P|128:80|64:168,1,142.99999345398
312,344,156866,2,0,P|384:304|448:216,1,142.99999345398
64,280,157288,5,0,0:0:0:0:
104,176,157394,1,0,0:0:0:0:
200,240,157499,1,0,0:0:0:0:
304,208,157605,1,0,0:0:0:0:
224,136,157711,2,0,P|304:88|384:88,1,142.99999345398
160,336,158133,5,0,0:0:0:0:
160,336,158239,2,0,P|96:272|48:136,1,214.49999018097
152,160,158661,1,0,0:0:0:0:
216,72,158767,2,0,P|168:16|152:8,1,71.4999967269899
248,160,158979,2,0,P|280:88|328:64,1,107.249995090485
376,240,159295,1,0,0:0:0:0:
288,288,159401,2,0,P|240:256|152:288,1,142.99999345398
162,276,159718,1,0,0:0:0:0:
96,360,159823,2,0,P|64:288|80:200,1,142.99999345398
168,40,160246,5,0,0:0:0:0:
240,64,160351,1,0,0:0:0:0:
304,40,160457,2,0,P|400:64|448:96,1,142.99999345398
336,128,160774,1,0,0:0:0:0:
336,128,160880,2,0,P|304:216|240:288,1,142.99999345398
176,304,161197,1,0,0:0:0:0:
88,248,161302,2,0,P|64:168|64:144,1,71.4999967269899
128,24,161513,2,0,P|152:72|160:96,1,71.4999967269899
232,144,161725,2,0,P|184:168|160:176,1,71.4999967269899
0,120,161936,2,0,P|80:96|104:96,1,71.4999967269899
176,96,162147,5,0,0:0:0:0:
280,80,162253,1,0,0:0:0:0:
368,144,162358,2,0,L|480:256,1,142.99999345398
400,328,162675,1,0,0:0:0:0:
296,312,162781,2,0,B|184:312|184:312|152:272,1,142.99999345398
164,287,163098,1,0,0:0:0:0:
56,192,163204,2,0,P|112:136|128:136,1,71.4999967269899
264,64,163415,2,0,P|208:120|192:120,1,71.4999967269899
56,192,163626,2,0,P|112:136|128:136,1,71.4999967269899
352,32,163837,2,0,P|408:96|392:208,1,142.99999345398
296,312,164260,6,0,P|240:248|256:136,1,142.99999345398
233,192,164577,1,0,0:0:0:0:
96,128,164682,2,0,P|160:56|240:40,1,142.99999345398
360,104,164999,2,0,L|440:32,2,71.4999967269899
336,216,165316,2,0,L|264:272,1,71.4999967269899
168,320,165527,1,0,0:0:0:0:
168,320,165739,6,0,P|112:240|128:104,1,220
208,64,166795,1,0,0:0:0:0:
312,40,167006,1,0,0:0:0:0:
384,120,167218,1,0,0:0:0:0:
272,152,167429,2,0,P|248:184|248:264,1,110
400,296,168274,5,0,0:0:0:0:
304,160,168485,1,0,0:0:0:0:
248,304,168697,1,0,0:0:0:0:
464,136,168908,1,0,0:0:0:0:
464,136,169119,2,0,P|424:80|312:48,1,165
248,56,170175,5,0,0:0:0:0:
144,80,170387,1,0,0:0:0:0:
88,176,170598,1,0,0:0:0:0:
104,288,170809,2,0,P|168:344|208:352,1,110
344,152,171654,5,0,0:0:0:0:
296,312,171866,1,0,0:0:0:0:
432,216,172077,1,0,0:0:0:0:
264,216,172288,1,0,0:0:0:0:
400,312,172499,2,0,P|424:256|416:144,1,165
256,40,173556,6,0,L|192:64,1,55
176,168,173978,1,0,0:0:0:0:
176,168,174189,2,0,B|128:192|120:224|120:224|144:272,1,110
256,336,174823,5,0,0:0:0:0:
320,184,175035,1,0,0:0:0:0:
392,328,175246,1,0,0:0:0:0:
448,264,175458,1,0,0:0:0:0:
456,184,175669,2,0,P|432:120|424:112,1,55
400,64,176091,1,0,0:0:0:0:
152,200,176513,5,0,0:0:0:0:
64,144,176725,2,0,P|88:120|120:104,1,55
256,360,177358,5,0,0:0:0:0:
168,304,177570,2,0,P|192:280|224:264,1,55
360,256,177992,2,0,P|336:280|304:296,1,55
256,120,178626,5,0,0:0:0:0:
256,120,178837,1,0,0:0:0:0:
256,120,179260,5,0,0:0:0:0:
256,312,180950,5,0,0:0:0:0:
256,184,181795,5,0,0:0:0:0:
256,184,182006,1,0,0:0:0:0:
136,104,182218,1,0,0:0:0:0:
192,72,182323,1,0,0:0:0:0:
256,48,182429,1,0,0:0:0:0:
320,72,182535,1,0,0:0:0:0:
376,104,182640,2,0,P|432:176|448:272,1,142.99999345398
256,184,182957,1,0,0:0:0:0:
256,184,183063,2,0,P|200:240|104:240,1,142.99999345398
80,216,183380,5,0,0:0:0:0:
24,192,183485,1,0,0:0:0:0:
32,128,183591,1,0,0:0:0:0:
88,96,183697,2,0,P|168:48|272:48,2,142.99999345398
192,152,184225,1,0,0:0:0:0:
192,152,184330,2,0,P|240:248|304:304,1,142.99999345398
424,336,184753,5,0,0:0:0:0:
424,272,184858,1,0,0:0:0:0:
424,208,184964,1,0,0:0:0:0:
424,144,185070,1,0,0:0:0:0:
424,80,185175,2,0,P|336:48|240:72,1,142.99999345398
88,304,185598,2,0,P|176:336|272:312,1,142.99999345398
112,144,186020,6,0,P|144:72|344:0,1,285.99998690796
400,240,186654,2,0,P|368:312|168:384,1,285.99998690796
128,368,187182,1,0,0:0:0:0:
88,320,187288,1,0,0:0:0:0:
88,256,187394,1,0,0:0:0:0:
128,208,187499,1,0,0:0:0:0:
184,184,187605,1,0,0:0:0:0:
240,160,187711,2,0,P|176:128|105:124,1,142.99999345398
304,240,188133,2,0,P|377:203|459:198,1,165.000006294251
248,40,188556,2,0,P|144:32|16:120,1,187.000003566742
40,192,188873,6,0,P|72:272|104:304,1,82.5000031471254
192,320,189084,2,0,P|176:224|184:184,1,82.5000031471254
248,128,189295,1,0,0:0:0:0:
248,128,189401,2,0,P|368:104|456:136,1,165.000006294251
360,296,189718,6,0,L|312:224,1,82.5000031471254
144,176,189929,2,0,L|192:256,2,82.5000031471254
32,120,190246,2,0,B|72:48|104:72|144:104|224:48,1,165.000006294251
288,40,190563,1,0,0:0:0:0:
352,128,190668,2,0,L|424:192,1,82.5000031471254
344,256,190880,2,0,L|408:320,1,82.5000031471254
480,368,191091,6,0,P|496:248|456:192,1,165.000006294251
344,256,191408,1,0,0:0:0:0:
344,256,191513,2,0,P|280:176|160:168,1,165.000006294251
184,224,191830,2,0,P|104:184|80:144,1,82.5000031471254
40,208,192042,2,0,P|64:120|120:104,1,82.5000031471254
8,72,192253,1,0,0:0:0:0:
8,72,192358,2,0,P|96:40|176:56,1,165.000006294251
256,352,192781,6,0,P|352:304|448:104,1,330.000012588501
448,8,193415,2,0,P|352:16|288:72,1,165.000006294251
304,208,193837,1,0,0:0:0:0:
248,160,193943,1,0,0:0:0:0:
184,200,194049,2,0,P|104:224|56:288,1,165.000006294251
56,286,194471,1,0,0:0:0:0:
200,312,194682,6,0,P|248:248|272:240,1,82.5000031471254
368,168,194894,2,0,P|320:232|296:240,1,82.5000031471254
176,120,195105,2,0,P|224:136|256:176,1,82.5000031471254
376,352,195316,2,0,P|328:336|296:296,1,82.5000031471254
48,200,195527,2,0,P|128:160|232:144,1,165.000006294251
424,88,195844,5,0,0:0:0:0:
424,88,195950,1,0,0:0:0:0:
424,88,196056,1,0,0:0:0:0:
424,88,196161,2,0,B|352:192|424:248|496:216|504:144|432:128|328:184,1,330.000012588501
329,183,196795,1,0,0:0:0:0:
104,320,197006,6,0,L|144:232,1,82.5000031471254
96,216,197218,2,0,L|80:136,1,82.5000031471254
128,104,197429,2,0,P|168:32|264:8,1,165.000006294251
384,320,197851,2,0,P|360:184|304:136,1,165.000006294251
96,216,198168,1,0,0:0:0:0:
96,216,198274,2,0,P|120:80|176:32,1,165.000006294251
216,160,198697,2,0,P|304:120|336:128,1,82.5000031471254
264,40,198908,2,0,P|344:64|376:120,1,82.5000031471254
400,16,199119,2,0,B|440:88|408:104|368:128|384:184,1,165.000006294251
248,344,199542,6,0,P|248:248|64:120,1,330.000012588501
96,272,200070,1,0,0:0:0:0:
144,240,200175,1,0,0:0:0:0:
192,208,200281,1,0,0:0:0:0:
240,176,200387,2,0,L|384:80,1,165.000006294251
192,280,200809,2,0,L|72:160,1,165.000006294251
200,48,201232,6,0,P|320:40|384:88,1,165.000006294251
80,320,201654,2,0,P|32:232|32:152,1,165.000006294251
392,176,202077,2,0,P|440:264|440:344,1,165.000006294251
424,384,202394,5,0,0:0:0:0:
368,384,202499,1,0,0:0:0:0:
328,344,202605,1,0,0:0:0:0:
312,288,202711,2,0,P|272:216|168:160,1,165.000006294251
32,96,203133,2,0,P|128:64|216:72,1,165.000006294251
320,144,203450,2,0,L|384:88,2,82.5000031471254
168,176,203767,2,0,L|104:232,2,82.5000031471254
208,136,204084,1,0,0:0:0:0:
208,136,204189,2,0,P|232:224|280:296,1,165.000006294251
271,285,204506,5,0,0:0:0:0:
400,352,204612,2,0,P|392:248|424:152,1,165.000006294251
312,200,204929,1,0,0:0:0:0:
312,200,205035,2,0,P|352:104|448:64,1,165.000006294251
440,184,205457,1,0,0:0:0:0:
392,160,205563,1,0,0:0:0:0:
344,128,205668,1,0,0:0:0:0:
296,96,205774,1,0,0:0:0:0:
248,64,205880,2,0,L|80:64,1,165.000006294251
248,336,206302,6,0,P|176:272|64:248,1,165.000006294251
256,208,206725,2,0,P|336:160|432:152,1,165.000006294251
176,136,207147,2,0,P|104:72|-8:48,1,165.000006294251
336,136,207570,2,0,P|408:72|520:48,1,165.000006294251
256,192,207992,12,0,208837,0:0:0:0:
416,72,209049,1,0,0:0:0:0:
368,168,209260,2,0,L|312:104,1,76.9999976501466
256,168,209472,2,0,L|208:104,1,76.9999976501466
256,24,209683,2,0,P|176:16|40:192,1,307.999990600586
152,304,210316,5,0,0:0:0:0:
240,224,210422,2,0,P|312:264|328:296,1,76.9999976501466
360,360,210634,2,0,P|432:320|440:288,1,76.9999976501466
512,232,210845,1,0,0:0:0:0:
512,232,210951,2,0,P|472:144|392:112,1,153.999995300293
368,208,211267,1,0,0:0:0:0:
312,128,211373,2,0,P|248:80|160:88,1,153.999995300293
176,200,211690,1,0,0:0:0:0:
72,248,211796,2,0,P|136:304|216:328,1,153.999995300293
392,272,212218,6,0,P|376:200|360:184,1,76.9999976501466
448,112,212429,2,0,P|368:96|336:104,1,76.9999976501466
272,176,212641,2,0,P|232:104|232:32,1,153.999995300293
272,280,213063,6,0,P|367:259|512:110,1,307.999990600586
240,104,213697,2,0,P|146:124|0:273,1,307.999990600586
168,320,214331,2,0,P|208:248|224:240,1,76.9999976501466
272,160,214542,2,0,P|344:160|368:184,1,76.9999976501466
368,280,214753,2,0,P|424:224|456:144,1,153.999995300293
352,208,215176,2,0,P|331:131|278:64,1,153.999995300293
280,184,215598,2,0,P|203:163|118:175,1,153.999995300293
127,38,215915,5,0,0:0:0:0:
176,152,216021,2,0,P|96:168|88:176,1,76.9999976501466
168,256,216233,2,0,P|248:264|256:256,1,76.9999976501466
296,168,216444,2,0,P|368:200|440:272,2,153.999995300293
72,160,217077,6,0,L|128:96,1,76.9999976501466
96,64,217289,2,0,P|176:40|272:56,1,153.999995300293
448,176,217711,2,0,P|352:184|336:192,1,76.9999976501466
360,272,217922,2,0,P|288:216|280:200,1,76.9999976501466
360,184,218134,2,0,P|296:128|208:96,1,153.999995300293
176,256,218451,1,0,0:0:0:0:
176,256,218556,2,0,P|96:216|48:152,1,153.999995300293
56,167,218873,1,0,0:0:0:0:
104,64,218979,2,0,P|184:48|216:48,1,76.9999976501466
240,120,219190,2,0,P|328:104|368:112,1,76.9999976501466
360,184,219401,2,0,P|416:248|448:312,1,153.999995300293
216,336,219824,6,0,P|208:208|152:160,1,153.999995300293
160,80,220141,1,0,0:0:0:0:
160,80,220246,2,0,P|288:48|352:56,1,153.999995300293
384,144,220563,1,0,0:0:0:0:
384,144,220669,2,0,P|408:240|384:304,1,153.999995300293
288,336,220986,1,0,0:0:0:0:
288,336,221091,2,0,L|208:288,1,76.9999976501466
288,248,221303,2,0,L|216:200,1,76.9999976501466
112,104,221514,6,0,L|160:176,1,76.9999976501466
200,40,221725,2,0,L|240:112,1,76.9999976501466
320,48,221936,2,0,L|368:128,1,76.9999976501466
432,232,222148,2,0,L|344:200,1,76.9999976501466
248,200,222359,2,0,L|168:248,1,76.9999976501466
88,304,222570,1,0,0:0:0:0:
88,304,222676,1,0,0:0:0:0:
88,304,222782,1,0,0:0:0:0:
88,304,222887,1,0,0:0:0:0:
88,304,222993,6,0,P|80:224|96:120,1,153.999995300293
400,128,223415,2,0,P|336:64|272:40,1,153.999995300293
279,41,223732,1,0,0:0:0:0:
224,112,223838,2,0,P|288:160|296:184,1,76.9999976501466
232,232,224049,2,0,P|272:280|368:312,1,153.999995300293
328,184,224366,1,0,0:0:0:0:
328,184,224472,2,0,P|368:104|432:72,1,153.999995300293
480,200,224789,1,0,0:0:0:0:
480,200,224894,6,0,L|408:160,1,76.9999976501466,0|0,0:0|0:0,0:0:0:0:
408,272,225106,2,0,L|336:224,1,76.9999976501466
320,328,225317,2,0,L|240:272,1,76.9999976501466
240,384,225528,2,0,L|176:336,1,76.9999976501466
112,280,225739,1,0,0:0:0:0:
144,88,225951,5,0,0:0:0:0:
224,48,226056,1,0,0:0:0:0:
280,128,226162,2,0,B|352:80|392:24|392:16,1,153.999995300293
424,312,226584,6,0,P|360:256|272:208,1,153.999995300293
88,72,227007,2,0,P|152:128|240:176,1,153.999995300293
212,163,227324,1,0,0:0:0:0:
296,120,227429,2,0,P|368:88|408:88,1,76.9999976501466
432,152,227641,2,0,P|464:224|464:240,1,76.9999976501466
328,344,227852,2,0,P|224:304|128:344,1,153.999995300293
328,40,228275,6,0,P|224:80|128:40,1,153.999995300293
168,344,228697,2,0,P|112:264|48:232,1,153.999995300293
448,237,229120,2,0,P|384:278|344:344,1,153.999995300293
280,336,229436,1,0,0:0:0:0:
248,280,229542,1,0,0:0:0:0:
216,224,229648,1,0,0:0:0:0:
192,168,229753,2,0,P|184:80|232:16,2,153.999995300293
248,280,230282,5,0,0:0:0:0:
336,200,230387,2,0,P|384:112|384:96,1,76.9999976501466
280,80,230598,2,0,P|280:16|272:0,1,76.9999976501466
184,80,230810,2,0,L|104:80,2,76.9999976501466
256,176,231127,2,0,L|344:176,2,76.9999976501466
152,232,231444,2,0,P|144:312|152:320,1,76.9999976501466
176,328,231655,2,0,P|264:288|328:280,1,153.999995300293
400,192,231972,1,0,0:0:0:0:
480,272,232077,2,0,P|496:192|456:88,2,153.999995300293
424,304,232606,5,0,0:0:0:0:
368,272,232711,1,0,0:0:0:0:
312,304,232817,1,0,0:0:0:0:
248,296,232922,2,0,P|144:288|88:224,1,153.999995300293
438,50,233345,6,0,P|373:90|344:160,1,153.999995300293
73,333,233767,2,0,P|138:293|168:224,1,153.999995300293
208,176,234189,1,0,0:0:0:0:
208,176,234296,1,0,0:0:0:0:
192,120,234401,1,0,0:0:0:0:
192,56,234507,1,0,0:0:0:0:
240,16,234613,2,0,L|328:32,1,76.9999976501466
328,128,234824,2,0,L|240:112,1,82.5000031471254
240,16,235035,2,0,L|328:32,1,76.9999976501466
392,208,235246,2,0,L|224:184,1,165.000006294251
160,208,235563,1,0,0:0:0:0:
160,208,235669,2,0,L|228:242,3,76.9999976501466
228,242,236091,1,0,0:0:0:0:
288,176,236302,5,0,0:0:0:0:
288,64,236513,1,0,0:0:0:0:
288,64,236725,2,0,P|368:88|416:216,1,220
288,176,237570,2,0,P|224:128|96:176,1,220
72,296,238415,1,0,0:0:0:0:
176,256,238626,1,0,0:0:0:0:
176,256,238732,1,0,0:0:0:0:
176,256,238837,2,0,L|296:256,1,110
368,328,239260,2,0,P|440:224|312:96,1,285.99998690796
256,32,240105,5,0,0:0:0:0:
152,96,240316,2,0,L|104:160,1,71.4999967269899
56,192,240527,2,0,P|152:208|232:264,1,142.99999345398
272,344,240950,1,0,0:0:0:0:
376,248,241161,2,0,P|384:152|424:112,1,142.99999345398
504,72,241584,5,0,0:0:0:0:
360,48,241795,1,0,0:0:0:0:
240,104,241901,2,0,L|184:72,2,35.749998363495
112,192,242218,1,0,0:0:0:0:
232,248,242324,2,0,L|288:216,2,35.749998363495
112,344,242640,6,0,P|56:256|32:160,1,142.99999345398
40,152,242957,1,0,0:0:0:0:
72,88,243063,1,0,0:0:0:0:
136,56,243168,1,0,0:0:0:0:
208,48,243274,2,0,B|240:32|240:32|272:56|272:56|296:32|296:32|320:56|320:56|344:32|344:32|360:56,1,142.99999345398
424,144,243697,2,0,B|392:128|392:128|360:152|360:152|336:128|336:128|312:152|312:152|288:128|288:128|272:152,1,142.99999345398
216,296,244119,2,0,P|176:224|176:144,1,142.99999345398
320,96,244542,2,0,L|376:48,2,71.4999967269899
320,96,244964,1,0,0:0:0:0:
112,144,245175,5,0,0:0:0:0:
96,280,245387,2,0,L|40:336,2,71.4999967269899
224,216,245809,1,0,0:0:0:0:
360,248,246020,2,0,B|416:200|400:176|376:144|440:96,1,142.99999345398
152,248,246443,2,0,B|96:200|112:176|136:144|72:96,1,142.99999345398
200,56,246866,5,0,0:0:0:0:
256,8,247077,1,0,0:0:0:0:
312,56,247288,1,0,0:0:0:0:
256,112,247499,2,0,B|232:176|256:192|280:208|240:256,1,142.99999345398
128,368,247922,2,0,P|144:280|200:232,1,142.99999345398
72,152,248344,2,0,P|200:136|256:176,1,142.99999345398
440,152,248767,6,0,P|312:136|256:176,1,142.99999345398
383,368,249189,2,0,P|377:297|332:243,1,142.99999345398
280,224,249506,1,0,0:0:0:0:
224,208,249612,1,0,0:0:0:0:
184,168,249718,1,0,0:0:0:0:
160,120,249823,1,0,0:0:0:0:
152,64,249929,1,0,0:0:0:0:
120,112,250035,1,0,0:0:0:0:
72,136,250140,1,0,0:0:0:0:
16,152,250246,2,0,P|24:72|80:16,1,142.99999345398
144,240,250668,6,0,P|136:320|80:376,1,142.99999345398
64,272,250985,1,0,0:0:0:0:
32,176,251091,2,0,P|112:160|208:168,1,142.99999345398
480,176,251513,2,0,P|400:160|304:168,1,142.99999345398
256,248,251936,1,0,0:0:0:0:
152,336,252147,2,0,L|80:352,2,71.4999967269899
352,336,252570,2,0,P|392:256|376:184,2,142.99999345398
256,248,253204,5,0,0:0:0:0:
200,200,253309,1,0,0:0:0:0:
160,144,253415,1,0,0:0:0:0:
136,80,253520,1,0,0:0:0:0:
120,8,253626,2,0,P|192:8|320:24,1,142.99999345398
400,256,254049,2,0,P|328:256|200:240,1,142.99999345398
112,304,254366,1,0,0:0:0:0:
112,304,254471,2,0,P|136:192|184:136,1,142.99999345398
280,104,254894,1,0,0:0:0:0:
408,48,255105,1,0,0:0:0:0:
408,192,255316,5,0,0:0:0:0:
256,264,255527,1,0,0:0:0:0:
256,264,255633,1,0,0:0:0:0:
256,264,255739,1,0,0:0:0:0:
136,328,255950,1,0,0:0:0:0:
376,328,256161,1,0,0:0:0:0:
112,184,256584,6,0,L|176:128,1,71.4999967269899
128,72,256795,2,0,P|216:56|320:96,1,142.99999345398
448,176,257218,2,0,P|360:192|256:152,1,142.99999345398
272,152,257535,1,0,0:0:0:0:
296,112,257640,1,0,0:0:0:0:
336,136,257746,1,0,0:0:0:0:
360,176,257851,1,0,0:0:0:0:
368,224,257957,1,0,0:0:0:0:
368,272,258063,2,0,P|304:240|224:264,1,142.99999345398
96,360,258485,6,0,P|40:272|56:200,1,142.99999345398
96,24,258908,2,0,P|40:112|56:184,1,142.99999345398
144,192,259330,1,0,0:0:0:0:
144,192,259542,2,0,B|224:224|240:176|256:144|336:216,1,142.99999345398
368,304,259964,5,0,0:0:0:0:
456,192,260175,1,0,0:0:0:0:
368,80,260387,2,0,P|256:32|192:48,1,142.99999345398
112,176,260809,2,0,P|224:128|288:144,1,142.99999345398
416,264,261232,2,0,P|304:216|240:232,1,142.99999345398
120,328,261654,1,0,0:0:0:0:
184,296,261760,1,0,0:0:0:0:
256,288,261866,1,0,0:0:0:0:
328,304,261971,1,0,0:0:0:0:
392,336,262077,2,0,P|272:288|96:352,1,288.750011014939
160,184,262922,2,0,L|112:144,5,41.2500015735627
160,184,263556,1,0,0:0:0:0:
