osu file format v14

[General]
AudioFilename: audio.mp3
AudioLeadIn: 0
PreviewTime: 55545
Countdown: 0
SampleSet: Soft
StackLeniency: 0.7
Mode: 0
LetterboxInBreaks: 0
WidescreenStoryboard: 0

[Editor]
DistanceSpacing: 0.8
BeatDivisor: 4
GridSize: 4
TimelineZoom: 1

[Metadata]
Title:Yonakajikaru
TitleUnicode:ヨナカジカル
Artist:Tamaki to Yumine (cv:Naganawa Maria, Maekawa Ryoko)
ArtistUnicode:たまきとゆみね (cv:長縄まりあ、前川涼子)
Creator:jashintonki
Version:ojisan
Source:ステラのまほう
Tags:ステラのまほう sutera no maho ed ヨナカジカル yonakajikaru
BeatmapID:1130340
BeatmapSetID:533540

[Difficulty]
HPDrainRate:8
CircleSize:4
OverallDifficulty:9
ApproachRate:9
SliderMultiplier:2
SliderTickRate:1

[Events]
//Background and Video events
0,0,"ヨナカジカル 背景.jpg",0,0
//Break Periods
//Storyboard Layer 0 (Background)
//Storyboard Layer 1 (Fail)
//Storyboard Layer 2 (Pass)
//Storyboard Layer 3 (Foreground)
//Storyboard Sound Samples

[TimingPoints]
1674.17715996175,322.58064516129,4,2,0,50,1,0

[HitObjects]
80,108,1674,5,0,0:0:0:0:
88,92,1754,1,0,0:0:0:0:
100,80,1835,2,0,P|136:63|174:76,13,50
160,64,2964,2,0,P|199:55|222:22,15,50
200,228,4254,5,0,0:0:0:0:
372,76,4416,1,0,0:0:0:0:
280,296,4577,1,0,0:0:0:0:
280,296,4738,1,0,0:0:0:0:
184,104,4899,2,0,P|140:67|99:69,2,100
416,168,5383,5,0,0:0:0:0:
100,308,5545,1,0,0:0:0:0:
184,320,5706,1,0,0:0:0:0:
224,64,5867,2,0,L|292:140,1,100
404,292,6190,5,0,0:0:0:0:
100,164,6351,1,0,0:0:0:0:
100,164,6512,1,0,0:0:0:0:
404,292,6674,1,0,0:0:0:0:
320,308,6996,5,0,0:0:0:0:
320,308,7158,1,0,0:0:0:0:
320,308,7319,1,0,0:0:0:0:
412,120,7480,2,0,B|364:92|320:72|252:64|204:80|164:100|128:132,1,300
132,128,8045,1,0,0:0:0:0:
132,128,8125,1,0,0:0:0:0:
248,200,8287,5,0,0:0:0:0:
344,304,8448,1,0,0:0:0:0:
88,272,8609,2,0,P|100:320|128:316,2,50
408,172,9093,2,0,L|436:72,1,100
264,64,9416,5,0,0:0:0:0:
149,54,9577,1,0,0:0:0:0:
68,135,9739,1,0,0:0:0:0:
264,100,9899,5,0,0:0:0:0:
153,130,10060,1,0,0:0:0:0:
104,233,10222,1,0,0:0:0:0:
288,132,10383,5,0,0:0:0:0:
194,198,10544,1,0,0:0:0:0:
183,312,10706,1,0,0:0:0:0:
324,140,10867,5,0,0:0:0:0:
258,234,11028,1,0,0:0:0:0:
287,344,11190,1,0,0:0:0:0:
68,135,11351,5,0,0:0:0:0:
104,233,11512,1,0,0:0:0:0:
183,312,11674,1,0,0:0:0:0:
287,344,11835,1,0,0:0:0:0:
436,272,12158,5,0,0:0:0:0:
417,155,12319,1,0,0:0:0:0:
326,229,12480,1,0,0:0:0:0:
200,304,12641,2,0,B|156:180|236:68|344:64,1,300
436,56,13287,6,0,L|386:142,1,100
256,328,13609,2,0,L|205:241,1,100
96,44,13932,1,0,0:0:0:0:
84,304,14254,5,0,0:0:0:0:
84,304,14416,1,0,0:0:0:0:
84,304,14577,2,0,P|84:252|88:252,1,50
344,48,14899,5,0,0:0:0:0:
80,156,15061,1,0,0:0:0:0:
392,104,15222,2,0,B|352:144|336:188|344:256,1,150
360,328,15545,1,0,0:0:0:0:
204,132,15706,5,0,0:0:0:0:
140,232,16029,1,0,0:0:0:0:
288,56,16191,1,0,0:0:0:0:
244,312,16352,1,0,0:0:0:0:
136,320,16674,5,0,0:0:0:0:
428,204,16835,1,0,0:0:0:0:
72,192,16996,2,0,B|104:144|160:128|208:120,1,150
288,100,17319,1,0,0:0:0:0:
444,292,17480,1,0,0:0:0:0:
324,320,17641,2,0,B|272:320|216:316|172:304,1,150
92,288,17964,1,0,0:0:0:0:
456,144,18125,2,0,B|408:120|352:104|304:96,1,150
92,84,18448,2,0,B|144:88|200:108|240:136,1,150
120,288,18770,5,0,0:0:0:0:
92,84,18932,2,0,B|144:88|200:108|240:136,1,150
360,64,19254,1,0,0:0:0:0:
440,304,19416,1,0,0:0:0:0:
92,320,19738,5,0,0:0:0:0:
128,80,20061,2,0,B|176:68|232:72|284:96,1,150
372,164,20383,2,0,B|322:163|268:179|223:214,1,150
184,304,20706,1,0,0:0:0:0:
432,96,20867,1,0,0:0:0:0:
368,296,21190,1,0,0:0:0:0:
432,96,21351,1,0,0:0:0:0:
368,296,21512,1,0,0:0:0:0:
72,88,21835,5,0,0:0:0:0:
72,88,21996,2,0,B|120:64|168:56|220:76,1,150
292,124,22319,1,0,0:0:0:0:
216,268,22480,1,0,0:0:0:0:
292,124,22641,1,0,0:0:0:0:
148,172,22802,1,0,0:0:0:0:
448,268,23125,5,0,0:0:0:0:
448,268,23286,1,0,0:0:0:0:
448,268,23448,1,0,0:0:0:0:
412,188,23609,2,0,B|360:160|320:156|264:152|216:148|168:120,1,250
228,60,24093,2,0,B|212:48|188:36|168:32|144:36|124:40|104:56|80:68|80:112|80:144|92:168|108:180|128:208|160:208|176:196,1,300
324,288,24899,5,0,0:0:0:0:
376,52,25061,2,0,P|318:49|287:79,1,100
76,256,25384,1,0,0:0:0:0:
140,320,25867,1,0,0:0:0:0:
72,96,26029,2,0,P|124:76|176:96,1,100
312,248,26351,1,0,0:0:0:0:
412,64,26674,5,0,0:0:0:0:
148,236,26835,1,0,0:0:0:0:
148,236,26996,1,0,0:0:0:0:
148,236,27158,1,0,0:0:0:0:
148,236,27319,1,0,0:0:0:0:
216,68,27641,6,0,P|260:44|312:44,1,100
460,88,27964,2,0,P|408:108|372:144,1,100
272,332,28287,1,0,0:0:0:0:
140,160,28448,2,0,P|148:108|116:60,1,100
320,128,28932,2,0,P|288:88|240:68,1,100
12,172,29254,1,0,0:0:0:0:
388,320,29416,2,0,P|336:300|284:312,1,100
56,300,29738,2,0,P|76:248|116:216,1,100
352,228,30061,5,0,0:0:0:0:
440,72,30222,2,0,P|392:52|340:48,1,100
72,88,30545,1,0,0:0:0:0:
236,172,30867,1,0,0:0:0:0:
92,288,31028,1,0,0:0:0:0:
344,192,31190,2,0,P|388:156|436:148,1,100
432,244,31512,1,0,0:0:0:0:
160,60,31835,5,0,0:0:0:0:
128,268,31996,2,0,P|176:248|232:264,1,100
464,148,32319,2,0,P|416:128|360:140,1,100
28,124,32803,5,0,0:0:0:0:
160,280,33126,1,0,0:0:0:0:
288,328,33448,1,0,0:0:0:0:
384,88,33609,1,0,0:0:0:0:
384,88,33690,1,0,0:0:0:0:
384,88,33770,1,0,0:0:0:0:
112,36,33932,5,0,0:0:0:0:
432,260,34093,1,0,0:0:0:0:
48,172,34254,1,0,0:0:0:0:
320,8,34416,1,0,0:0:0:0:
128,336,34577,2,0,P|84:304|80:304,2,50
316,272,35222,5,0,0:0:0:0:
344,200,35706,1,0,0:0:0:0:
296,144,36190,1,0,0:0:0:0:
124,48,37158,5,0,0:0:0:0:
168,108,37480,1,0,0:0:0:0:
264,212,37803,1,0,0:0:0:0:
192,200,38287,1,0,0:0:0:0:
120,188,38770,1,0,0:0:0:0:
52,296,39738,5,0,0:0:0:0:
120,136,40383,1,0,0:0:0:0:
172,80,40867,1,0,0:0:0:0:
244,68,41351,1,0,0:0:0:0:
340,208,42319,6,0,L|392:192,1,50
488,328,42964,1,0,0:0:0:0:
488,328,43449,1,0,0:0:0:0:
500,296,43932,1,0,0:0:0:0:
96,168,45545,5,0,0:0:0:0:
160,280,45867,1,0,0:0:0:0:
224,236,46190,1,0,0:0:0:0:
276,324,46512,1,0,0:0:0:0:
376,216,46835,1,0,0:0:0:0:
272,80,47480,5,0,0:0:0:0:
240,152,47803,1,0,0:0:0:0:
148,76,48125,1,0,0:0:0:0:
84,216,49093,5,0,0:0:0:0:
120,288,49416,1,0,0:0:0:0:
384,332,50061,1,0,0:0:0:0:
432,272,50384,1,0,0:0:0:0:
456,160,50707,6,0,L|408:136,1,50
328,224,51030,1,0,0:0:0:0:
268,184,51352,1,0,0:0:0:0:
224,128,51674,1,0,0:0:0:0:
200,60,51997,1,0,0:0:0:0:
280,60,52641,5,0,0:0:0:0:
272,132,52964,1,0,0:0:0:0:
256,192,53287,12,4,55222,0:0:0:0:
116,308,55867,5,0,0:0:0:0:
240,328,56029,2,0,P|280:296|304:248,1,100
364,304,56351,2,0,P|396:260|400:208,1,100
328,68,56835,5,0,0:0:0:0:
260,92,56996,1,0,0:0:0:0:
228,156,57158,1,0,0:0:0:0:
192,52,57480,1,0,0:0:0:0:
104,80,57803,1,0,0:0:0:0:
64,160,58125,1,0,0:0:0:0:
248,220,58448,6,0,B|296:196|344:180|392:176,1,150
460,128,58770,1,0,0:0:0:0:
388,324,59093,1,0,0:0:0:0:
388,324,59416,2,0,B|336:300|284:288|240:280,1,150
184,220,59738,1,0,0:0:0:0:
216,320,60383,6,0,L|160:332,1,50
68,288,60706,1,0,0:0:0:0:
384,164,61029,1,0,0:0:0:0:
344,92,61190,2,0,P|300:144|312:188,1,100
240,228,61512,2,0,P|220:176|224:120,1,100
104,44,61996,5,0,0:0:0:0:
184,56,62157,1,0,0:0:0:0:
244,104,62319,1,0,0:0:0:0:
444,20,62641,1,0,0:0:0:0:
336,80,62964,1,0,0:0:0:0:
288,196,63287,1,0,0:0:0:0:
264,312,63609,6,0,L|212:324,1,50
132,72,63932,1,0,0:0:0:0:
84,264,64093,1,0,0:0:0:0:
84,264,64416,1,0,0:0:0:0:
256,296,64738,1,0,0:0:0:0:
220,120,65060,1,0,0:0:0:0:
416,328,65221,1,0,0:0:0:0:
140,148,66190,5,0,0:0:0:0:
164,224,66351,1,0,0:0:0:0:
260,128,66512,1,0,0:0:0:0:
240,244,66674,1,0,0:0:0:0:
380,104,66835,1,0,0:0:0:0:
452,196,67158,5,0,0:0:0:0:
444,220,67320,1,0,0:0:0:0:
436,240,67481,1,0,0:0:0:0:
492,80,67803,2,0,B|448:60|396:60|340:96,1,150
340,96,68126,2,0,B|284:96|248:120|220:172,1,150
216,180,68449,2,0,B|156:200|124:236|112:284,1,150
196,328,68770,5,0,0:0:0:0:
64,92,69094,1,0,0:0:0:0:
280,296,69416,1,0,0:0:0:0:
280,296,69738,2,0,B|328:264|376:256|440:264,1,150
340,136,70061,1,0,0:0:0:0:
172,244,70706,5,0,0:0:0:0:
160,252,70868,1,0,0:0:0:0:
88,88,71029,2,0,B|136:64|184:56|240:56,1,150
272,284,71351,5,0,0:0:0:0:
432,336,71512,1,0,0:0:0:0:
216,192,71673,1,0,0:0:0:0:
460,112,71835,1,0,0:0:0:0:
160,104,71996,1,0,0:0:0:0:
76,228,72319,6,0,L|128:232,1,50
208,276,72480,2,0,L|260:280,1,50
348,320,72641,2,0,L|400:324,1,50
408,56,72964,2,0,P|304:44|244:64,1,150
56,84,73287,2,0,P|168:76|204:92,1,150
364,144,73609,2,0,P|260:152|228:184,1,150
80,276,73932,5,0,0:0:0:0:
280,56,74254,1,0,0:0:0:0:
396,308,74416,1,0,0:0:0:0:
80,224,74738,1,0,0:0:0:0:
416,264,74899,1,0,0:0:0:0:
76,172,75061,2,0,B|80:136|96:104|120:80|152:68|188:76|220:88|236:108|248:136|256:172|268:200|272:244|296:268|324:284|368:284|408:264|416:240|428:212|432:184,1,500
380,88,76512,6,0,P|336:64|324:64,11,50
316,60,77480,2,0,P|264:48|256:52,11,50
88,60,78448,1,0,0:0:0:0:
148,81,78609,1,0,0:0:0:0:
126,142,78770,1,0,0:0:0:0:
66,120,78932,1,0,0:0:0:0:
464,60,79254,5,0,0:0:0:0:
264,152,79577,2,0,B|328:176|368:200|400:240,1,150
452,320,79900,1,0,0:0:0:0:
228,72,80222,2,0,B|172:80|136:112|112:160,1,150
120,168,80545,2,0,B|172:160|224:164|272:180,1,150
396,184,80867,1,0,0:0:0:0:
232,312,81029,2,0,P|280:332|288:328,3,50
144,196,81351,2,0,P|192:176|204:176,2,50
88,300,81674,5,0,0:0:0:0:
152,72,81835,1,0,0:0:0:0:
188,64,81996,1,0,0:0:0:0:
444,96,82158,2,0,P|336:112|308:136,1,150
296,156,82480,1,0,0:0:0:0:
268,328,82641,5,0,0:0:0:0:
332,60,82803,1,0,0:0:0:0:
400,48,82964,1,0,0:0:0:0:
264,36,83125,2,0,P|212:36|120:68,1,150
64,132,83448,1,0,0:0:0:0:
456,276,83609,5,0,0:0:0:0:
304,132,83932,1,0,0:0:0:0:
272,300,84254,5,0,0:0:0:0:
80,72,84416,2,0,B|136:72|200:80|232:108,1,150
424,104,84738,2,0,B|372:116|320:136|280:168,1,150
80,312,85061,1,0,0:0:0:0:
300,44,85222,1,0,0:0:0:0:
40,112,85383,5,0,0:0:0:0:
440,176,85544,1,0,0:0:0:0:
140,296,85705,1,0,0:0:0:0:
292,352,85867,1,0,0:0:0:0:
408,16,86028,1,0,0:0:0:0:
20,216,86189,1,0,0:0:0:0:
220,32,86351,2,0,L|272:24,2,50
