osu file format v14

[General]
AudioFilename: audio.mp3
AudioLeadIn: 0
PreviewTime: 54799
Countdown: 0
SampleSet: Normal
StackLeniency: 0.7
Mode: 1
LetterboxInBreaks: 0
WidescreenStoryboard: 0

[Editor]
DistanceSpacing: 0.9
BeatDivisor: 1
GridSize: 32
TimelineZoom: 0.6999998

[Metadata]
Title:Yonakajikaru [TV Size]
TitleUnicode:ヨナカジカル【TVサイズ】
Artist:Tamaki to Yumine (CV*Naganawa Maria, Maekawa Ryoko)
ArtistUnicode:たまきとゆみね(CV*長縄まりあ・前川涼子)
Creator:_yu68
Version:Kantan
Source:ステラのまほう
Tags:magic of stella ending ここのか kokonoka 黒木人生 jinsei kuroki r・o・n ron future bass namaniku
BeatmapID:1345408
BeatmapSetID:634016

[Difficulty]
HPDrainRate:8
CircleSize:5
OverallDifficulty:4
ApproachRate:5
SliderMultiplier:1.4
SliderTickRate:1

[Events]
//Background and Video events
0,0,"BG.png",0,0
//Break Periods
//Storyboard Layer 0 (Background)
//Storyboard Layer 1 (Fail)
//Storyboard Layer 2 (Pass)
//Storyboard Layer 3 (Foreground)
//Storyboard Sound Samples

[TimingPoints]
687,322.58064516129,4,1,0,50,1,0
3186,-100,4,1,0,80,0,0
34396,-133.333333333333,4,1,0,50,0,0
54799,-133.333333333333,4,1,0,90,0,0
54880,-100,4,1,0,90,0,1
75525,-100,4,1,0,90,0,0

[HitObjects]
256,192,687,8,0,2945,0:0:0:0:
256,192,3267,5,0,0:0:0:0:
256,192,4235,1,0,0:0:0:0:
256,192,5203,1,8,0:0:0:0:
256,192,5848,1,0,0:0:0:0:
256,192,7138,1,8,0:0:0:0:
256,192,7783,1,8,0:0:0:0:
256,192,8428,1,0,0:0:0:0:
256,192,9396,1,0,0:0:0:0:
256,192,10364,1,8,0:0:0:0:
256,192,11009,1,0,0:0:0:0:
256,192,12299,1,0,0:0:0:0:
256,192,12622,1,0,0:0:0:0:
256,192,12945,1,8,0:0:0:0:
256,192,13590,1,0,0:0:0:0:
256,192,14235,1,8,0:0:0:0:
256,192,14557,1,0,0:0:0:0:
256,192,15525,1,8,0:0:0:0:
256,192,16170,1,0,0:0:0:0:
256,192,16816,1,8,0:0:0:0:
256,192,17461,1,0,0:0:0:0:
256,192,17783,1,0,0:0:0:0:
256,192,18106,1,8,0:0:0:0:
256,192,18751,1,0,0:0:0:0:
256,192,19396,1,8,0:0:0:0:
256,192,19719,1,0,0:0:0:0:
256,192,20686,1,8,0:0:0:0:
256,192,21332,1,0,0:0:0:0:
256,192,21977,1,8,0:0:0:0:
256,192,22622,1,0,0:0:0:0:
256,192,22945,1,8,0:0:0:0:
256,192,23267,1,8,0:0:0:0:
256,192,23912,1,0,0:0:0:0:
256,192,24880,1,0,0:0:0:0:
256,192,25848,1,8,0:0:0:0:
256,192,26493,1,0,0:0:0:0:
256,192,27138,1,8,0:0:0:0:
256,192,27783,1,8,0:0:0:0:
256,192,28106,1,0,0:0:0:0:
256,192,28428,1,8,0:0:0:0:
256,192,29074,1,0,0:0:0:0:
256,192,30041,1,0,0:0:0:0:
256,192,31009,1,8,0:0:0:0:
256,192,31654,1,0,0:0:0:0:
256,192,32299,1,8,0:0:0:0:
256,192,32945,1,0,0:0:0:0:
256,192,33267,1,8,0:0:0:0:
256,192,33590,1,8,0:0:0:0:
256,192,34235,1,4,0:0:0:0:
256,192,36816,1,8,0:0:0:0:
256,192,39396,1,8,0:0:0:0:
256,192,41977,1,0,0:0:0:0:
256,192,44557,1,8,0:0:0:0:
256,192,46493,1,8,0:0:0:0:
256,192,47138,1,8,0:0:0:0:
256,192,48428,1,0,0:0:0:0:
256,192,49719,1,8,0:0:0:0:
256,192,51654,1,8,0:0:0:0:
256,192,52299,12,0,54557,0:0:0:0:
256,192,54880,5,4,0:0:0:0:
256,192,55525,1,8,0:0:0:0:
256,192,55848,1,0,0:0:0:0:
256,192,56816,1,8,0:0:0:0:
256,192,57461,1,0,0:0:0:0:
256,192,58106,1,8,0:0:0:0:
256,192,58428,1,0,0:0:0:0:
256,192,59074,1,0,0:0:0:0:
256,192,59396,1,8,0:0:0:0:
256,192,60041,1,0,0:0:0:0:
256,192,60686,1,8,0:0:0:0:
256,192,61009,1,0,0:0:0:0:
256,192,61332,1,0,0:0:0:0:
256,192,61977,1,8,0:0:0:0:
256,192,62622,1,0,0:0:0:0:
256,192,63267,1,8,0:0:0:0:
256,192,63590,1,0,0:0:0:0:
256,192,63912,1,8,0:0:0:0:
256,192,65203,1,4,0:0:0:0:
256,192,65848,1,8,0:0:0:0:
256,192,66170,1,0,0:0:0:0:
256,192,67138,1,8,0:0:0:0:
256,192,67783,1,0,0:0:0:0:
256,192,68428,1,8,0:0:0:0:
256,192,68751,1,0,0:0:0:0:
256,192,69396,1,0,0:0:0:0:
256,192,69719,1,8,0:0:0:0:
256,192,70364,1,0,0:0:0:0:
256,192,71009,1,8,0:0:0:0:
256,192,71332,1,0,0:0:0:0:
256,192,71654,1,0,0:0:0:0:
256,192,72299,1,8,0:0:0:0:
256,192,72945,1,0,0:0:0:0:
256,192,73590,1,8,0:0:0:0:
256,192,73912,1,0,0:0:0:0:
256,192,74235,1,8,0:0:0:0:
256,192,75525,1,0,0:0:0:0:
256,192,76493,1,0,0:0:0:0:
256,192,78106,1,8,0:0:0:0:
256,192,79074,1,8,0:0:0:0:
256,192,80686,1,0,0:0:0:0:
256,192,81654,1,0,0:0:0:0:
256,192,83267,1,8,0:0:0:0:
256,192,84235,1,8,0:0:0:0:
