osu file format v14

[General]
AudioFilename: audio.mp3
AudioLeadIn: 0
PreviewTime: 54799
Countdown: 0
SampleSet: Normal
StackLeniency: 0.7
Mode: 1
LetterboxInBreaks: 0
WidescreenStoryboard: 0

[Editor]
DistanceSpacing: 0.9
BeatDivisor: 4
GridSize: 32
TimelineZoom: 2.5

[Metadata]
Title:Yonakajikaru [TV Size]
TitleUnicode:ヨナカジカル【TVサイズ】
Artist:Tamaki to Yumine (CV*Naganawa Maria, Maekawa Ryoko)
ArtistUnicode:たまきとゆみね(CV*長縄まりあ・前川涼子)
Creator:_yu68
Version:29's Inner Oni
Source:ステラのまほう
Tags:magic of stella ending ここのか kokonoka 黒木人生 jinsei kuroki r・o・n ron future bass namaniku
BeatmapID:1351272
BeatmapSetID:634016

[Difficulty]
HPDrainRate:7
CircleSize:5
OverallDifficulty:6.6
ApproachRate:5
SliderMultiplier:1.4
SliderTickRate:1

[Events]
//Background and Video events
0,0,"BG.png",0,0
//Break Periods
//Storyboard Layer 0 (Background)
//Storyboard Layer 1 (Fail)
//Storyboard Layer 2 (Pass)
//Storyboard Layer 3 (Foreground)
//Storyboard Sound Samples

[TimingPoints]
687,322.58064516129,4,1,0,50,1,0
3186,-100,4,1,0,80,0,0
34396,-133.333333333333,4,1,0,50,0,0
54799,-133.333333333333,4,1,0,90,0,0
54880,-100,4,1,0,90,0,1
75525,-100,4,1,0,90,0,0

[HitObjects]
256,192,687,12,0,3106,0:0:0:0:
256,192,3267,5,4,0:0:0:0:
256,192,3751,1,0,0:0:0:0:
256,192,3912,1,2,0:0:0:0:
256,192,4235,1,0,0:0:0:0:
256,192,4557,1,2,0:0:0:0:
256,192,4719,1,0,0:0:0:0:
256,192,5041,1,0,0:0:0:0:
256,192,5122,1,0,0:0:0:0:
256,192,5203,1,2,0:0:0:0:
256,192,5364,1,0,0:0:0:0:
256,192,5525,1,2,0:0:0:0:
256,192,5686,1,2,0:0:0:0:
256,192,5848,1,0,0:0:0:0:
256,192,6170,1,0,0:0:0:0:
256,192,6332,1,0,0:0:0:0:
256,192,6493,1,2,0:0:0:0:
256,192,6816,1,2,0:0:0:0:
256,192,6977,1,0,0:0:0:0:
256,192,7138,1,2,0:0:0:0:
256,192,7219,1,2,0:0:0:0:
256,192,7299,1,0,0:0:0:0:
256,192,7461,1,0,0:0:0:0:
256,192,7622,1,2,0:0:0:0:
256,192,7783,1,0,0:0:0:0:
256,192,7864,1,2,0:0:0:0:
256,192,7945,1,2,0:0:0:0:
256,192,8025,1,2,0:0:0:0:
256,192,8106,1,0,0:0:0:0:
256,192,8267,1,2,0:0:0:0:
256,192,8428,1,0,0:0:0:0:
256,192,8751,1,0,0:0:0:0:
256,192,8912,1,0,0:0:0:0:
256,192,9074,1,2,0:0:0:0:
256,192,9396,1,0,0:0:0:0:
256,192,9719,1,2,0:0:0:0:
256,192,9880,1,0,0:0:0:0:
256,192,10203,1,0,0:0:0:0:
256,192,10283,1,0,0:0:0:0:
256,192,10364,1,2,0:0:0:0:
256,192,10445,1,2,0:0:0:0:
256,192,10525,1,0,0:0:0:0:
256,192,10686,1,2,0:0:0:0:
256,192,10848,1,2,0:0:0:0:
256,192,11009,1,0,0:0:0:0:
256,192,11332,1,0,0:0:0:0:
256,192,11493,1,2,0:0:0:0:
256,192,11654,1,2,0:0:0:0:
256,192,11816,1,0,0:0:0:0:
256,192,11977,1,2,0:0:0:0:
256,192,12057,1,2,0:0:0:0:
256,192,12138,1,0,0:0:0:0:
256,192,12219,1,0,0:0:0:0:
256,192,12299,1,2,0:0:0:0:
256,192,12353,1,2,0:0:0:0:
256,192,12407,1,2,0:0:0:0:
256,192,12461,1,0,0:0:0:0:
256,192,12622,1,0,0:0:0:0:
256,192,12676,1,2,0:1:0:0:
256,192,12730,1,2,0:0:0:0:
256,192,12783,1,0,0:0:0:0:
256,192,12864,1,0,0:0:0:0:
256,192,12945,1,2,0:0:0:0:
256,192,13106,1,2,0:0:0:0:
256,192,13186,1,0,0:0:0:0:
256,192,13267,1,0,0:0:0:0:
256,192,13348,1,2,0:0:0:0:
256,192,13428,1,2,0:0:0:0:
256,192,13509,1,2,0:0:0:0:
256,192,13590,1,0,0:0:0:0:
256,192,13912,1,2,0:0:0:0:
256,192,14074,1,0,0:0:0:0:
256,192,14235,1,2,0:0:0:0:
256,192,14316,1,2,0:0:0:0:
256,192,14396,1,2,0:0:0:0:
256,192,14557,1,0,0:0:0:0:
256,192,14719,1,0,0:0:0:0:
256,192,14799,1,0,0:0:0:0:
256,192,14880,1,2,0:0:0:0:
256,192,15041,1,0,0:0:0:0:
256,192,15203,1,2,0:0:0:0:
256,192,15364,1,0,0:0:0:0:
256,192,15686,1,0,0:0:0:0:
256,192,15848,1,2,0:0:0:0:
256,192,16009,1,2,0:0:0:0:
256,192,16090,1,2,0:0:0:0:
256,192,16170,1,0,0:0:0:0:
256,192,16332,1,2,0:0:0:0:
256,192,16493,1,0,0:0:0:0:
256,192,16574,1,0,0:0:0:0:
256,192,16654,1,2,0:0:0:0:
256,192,16816,1,0,0:0:0:0:
256,192,16977,1,2,0:0:0:0:
256,192,17057,1,0,0:0:0:0:
256,192,17138,1,2,0:0:0:0:
256,192,17219,1,2,0:0:0:0:
256,192,17299,1,0,0:0:0:0:
256,192,17461,1,2,0:0:0:0:
256,192,17703,1,2,0:0:0:0:
256,192,17783,1,0,0:0:0:0:
256,192,17945,1,2,0:0:0:0:
256,192,18106,1,0,0:0:0:0:
256,192,18186,1,0,0:0:0:0:
256,192,18267,1,2,0:0:0:0:
256,192,18348,1,2,0:0:0:0:
256,192,18428,1,0,0:0:0:0:
256,192,18590,1,2,0:0:0:0:
256,192,18751,1,0,0:0:0:0:
256,192,19074,1,2,0:0:0:0:
256,192,19154,1,2,0:0:0:0:
256,192,19235,1,2,0:0:0:0:
256,192,19396,1,2,0:0:0:0:
256,192,19557,1,0,0:0:0:0:
256,192,19719,1,0,0:0:0:0:
224,192,19799,1,2,0:0:0:0:
256,192,19880,1,0,0:0:0:0:
256,192,19961,1,0,0:0:0:0:
256,192,20041,1,2,0:0:0:0:
256,192,20203,1,0,0:0:0:0:
256,192,20364,1,2,0:0:0:0:
256,192,20525,1,0,0:0:0:0:
256,192,20848,1,0,0:0:0:0:
256,192,20928,1,0,0:0:0:0:
256,192,21009,1,2,0:0:0:0:
256,192,21170,1,0,0:0:0:0:
256,192,21332,1,0,0:0:0:0:
256,192,21412,1,2,0:0:0:0:
256,192,21493,1,0,0:0:0:0:
256,192,21574,1,2,0:0:0:0:
256,192,21654,1,2,0:0:0:0:
256,192,21816,1,2,0:0:0:0:
256,192,21977,1,0,0:0:0:0:
256,192,22138,1,2,0:0:0:0:
256,192,22219,1,2,0:0:0:0:
256,192,22299,1,0,0:0:0:0:
256,192,22353,1,2,0:0:0:0:
256,192,22407,1,2,0:0:0:0:
256,192,22461,1,0,0:0:0:0:
256,192,22622,1,2,0:0:0:0:
256,192,22703,1,0,0:0:0:0:
256,192,22864,1,0,0:0:0:0:
256,192,22945,1,2,0:0:0:0:
256,192,22998,1,2,0:0:0:0:
256,192,23052,1,2,0:0:0:0:
256,192,23106,1,0,0:0:0:0:
256,192,23267,1,2,0:0:0:0:
256,192,23428,1,0,0:0:0:0:
256,192,23509,1,0,0:0:0:0:
256,192,23590,1,2,0:0:0:0:
256,192,23643,1,2,0:0:0:0:
256,192,23697,1,2,0:0:0:0:
256,192,23751,1,2,0:0:0:0:
256,192,23912,1,4,0:0:0:0:
256,192,24396,1,0,0:0:0:0:
256,192,24557,1,2,0:0:0:0:
256,192,24880,1,0,0:0:0:0:
256,192,25041,1,2,0:0:0:0:
256,192,25122,1,2,0:0:0:0:
256,192,25203,1,2,0:0:0:0:
256,192,25364,1,0,0:0:0:0:
256,192,25525,1,2,0:0:0:0:
256,192,25686,1,0,0:0:0:0:
256,192,25848,1,2,0:0:0:0:
256,192,25928,1,2,0:0:0:0:
256,192,26009,1,0,0:0:0:0:
256,192,26090,1,2,0:0:0:0:
256,192,26170,1,2,0:0:0:0:
256,192,26332,1,2,0:0:0:0:
256,192,26493,1,0,0:0:0:0:
256,192,26816,1,0,0:0:0:0:
256,192,26977,1,2,0:0:0:0:
256,192,27138,1,2,0:0:0:0:
256,192,27219,1,2,0:0:0:0:
256,192,27299,1,0,0:0:0:0:
256,192,27461,1,2,0:0:0:0:
256,192,27622,1,0,0:0:0:0:
256,192,27703,1,0,0:0:0:0:
256,192,27783,1,2,0:0:0:0:
256,192,27837,1,2,0:0:0:0:
256,192,27891,1,2,0:0:0:0:
256,192,27945,1,0,0:0:0:0:
256,192,28106,1,0,0:0:0:0:
256,192,28267,1,2,0:0:0:0:
256,192,28428,1,0,0:0:0:0:
256,192,28509,1,2,0:0:0:0:
256,192,28590,1,2,0:0:0:0:
256,192,28670,1,2,0:0:0:0:
256,192,28751,1,0,0:0:0:0:
256,192,28912,1,2,0:0:0:0:
256,192,29074,1,0,0:0:0:0:
256,192,29557,1,0,0:0:0:0:
256,192,29719,1,2,0:0:0:0:
256,192,30041,1,0,0:0:0:0:
256,192,30122,1,2,0:0:0:0:
256,192,30203,1,2,0:0:0:0:
256,192,30283,1,2,0:0:0:0:
256,192,30364,1,2,0:0:0:0:
256,192,30525,1,0,0:0:0:0:
256,192,30686,1,2,0:0:0:0:
256,192,30848,1,0,0:0:0:0:
256,192,31009,1,2,0:0:0:0:
256,192,31063,1,2,0:0:0:0:
256,192,31117,1,2,0:0:0:0:
256,192,31170,1,2,0:0:0:0:
256,192,31251,1,2,0:0:0:0:
256,192,31332,1,0,0:0:0:0:
256,192,31493,1,2,0:0:0:0:
256,192,31654,1,0,0:0:0:0:
256,192,31977,1,2,0:0:0:0:
256,192,32138,1,2,0:0:0:0:
256,192,32299,1,0,0:0:0:0:
256,192,32461,1,2,0:0:0:0:
256,192,32622,1,2,0:0:0:0:
256,192,32703,1,2,0:0:0:0:
256,192,32783,1,0,0:0:0:0:
256,192,32864,1,0,0:0:0:0:
256,192,32945,1,2,0:0:0:0:
256,192,32998,1,2,0:0:0:0:
256,192,33052,1,2,0:0:0:0:
256,192,33106,1,0,0:0:0:0:
256,192,33267,1,0,0:0:0:0:
256,192,33321,1,2,0:0:0:0:
256,192,33375,1,2,0:0:0:0:
256,192,33428,1,0,0:0:0:0:
256,192,33509,1,0,0:0:0:0:
256,192,33590,1,2,0:0:0:0:
256,192,33751,1,2,0:0:0:0:
256,192,33805,1,2,0:0:0:0:
256,192,33859,1,2,0:0:0:0:
256,192,33912,1,2,0:0:0:0:
256,192,34074,1,2,0:0:0:0:
256,192,34235,1,4,0:0:0:0:
256,192,34719,1,0,0:0:0:0:
256,192,34880,1,2,0:0:0:0:
256,192,35203,1,0,0:0:0:0:
256,192,35525,1,2,0:0:0:0:
256,192,35686,1,2,0:0:0:0:
256,192,35848,1,0,0:0:0:0:
256,192,36170,1,2,0:0:0:0:
256,192,36493,1,0,0:0:0:0:
256,192,36654,1,2,0:0:0:0:
256,192,36816,1,2,0:0:0:0:
256,192,37299,1,0,0:0:0:0:
256,192,37461,1,2,0:0:0:0:
256,192,37783,1,0,0:0:0:0:
256,192,37945,1,0,0:0:0:0:
256,192,38106,1,2,0:0:0:0:
256,192,38267,1,0,0:0:0:0:
256,192,38590,1,0,0:0:0:0:
256,192,38751,1,2,0:0:0:0:
256,192,38912,1,0,0:0:0:0:
256,192,39074,1,2,0:0:0:0:
256,192,39235,1,2,0:0:0:0:
256,192,39396,1,0,0:0:0:0:
256,192,39880,1,2,0:0:0:0:
256,192,40041,1,0,0:0:0:0:
256,192,40364,1,2,0:0:0:0:
256,192,40686,1,0,0:0:0:0:
256,192,40848,1,2,0:0:0:0:
256,192,41009,1,0,0:0:0:0:
256,192,41170,1,0,0:0:0:0:
256,192,41332,1,2,0:0:0:0:
256,192,41654,1,2,0:0:0:0:
256,192,41816,1,2,0:0:0:0:
256,192,41977,1,0,0:0:0:0:
256,192,42138,1,0,0:0:0:0:
256,192,42461,1,2,0:0:0:0:
256,192,42622,1,0,0:0:0:0:
256,192,42945,1,2,0:0:0:0:
256,192,43267,1,2,0:0:0:0:
256,192,43428,1,0,0:0:0:0:
256,192,43590,1,2,0:0:0:0:
256,192,43751,1,2,0:0:0:0:
256,192,43912,1,0,0:0:0:0:
256,192,44235,1,2,0:0:0:0:
256,192,44396,1,2,0:0:0:0:
256,192,44477,1,2,0:0:0:0:
256,192,44557,1,2,0:0:0:0:
256,192,45041,1,2,0:0:0:0:
256,192,45203,1,0,0:0:0:0:
256,192,45525,1,2,0:0:0:0:
256,192,45848,1,0,0:0:0:0:
256,192,46009,1,2,0:0:0:0:
256,192,46170,1,0,0:0:0:0:
256,192,46493,1,2,0:0:0:0:
256,192,46816,1,0,0:0:0:0:
256,192,46977,1,2,0:0:0:0:
256,192,47138,1,2,0:0:0:0:
256,192,47622,1,0,0:0:0:0:
256,192,47783,1,2,0:0:0:0:
256,192,48106,1,2,0:0:0:0:
256,192,48267,1,2,0:0:0:0:
256,192,48428,1,0,0:0:0:0:
256,192,48590,1,0,0:0:0:0:
256,192,48751,1,2,0:0:0:0:
256,192,49074,1,0,0:0:0:0:
256,192,49396,1,2,0:0:0:0:
256,192,49557,1,2,0:0:0:0:
256,192,49719,1,0,0:0:0:0:
256,192,50203,1,2,0:0:0:0:
256,192,50364,1,0,0:0:0:0:
256,192,50686,1,2,0:0:0:0:
256,192,51009,1,0,0:0:0:0:
256,192,51170,1,2,0:0:0:0:
256,192,51332,1,0,0:0:0:0:
256,192,51654,1,2,0:0:0:0:
256,192,52299,12,2,54557,0:0:0:0:
256,192,54880,5,4,0:0:0:0:
256,192,55203,1,2,0:0:0:0:
256,192,55364,1,0,0:0:0:0:
256,192,55445,1,0,0:0:0:0:
256,192,55525,1,2,0:0:0:0:
256,192,55686,1,2,0:0:0:0:
256,192,55848,1,0,0:0:0:0:
256,192,56009,1,2,0:0:0:0:
256,192,56090,1,2,0:0:0:0:
256,192,56170,1,0,0:0:0:0:
256,192,56251,1,0,0:0:0:0:
256,192,56332,1,0,0:0:0:0:
256,192,56493,1,2,0:0:0:0:
256,192,56654,1,0,0:0:0:0:
256,192,56735,1,0,0:0:0:0:
256,192,56816,1,2,0:0:0:0:
256,192,56977,1,0,0:0:0:0:
256,192,57138,1,2,0:0:0:0:
256,192,57299,1,2,0:0:0:0:
256,192,57380,1,2,0:0:0:0:
256,192,57461,1,0,0:0:0:0:
256,192,57703,1,0,0:0:0:0:
256,192,57783,1,2,0:0:0:0:
256,192,57945,1,0,0:0:0:0:
256,192,58106,1,2,0:0:0:0:
256,192,58186,1,0,0:0:0:0:
256,192,58267,1,2,0:0:0:0:
256,192,58428,1,0,0:0:0:0:
256,192,58590,1,0,0:0:0:0:
256,192,58670,1,2,0:0:0:0:
256,192,58751,1,0,0:0:0:0:
256,192,58832,1,0,0:0:0:0:
256,192,58912,1,2,0:0:0:0:
256,192,59074,1,0,0:0:0:0:
256,192,59235,1,0,0:0:0:0:
256,192,59289,1,0,0:0:0:0:
256,192,59342,1,0,0:0:0:0:
256,192,59396,1,2,0:0:0:0:
256,192,59557,1,0,0:0:0:0:
256,192,59611,1,2,0:0:0:0:
256,192,59665,1,2,0:0:0:0:
256,192,59719,1,0,0:0:0:0:
256,192,59880,1,2,0:0:0:0:
256,192,60041,1,0,0:0:0:0:
256,192,60364,1,2,0:0:0:0:
256,192,60525,1,0,0:0:0:0:
256,192,60606,1,0,0:0:0:0:
256,192,60686,1,2,0:0:0:0:
256,192,60848,1,2,0:0:0:0:
256,192,61009,1,0,0:0:0:0:
256,192,61090,1,2,0:0:0:0:
256,192,61170,1,0,0:0:0:0:
256,192,61251,1,0,0:0:0:0:
256,192,61332,1,2,0:0:0:0:
256,192,61493,1,0,0:0:0:0:
256,192,61574,1,0,0:0:0:0:
256,192,61654,1,2,0:0:0:0:
256,192,61816,1,2,0:0:0:0:
256,192,61977,1,2,0:0:0:0:
256,192,62031,1,2,0:0:0:0:
256,192,62085,1,2,0:0:0:0:
256,192,62138,1,0,0:0:0:0:
256,192,62219,1,0,0:0:0:0:
256,192,62299,1,2,0:0:0:0:
256,192,62461,1,2,0:0:0:0:
256,192,62541,1,2,0:0:0:0:
256,192,62622,1,0,0:0:0:0:
256,192,62864,1,0,0:0:0:0:
256,192,62945,1,2,0:0:0:0:
256,192,63106,1,0,0:0:0:0:
256,192,63186,1,0,0:0:0:0:
256,192,63267,1,2,0:0:0:0:
256,192,63428,1,0,0:0:0:0:
256,192,63590,1,2,0:0:0:0:
256,192,63643,1,2,0:0:0:0:
256,192,63697,1,2,0:0:0:0:
256,192,63751,1,0,0:0:0:0:
256,192,63912,1,0,0:0:0:0:
256,192,64074,1,2,0:0:0:0:
256,192,64235,1,2,0:0:0:0:
256,192,64316,1,2,0:0:0:0:
256,192,64396,1,0,0:0:0:0:
256,192,64477,1,2,0:0:0:0:
256,192,64557,1,2,0:0:0:0:
256,192,64719,1,0,0:0:0:0:
256,192,64799,1,0,0:0:0:0:
256,192,64880,1,0,0:0:0:0:
256,192,65041,1,8,0:0:0:0:
256,192,65203,1,4,0:0:0:0:
256,192,65525,1,2,0:0:0:0:
256,192,65686,1,0,0:0:0:0:
256,192,65767,1,2,0:0:0:0:
256,192,65847,1,2,0:0:0:0:
256,192,66009,1,0,0:0:0:0:
256,192,66170,1,2,0:0:0:0:
256,192,66251,1,2,0:0:0:0:
256,192,66331,1,0,0:0:0:0:
256,192,66492,1,2,0:0:0:0:
256,192,66654,1,0,0:0:0:0:
256,192,66735,1,0,0:0:0:0:
256,192,66815,1,2,0:0:0:0:
256,192,66896,1,2,0:0:0:0:
256,192,66977,1,2,0:0:0:0:
256,192,67057,1,0,0:0:0:0:
256,192,67138,1,2,0:0:0:0:
256,192,67299,1,0,0:0:0:0:
256,192,67461,1,2,0:0:0:0:
256,192,67621,1,2,0:0:0:0:
256,192,67703,1,2,0:0:0:0:
256,192,67783,1,0,0:0:0:0:
256,192,68025,1,0,0:0:0:0:
256,192,68105,1,2,0:0:0:0:
256,192,68267,1,0,0:0:0:0:
256,192,68428,1,2,0:0:0:0:
256,192,68509,1,0,0:0:0:0:
256,192,68589,1,2,0:0:0:0:
256,192,68751,1,0,0:0:0:0:
256,192,68912,1,0,0:0:0:0:
256,192,68993,1,2,0:0:0:0:
256,192,69074,1,0,0:0:0:0:
256,192,69154,1,0,0:0:0:0:
256,192,69235,1,2,0:0:0:0:
256,192,69396,1,0,0:0:0:0:
256,192,69557,1,0,0:0:0:0:
256,192,69611,1,0,0:0:0:0:
256,192,69664,1,0,0:0:0:0:
256,192,69718,1,2,0:0:0:0:
256,192,69879,1,0,0:0:0:0:
256,192,69933,1,2,0:0:0:0:
256,192,69987,1,2,0:0:0:0:
256,192,70041,1,0,0:0:0:0:
256,192,70202,1,2,0:0:0:0:
256,192,70363,1,0,0:0:0:0:
256,192,70525,1,2,0:0:0:0:
256,192,70606,1,0,0:0:0:0:
256,192,70686,1,2,0:0:0:0:
256,192,70767,1,2,0:0:0:0:
256,192,70847,1,0,0:0:0:0:
256,192,71008,1,2,0:0:0:0:
256,192,71170,1,0,0:0:0:0:
256,192,71332,1,0,0:0:0:0:
256,192,71412,1,0,0:0:0:0:
256,192,71492,1,2,0:0:0:0:
256,192,71654,1,2,0:0:0:0:
256,192,71735,1,2,0:0:0:0:
256,192,71815,1,0,0:0:0:0:
256,192,71896,1,2,0:0:0:0:
256,192,71976,1,0,0:0:0:0:
256,192,72138,1,2,0:0:0:0:
256,192,72299,1,2,0:0:0:0:
256,192,72353,1,2,0:0:0:0:
256,192,72407,1,2,0:0:0:0:
256,192,72460,1,0,0:0:0:0:
256,192,72541,1,0,0:0:0:0:
256,192,72621,1,2,0:0:0:0:
256,192,72783,1,2,0:0:0:0:
256,192,72864,1,2,0:0:0:0:
256,192,72945,1,0,0:0:0:0:
256,192,73186,1,0,0:0:0:0:
256,192,73267,1,2,0:0:0:0:
256,192,73428,1,0,0:0:0:0:
256,192,73509,1,0,0:0:0:0:
256,192,73590,1,2,0:0:0:0:
256,192,73750,1,0,0:0:0:0:
256,192,73912,1,0,0:0:0:0:
256,192,73966,1,2,0:0:0:0:
256,192,74020,1,2,0:0:0:0:
256,192,74074,1,0,0:0:0:0:
256,192,74235,1,0,0:0:0:0:
256,192,74396,1,2,0:0:0:0:
256,192,74557,1,0,0:0:0:0:
256,192,74880,1,2,0:0:0:0:
256,192,75525,1,4,0:0:0:0:
256,192,76009,1,0,0:0:0:0:
256,192,76170,1,2,0:0:0:0:
256,192,76493,1,0,0:0:0:0:
256,192,76816,1,2,0:0:0:0:
256,192,76977,1,2,0:0:0:0:
256,192,77138,1,0,0:0:0:0:
256,192,77461,1,2,0:0:0:0:
256,192,77622,1,0,0:0:0:0:
256,192,77783,1,2,0:0:0:0:
256,192,77945,1,2,0:0:0:0:
256,192,78106,1,0,0:0:0:0:
256,192,78267,1,2,0:0:0:0:
256,192,78590,1,0,0:0:0:0:
256,192,78751,1,2,0:0:0:0:
256,192,79074,1,2,0:0:0:0:
256,192,79235,1,2,0:0:0:0:
256,192,79396,1,0,0:0:0:0:
256,192,79557,1,2,0:0:0:0:
256,192,79719,1,0,0:0:0:0:
256,192,79880,1,0,0:0:0:0:
256,192,80041,1,2,0:0:0:0:
256,192,80122,1,2,0:0:0:0:
256,192,80203,1,0,0:0:0:0:
256,192,80364,1,2,0:0:0:0:
256,192,80525,1,2,0:0:0:0:
256,192,80686,1,0,0:0:0:0:
256,192,81171,1,0,0:0:0:0:
256,192,81332,1,2,0:0:0:0:
256,192,81654,1,2,0:0:0:0:
256,192,81816,1,2,0:0:0:0:
256,192,81977,1,0,0:0:0:0:
256,192,82138,1,2,0:0:0:0:
256,192,82461,1,2,0:0:0:0:
256,192,82622,1,0,0:0:0:0:
256,192,82783,1,0,0:0:0:0:
256,192,82945,1,2,0:0:0:0:
256,192,83106,1,2,0:0:0:0:
256,192,83267,1,0,0:0:0:0:
256,192,83428,1,2,0:0:0:0:
256,192,83751,1,2,0:0:0:0:
256,192,83912,1,0,0:0:0:0:
256,192,84074,1,2,0:0:0:0:
256,192,84235,1,0,0:0:0:0:
256,192,84396,1,0,0:0:0:0:
256,192,84719,1,2,0:0:0:0:
256,192,85041,1,2,0:0:0:0:
256,192,85364,1,2,0:0:0:0:
256,192,85525,1,2,0:0:0:0:
