osu file format v14

[General]
AudioFilename: audio.mp3
AudioLeadIn: 0
PreviewTime: 34092
Countdown: 0
SampleSet: Soft
StackLeniency: 0.2
Mode: 0
LetterboxInBreaks: 0
EpilepsyWarning: 1
WidescreenStoryboard: 1

[Editor]
Bookmarks: 13427,23749,34072,44394,54717,59878,65040,70201,70866,75362,85685
DistanceSpacing: 1.05
BeatDivisor: 8
GridSize: 32
TimelineZoom: 3.999999

[Metadata]
Title:Yonakajikaru [TV Size]
TitleUnicode:ヨナカジカル【TVサイズ】
Artist:Tamaki to Yumine (CV*Naganawa Maria, Maekawa Ryoko)
ArtistUnicode:たまきとゆみね(CV*長縄まりあ・前川涼子)
Creator:rrtyui
Version:Normal
Source:ステラのまほう
Tags:ed stella no mahou magic of stella ending ここのか kokonoka 黒木人生 jinsei kuroki r・o・n ron future bass tukamoto7km kogumano-putaro KogumaX tyui Sing NeilPerry KuranteMelodii Firis Mistlud Lulu-
BeatmapID:1885046
BeatmapSetID:747401

[Difficulty]
HPDrainRate:4
CircleSize:2.5
OverallDifficulty:5
ApproachRate:5
SliderMultiplier:2
SliderTickRate:1

[Events]
//Background and Video events
0,0,"bg.jpg",0,0
//Break Periods
//Storyboard Layer 0 (Background)
//Storyboard Layer 1 (Fail)
//Storyboard Layer 2 (Pass)
//Storyboard Layer 3 (Foreground)
Sprite,Foreground,Centre,"sb\text\lores\title\004d.png",296.3281,206.875 S,0,0,,0.46875 C,0,0,,242,242,242 F,0,8391,,0,1 F,0,11617,,1,0
Sprite,Foreground,Centre,"sb\text\lores\title\004d.png",296.3281,206.875 S,0,0,,0.46875 C,0,0,,72,72,72 F,0,8391,,0,1 P,0,8391,11617,A F,0,11617,,1,0
Sprite,Foreground,Centre,"sb\text\lores\title\0061.png",308.2813,206.875 S,0,0,,0.46875 C,0,0,,242,242,242 F,0,8391,,0,1 F,0,11617,,1,0
Sprite,Foreground,Centre,"sb\text\lores\title\0061.png",308.2813,206.875 S,0,0,,0.46875 C,0,0,,72,72,72 F,0,8391,,0,1 P,0,8391,11617,A F,0,11617,,1,0
Sprite,Foreground,Centre,"sb\text\lores\title\0070.png",318.125,206.875 S,0,0,,0.46875 C,0,0,,242,242,242 F,0,8391,,0,1 F,0,11617,,1,0
Sprite,Foreground,Centre,"sb\text\lores\title\0070.png",318.125,206.875 S,0,0,,0.46875 C,0,0,,72,72,72 F,0,8391,,0,1 P,0,8391,11617,A F,0,11617,,1,0
Sprite,Foreground,Centre,"sb\text\lores\title\0070.png",328.4375,206.875 S,0,0,,0.46875 C,0,0,,242,242,242 F,0,8391,,0,1 F,0,11617,,1,0
Sprite,Foreground,Centre,"sb\text\lores\title\0070.png",328.4375,206.875 S,0,0,,0.46875 C,0,0,,72,72,72 F,0,8391,,0,1 P,0,8391,11617,A F,0,11617,,1,0
Sprite,Foreground,Centre,"sb\text\lores\title\0065.png",338.2813,206.875 S,0,0,,0.46875 C,0,0,,242,242,242 F,0,8391,,0,1 F,0,11617,,1,0
Sprite,Foreground,Centre,"sb\text\lores\title\0065.png",338.2813,206.875 S,0,0,,0.46875 C,0,0,,72,72,72 F,0,8391,,0,1 P,0,8391,11617,A F,0,11617,,1,0
Sprite,Foreground,Centre,"sb\text\lores\title\0072.png",346.9531,206.875 S,0,0,,0.46875 C,0,0,,242,242,242 F,0,8391,,0,1 F,0,11617,,1,0
Sprite,Foreground,Centre,"sb\text\lores\title\0072.png",346.9531,206.875 S,0,0,,0.46875 C,0,0,,72,72,72 F,0,8391,,0,1 P,0,8391,11617,A F,0,11617,,1,0
Sprite,Foreground,Centre,"sb\text\lores\sub\0072.png",308.9844,221.875 S,0,0,,0.46875 C,0,0,,242,242,242 F,0,8391,,0,1 F,0,11617,,1,0
Sprite,Foreground,Centre,"sb\text\lores\sub\0072.png",308.9844,221.875 S,0,0,,0.46875 C,0,0,,72,72,72 F,0,8391,,0,1 P,0,8391,11617,A F,0,11617,,1,0
Sprite,Foreground,Centre,"sb\text\lores\sub\0072.png",313.2031,221.875 S,0,0,,0.46875 C,0,0,,242,242,242 F,0,8391,,0,1 F,0,11617,,1,0
Sprite,Foreground,Centre,"sb\text\lores\sub\0072.png",313.2031,221.875 S,0,0,,0.46875 C,0,0,,72,72,72 F,0,8391,,0,1 P,0,8391,11617,A F,0,11617,,1,0
Sprite,Foreground,Centre,"sb\text\lores\sub\0074.png",317.6563,221.875 S,0,0,,0.46875 C,0,0,,242,242,242 F,0,8391,,0,1 F,0,11617,,1,0
Sprite,Foreground,Centre,"sb\text\lores\sub\0074.png",317.6563,221.875 S,0,0,,0.46875 C,0,0,,72,72,72 F,0,8391,,0,1 P,0,8391,11617,A F,0,11617,,1,0
Sprite,Foreground,Centre,"sb\text\lores\sub\0079.png",322.5781,221.875 S,0,0,,0.46875 C,0,0,,242,242,242 F,0,8391,,0,1 F,0,11617,,1,0
Sprite,Foreground,Centre,"sb\text\lores\sub\0079.png",322.5781,221.875 S,0,0,,0.46875 C,0,0,,72,72,72 F,0,8391,,0,1 P,0,8391,11617,A F,0,11617,,1,0
Sprite,Foreground,Centre,"sb\text\lores\sub\0075.png",327.7344,221.875 S,0,0,,0.46875 C,0,0,,242,242,242 F,0,8391,,0,1 F,0,11617,,1,0
Sprite,Foreground,Centre,"sb\text\lores\sub\0075.png",327.7344,221.875 S,0,0,,0.46875 C,0,0,,72,72,72 F,0,8391,,0,1 P,0,8391,11617,A F,0,11617,,1,0
Sprite,Foreground,Centre,"sb\text\lores\sub\0069.png",331.7188,221.875 S,0,0,,0.46875 C,0,0,,242,242,242 F,0,8391,,0,1 F,0,11617,,1,0
Sprite,Foreground,Centre,"sb\text\lores\sub\0069.png",331.7188,221.875 S,0,0,,0.46875 C,0,0,,72,72,72 F,0,8391,,0,1 P,0,8391,11617,A F,0,11617,,1,0
Sprite,Foreground,Centre,"sb\text\lores\title\0053.png",269.1406,249.375 S,0,0,,0.46875 C,0,0,,242,242,242 F,0,8391,,0,1 F,0,11617,,1,0
Sprite,Foreground,Centre,"sb\text\lores\title\0053.png",269.1406,249.375 S,0,0,,0.46875 C,0,0,,72,72,72 F,0,8391,,0,1 P,0,8391,11617,A F,0,11617,,1,0
Sprite,Foreground,Centre,"sb\text\lores\title\0074.png",278.5156,249.375 S,0,0,,0.46875 C,0,0,,242,242,242 F,0,8391,,0,1 F,0,11617,,1,0
Sprite,Foreground,Centre,"sb\text\lores\title\0074.png",278.5156,249.375 S,0,0,,0.46875 C,0,0,,72,72,72 F,0,8391,,0,1 P,0,8391,11617,A F,0,11617,,1,0
Sprite,Foreground,Centre,"sb\text\lores\title\006f.png",287.8906,249.375 S,0,0,,0.46875 C,0,0,,242,242,242 F,0,8391,,0,1 F,0,11617,,1,0
Sprite,Foreground,Centre,"sb\text\lores\title\006f.png",287.8906,249.375 S,0,0,,0.46875 C,0,0,,72,72,72 F,0,8391,,0,1 P,0,8391,11617,A F,0,11617,,1,0
Sprite,Foreground,Centre,"sb\text\lores\title\0072.png",296.7969,249.375 S,0,0,,0.46875 C,0,0,,242,242,242 F,0,8391,,0,1 F,0,11617,,1,0
Sprite,Foreground,Centre,"sb\text\lores\title\0072.png",296.7969,249.375 S,0,0,,0.46875 C,0,0,,72,72,72 F,0,8391,,0,1 P,0,8391,11617,A F,0,11617,,1,0
Sprite,Foreground,Centre,"sb\text\lores\title\0079.png",305.7031,249.375 S,0,0,,0.46875 C,0,0,,242,242,242 F,0,8391,,0,1 F,0,11617,,1,0
Sprite,Foreground,Centre,"sb\text\lores\title\0079.png",305.7031,249.375 S,0,0,,0.46875 C,0,0,,72,72,72 F,0,8391,,0,1 P,0,8391,11617,A F,0,11617,,1,0
Sprite,Foreground,Centre,"sb\text\lores\title\0062.png",315.7813,249.375 S,0,0,,0.46875 C,0,0,,242,242,242 F,0,8391,,0,1 F,0,11617,,1,0
Sprite,Foreground,Centre,"sb\text\lores\title\0062.png",315.7813,249.375 S,0,0,,0.46875 C,0,0,,72,72,72 F,0,8391,,0,1 P,0,8391,11617,A F,0,11617,,1,0
Sprite,Foreground,Centre,"sb\text\lores\title\006f.png",325.8594,249.375 S,0,0,,0.46875 C,0,0,,242,242,242 F,0,8391,,0,1 F,0,11617,,1,0
Sprite,Foreground,Centre,"sb\text\lores\title\006f.png",325.8594,249.375 S,0,0,,0.46875 C,0,0,,72,72,72 F,0,8391,,0,1 P,0,8391,11617,A F,0,11617,,1,0
Sprite,Foreground,Centre,"sb\text\lores\title\0061.png",335.4688,249.375 S,0,0,,0.46875 C,0,0,,242,242,242 F,0,8391,,0,1 F,0,11617,,1,0
Sprite,Foreground,Centre,"sb\text\lores\title\0061.png",335.4688,249.375 S,0,0,,0.46875 C,0,0,,72,72,72 F,0,8391,,0,1 P,0,8391,11617,A F,0,11617,,1,0
Sprite,Foreground,Centre,"sb\text\lores\title\0072.png",344.1406,249.375 S,0,0,,0.46875 C,0,0,,242,242,242 F,0,8391,,0,1 F,0,11617,,1,0
Sprite,Foreground,Centre,"sb\text\lores\title\0072.png",344.1406,249.375 S,0,0,,0.46875 C,0,0,,72,72,72 F,0,8391,,0,1 P,0,8391,11617,A F,0,11617,,1,0
Sprite,Foreground,Centre,"sb\text\lores\title\0064.png",353.2813,249.375 S,0,0,,0.46875 C,0,0,,242,242,242 F,0,8391,,0,1 F,0,11617,,1,0
Sprite,Foreground,Centre,"sb\text\lores\title\0064.png",353.2813,249.375 S,0,0,,0.46875 C,0,0,,72,72,72 F,0,8391,,0,1 P,0,8391,11617,A F,0,11617,,1,0
Sprite,Foreground,Centre,"sb\text\lores\title\0065.png",363.125,249.375 S,0,0,,0.46875 C,0,0,,242,242,242 F,0,8391,,0,1 F,0,11617,,1,0
Sprite,Foreground,Centre,"sb\text\lores\title\0065.png",363.125,249.375 S,0,0,,0.46875 C,0,0,,72,72,72 F,0,8391,,0,1 P,0,8391,11617,A F,0,11617,,1,0
Sprite,Foreground,Centre,"sb\text\lores\title\0072.png",371.7969,249.375 S,0,0,,0.46875 C,0,0,,242,242,242 F,0,8391,,0,1 F,0,11617,,1,0
Sprite,Foreground,Centre,"sb\text\lores\title\0072.png",371.7969,249.375 S,0,0,,0.46875 C,0,0,,72,72,72 F,0,8391,,0,1 P,0,8391,11617,A F,0,11617,,1,0
Sprite,Foreground,Centre,"sb\text\lores\sub\0072.png",308.9844,264.375 S,0,0,,0.46875 C,0,0,,242,242,242 F,0,8391,,0,1 F,0,11617,,1,0
Sprite,Foreground,Centre,"sb\text\lores\sub\0072.png",308.9844,264.375 S,0,0,,0.46875 C,0,0,,72,72,72 F,0,8391,,0,1 P,0,8391,11617,A F,0,11617,,1,0
Sprite,Foreground,Centre,"sb\text\lores\sub\0072.png",313.2031,264.375 S,0,0,,0.46875 C,0,0,,242,242,242 F,0,8391,,0,1 F,0,11617,,1,0
Sprite,Foreground,Centre,"sb\text\lores\sub\0072.png",313.2031,264.375 S,0,0,,0.46875 C,0,0,,72,72,72 F,0,8391,,0,1 P,0,8391,11617,A F,0,11617,,1,0
Sprite,Foreground,Centre,"sb\text\lores\sub\0074.png",317.6563,264.375 S,0,0,,0.46875 C,0,0,,242,242,242 F,0,8391,,0,1 F,0,11617,,1,0
Sprite,Foreground,Centre,"sb\text\lores\sub\0074.png",317.6563,264.375 S,0,0,,0.46875 C,0,0,,72,72,72 F,0,8391,,0,1 P,0,8391,11617,A F,0,11617,,1,0
Sprite,Foreground,Centre,"sb\text\lores\sub\0079.png",322.5781,264.375 S,0,0,,0.46875 C,0,0,,242,242,242 F,0,8391,,0,1 F,0,11617,,1,0
Sprite,Foreground,Centre,"sb\text\lores\sub\0079.png",322.5781,264.375 S,0,0,,0.46875 C,0,0,,72,72,72 F,0,8391,,0,1 P,0,8391,11617,A F,0,11617,,1,0
Sprite,Foreground,Centre,"sb\text\lores\sub\0075.png",327.7344,264.375 S,0,0,,0.46875 C,0,0,,242,242,242 F,0,8391,,0,1 F,0,11617,,1,0
Sprite,Foreground,Centre,"sb\text\lores\sub\0075.png",327.7344,264.375 S,0,0,,0.46875 C,0,0,,72,72,72 F,0,8391,,0,1 P,0,8391,11617,A F,0,11617,,1,0
Sprite,Foreground,Centre,"sb\text\lores\sub\0069.png",331.7188,264.375 S,0,0,,0.46875 C,0,0,,242,242,242 F,0,8391,,0,1 F,0,11617,,1,0
Sprite,Foreground,Centre,"sb\text\lores\sub\0069.png",331.7188,264.375 S,0,0,,0.46875 C,0,0,,72,72,72 F,0,8391,,0,1 P,0,8391,11617,A F,0,11617,,1,0
//Storyboard Sound Samples

[TimingPoints]
3230,645.161290322581,4,2,1,75,1,0
3230,-100,4,2,1,75,0,0
3552,-100,4,2,1,75,0,0
5165,-100,4,2,2,75,0,0
5810,-100,4,2,1,75,0,0
6294,-100,4,3,1,75,0,0
6455,-100,4,2,2,75,0,0
6778,-100,4,2,1,75,0,0
7745,-100,4,2,2,75,0,0
8068,-100,4,2,1,75,0,0
10326,-100,4,2,2,75,0,0
10971,-100,4,2,1,75,0,0
11455,-100,4,3,1,75,0,0
11616,-100,4,2,2,75,0,0
11939,-100,4,2,1,75,0,0
12907,-100,4,1,2,75,0,0
13229,-100,4,2,1,75,0,0
13552,-100,4,2,1,70,0,0
15487,-100,4,2,2,70,0,0
16132,-100,4,2,1,70,0,0
18068,-100,4,2,2,70,0,0
18390,-100,4,2,1,70,0,0
20649,-100,4,2,2,70,0,0
21294,-100,4,2,1,70,0,0
22584,-100,4,2,2,70,0,0
24727,-100,4,2,1,70,0,0
25810,-100,4,2,2,70,0,0
26132,-100,4,2,1,70,0,0
30971,-100,4,2,2,70,0,0
31616,-100,4,2,1,70,0,0
32907,-100,4,2,2,70,0,0
34197,-100,4,2,6,60,0,0
44519,-111.111111111111,4,2,6,60,0,0
45810,-111.111111111111,4,2,1,60,0,0
46455,-111.111111111111,4,2,6,60,0,0
46778,-111.111111111111,4,2,1,60,0,0
47100,-111.111111111111,4,2,6,60,0,0
48390,-111.111111111111,4,2,2,60,0,0
49681,-111.111111111111,4,2,6,60,0,0
50326,-111.111111111111,4,2,1,60,0,0
50649,-111.111111111111,4,2,6,60,0,0
50971,-111.111111111111,4,2,1,60,0,0
51616,-111.111111111111,4,2,6,60,0,0
51939,-111.111111111111,4,2,1,60,0,0
52261,-111.111111111111,4,2,6,60,0,0
53552,-100,4,2,99,60,0,0
54519,-100,4,2,1,60,0,0
54842,-90.9090909090909,4,2,3,80,0,1
55165,-90.9090909090909,4,2,1,80,0,1
55487,-90.9090909090909,4,2,2,80,0,1
55810,-90.9090909090909,4,2,1,80,0,1
56778,-90.9090909090909,4,2,2,80,0,1
57100,-90.9090909090909,4,2,1,80,0,1
58068,-90.9090909090909,4,2,2,80,0,1
58229,-90.9090909090909,4,2,1,80,0,1
59359,-90.9090909090909,4,2,2,80,0,0
59681,-90.9090909090909,4,2,1,80,0,0
60004,-90.9090909090909,4,2,1,80,0,1
61939,-90.9090909090909,4,2,2,80,0,1
62261,-90.9090909090909,4,2,1,80,0,1
64519,-90.9090909090909,4,2,2,80,0,1
64520,-90.9090909090909,4,2,2,80,0,0
64681,-90.9090909090909,4,2,1,80,0,0
65165,-90.9090909090909,4,2,3,80,0,1
65245,-90.9090909090909,4,2,1,80,0,1
65810,-90.9090909090909,4,2,2,80,0,1
66133,-90.9090909090909,4,2,1,80,0,1
68391,-90.9090909090909,4,2,2,80,0,1
68552,-90.9090909090909,4,2,1,80,0,1
69681,-90.9090909090909,4,2,2,80,0,0
69923,-90.9090909090909,4,2,1,80,0,0
70326,-90.9090909090909,4,2,1,80,0,1
70971,-90.9090909090909,4,2,2,80,0,1
71294,-90.9090909090909,4,2,1,80,0,1
72261,-90.9090909090909,4,2,2,80,0,1
72907,-90.9090909090909,4,2,1,80,0,1
73552,-90.9090909090909,4,2,4,80,0,1
73713,-90.9090909090909,4,2,1,80,0,1
74842,-90.9090909090909,4,2,6,80,0,0
75165,-100,4,2,1,80,0,0
75487,-100,4,2,1,65,0,0
80003,-100,4,2,2,65,0,0
80649,-100,4,2,1,65,0,0
84520,-111.111111111111,4,2,1,65,0,0

[Colours]
Combo1 : 28,211,255
Combo2 : 185,86,176
Combo3 : 252,94,178
Combo4 : 255,209,1
Combo5 : 146,227,0
Combo6 : 0,204,155

[HitObjects]
45,164,3230,6,0,P|88:149|148:151,1,100,4|2,1:2|0:1,0:0:0:0:
178,184,3713,2,0,P|207:189|239:207,1,50,2|8,0:1|0:0,0:0:0:0:
287,276,4197,2,0,P|339:273|385:255,1,100,2|0,1:1|0:0,0:0:0:0:
389,205,4681,2,0,P|410:192|423:172,2,50,0|0|0,0:0|0:0|0:0,0:0:0:0:
346,179,5165,6,0,P|318:138|270:128,1,100,14|2,0:0|0:0,0:0:0:0:
225,150,5649,2,0,P|205:139|191:158,1,50,2|0,0:0|1:0,0:0:0:0:
87,266,6294,1,0,2:0:0:0:
110,310,6455,2,0,B|194:348|158:252|235:321|282:277,1,150,8|2,0:0|0:1,0:0:0:0:
277,250,7100,6,0,B|255:229|252:246|228:220,1,50,2|2,0:0|0:0,0:0:0:0:
199,189,7423,2,0,B|224:177|218:158|263:158,1,50,2|2,1:2|0:0,0:0:0:0:
278,129,7746,2,0,B|276:107|276:107|259:89|259:89|257:76|257:76|246:64|246:64|221:27,1,100,8|0,0:2|0:0,0:0:0:0:
139,12,8391,6,0,P|112:54|96:102,1,100,0|2,1:0|0:1,0:0:0:0:
139,128,8875,2,0,P|134:167|140:200,1,50,2|8,0:1|0:0,0:0:0:0:
219,231,9359,2,0,P|239:289|239:360,1,100,2|0,1:1|0:0,0:0:0:0:
193,339,9842,2,0,P|187:363|173:384,2,50,0|0|0,0:0|0:0|0:0,0:0:0:0:
154,306,10326,6,0,P|120:271|71:272,1,100,14|2,0:2|0:0,0:0:0:0:
33,305,10810,2,0,P|12:300|9:323,1,50,2|0,0:0|1:0,0:0:0:0:
21,173,11455,1,0,2:0:0:0:
60,142,11617,2,0,B|117:144|87:211|163:118|168:173|226:169,1,150,8|2,0:0|0:1,0:0:0:0:
248,191,12262,6,0,B|270:182|259:160|298:167|304:133,1,50,0|0,0:0|0:0,0:0:0:0:
322,126,12584,2,0,B|323:143|378:158|317:169|376:197,1,50,0|0,1:0|0:0,0:0:0:0:
394,184,12907,2,0,B|412:181|412:181|427:172|427:172|429:165|429:165|438:160|438:160|446:151|446:151|461:151|461:151|485:125,2,100,8|0|0,2:2|0:0|1:0,0:0:0:0:
336,266,13875,6,0,P|326:283|329:311,2,50,0|0|8,0:0|0:0|0:0,0:0:0:0:
276,184,14520,2,0,P|254:193|241:214,1,50,2|0,1:0|0:0,0:0:0:0:
164,274,15004,1,0,0:0:0:0:
114,280,15165,2,0,P|89:286|70:270,2,50,0|0|12,0:0|0:0|0:0,0:0:0:0:
143,239,15649,6,0,P|151:215|153:190,2,50,0|2|2,0:0|0:0|0:0,0:0:0:0:
231,285,16294,2,0,P|247:266|257:243,2,50,2|2|2,0:0|0:0|0:0,0:0:0:0:
254,331,16778,1,8,0:0:0:0:
297,358,16939,2,0,P|319:345|337:328,1,50,0|2,0:0|0:0,0:0:0:0:
444,339,17423,6,0,P|433:288|428:231,1,100,0|2,0:0|1:2,0:0:0:0:
432,190,17907,1,0,0:0:0:0:
462,150,18068,2,0,B|455:125|455:125|434:109|434:109|427:85|427:85|406:78|406:78|391:58|391:58|365:52|365:52|347:33|347:33|324:30,1,200,8|0,0:0|1:0,0:0:0:0:
231,62,19036,6,0,P|234:87|215:107,2,50,0|0|8,0:0|0:0|0:0,0:0:0:0:
144,11,19681,2,0,P|119:22|108:44,1,50,0|0,1:0|0:0,0:0:0:0:
79,135,20165,1,0,0:0:0:0:
36,159,20326,2,0,P|11:157|-3:137,2,50,0|0|12,0:0|0:0|0:0,0:0:0:0:
83,175,20810,6,0,P|90:198|90:223,2,50,0|2|2,0:0|0:0|0:0,0:0:0:0:
176,143,21455,2,0,P|191:162|199:186,2,50,2|2|2,0:0|0:0|0:0,0:0:0:0:
203,99,21939,1,8,0:0:0:0:
252,80,22100,2,0,P|272:93|289:112,1,50,0|2,0:0|0:0,0:0:0:0:
385,139,22584,6,0,B|385:156|385:156|373:166|373:166|376:188|376:188|368:212|368:212|365:257,1,100,0|0,0:0|1:0,0:0:0:0:
422,315,23230,2,0,B|419:341|419:341|399:352|399:352|382:373|382:373|359:371|359:371|338:383|338:383|313:376,1,150,8|0,0:0|0:0,0:0:0:0:
272,346,23875,6,0,P|206:287|97:305,1,200,4|8,1:2|0:0,0:0:0:0:
53,217,24842,2,0,B|111:186|133:95|6:114|78:2|170:-5,1,250,0|0,1:0|0:0,0:0:0:0:
173,27,25810,6,0,B|200:40|200:40|222:40|222:40|240:53|240:53|281:57,1,100,12|2,0:0|0:0,0:0:0:0:
315,50,26294,2,0,P|335:63|353:81,1,50,2|0,0:0|1:0,0:0:0:0:
360,132,26617,6,0,P|375:151|385:174,2,50,2|2|2,0:0|0:0|0:0,0:0:0:0:
310,137,27100,1,8,0:0:0:0:
276,174,27262,2,0,P|283:197|285:222,2,50,0|2|2,0:0|0:0|0:0,0:0:0:0:
181,141,27907,1,2,0:0:0:0:
177,191,28068,2,0,P|175:215|169:239,1,50,2|0,1:2|0:0,0:0:0:0:
132,274,28391,6,0,B|132:299|132:299|149:315|149:315|157:339|157:339|180:344|180:344|202:364|202:364|230:361,1,150,8|0,0:0|0:0,0:0:0:0:
266,333,29036,6,0,P|316:280|436:295,1,200,0|8,1:0|0:0,0:0:0:0:
481,206,30004,2,0,B|437:106|358:124|387:202|304:144|282:118|278:78,1,250,0|0,1:0|0:0,0:0:0:0:
260,54,30971,6,0,B|239:66|239:66|219:64|219:64|195:79|195:79|167:76,1,100,12|2,0:0|0:0,0:0:0:0:
121,58,31455,2,0,P|98:69|80:85,1,50,2|0,0:0|1:0,0:0:0:0:
67,134,31778,6,0,P|50:152|37:174,2,50,2|2|2,0:0|0:0|0:0,0:0:0:0:
116,143,32262,1,8,0:0:0:0:
145,183,32423,2,0,P|135:206|131:230,2,50,0|2|2,0:0|0:0|0:0,0:0:0:0:
194,175,32907,6,0,B|220:184|220:184|239:201|239:201|261:203|261:203|280:217,1,100,0|0,0:0|1:0,0:0:0:0:
379,199,33552,2,0,B|400:214|400:214|408:237|408:237|426:249|426:249|426:275|426:275|439:295|439:295|433:322|433:322|438:344|438:344|424:373,1,200,8|4,0:0|0:2,0:0:0:0:
308,343,34681,1,2,0:0:0:0:
187,340,35165,1,2,0:0:0:0:
67,113,36133,5,2,0:0:0:0:
67,113,36778,1,2,0:0:0:0:
184,88,37262,1,2,0:0:0:0:
303,80,37746,1,2,0:0:0:0:
455,265,38713,5,2,0:0:0:0:
455,265,39359,1,2,0:0:0:0:
420,150,39842,1,2,0:0:0:0:
351,51,40326,1,2,0:0:0:0:
151,82,41294,5,2,0:0:0:0:
151,82,41939,1,2,0:0:0:0:
144,201,42423,1,2,0:0:0:0:
97,311,42907,1,2,0:0:0:0:
456,36,44520,6,0,B|412:33|412:33|373:55,1,89.999997253418,2|0,0:0|0:0,0:0:0:0:
346,91,45004,1,2,0:0:0:0:
328,132,45165,2,0,B|284:144|284:144|242:129,2,89.999997253418,0|2|2,0:0|0:0|0:0,0:0:0:0:
446,293,46455,5,2,0:0:0:0:
446,293,47100,2,0,B|389:328|389:328|321:335,2,134.999995880127,2|2|2,0:0|0:0|0:0,0:0:0:0:
387,211,48391,2,0,B|306:179|306:179|212:186,1,179.999994506836,2|2,0:0|0:0,0:0:0:0:
130,232,49359,1,2,0:0:0:0:
54,175,49681,6,0,B|59:131|59:131|87:95,1,89.999997253418,2|0,0:0|0:0,0:0:0:0:
126,73,50165,1,2,0:0:0:0:
170,69,50326,2,0,B|206:41|206:41|222:0,2,89.999997253418,2|2|2,0:0|0:0|0:0,0:0:0:0:
73,264,51617,5,2,0:0:0:0:
73,264,52262,2,0,B|112:322|112:322|170:350,2,134.999995880127,2|2|2,0:0|0:0|0:0,0:0:0:0:
138,190,53552,2,0,B|252:158|252:158|316:226|423:222,1,300,2|0,0:0|0:0,0:0:0:0:
502,174,54842,6,0,B|513:127|474:88|474:88|397:72,1,165.0000050354,4|2,1:2|0:0,0:0:0:0:
357,97,55488,1,10,0:0:0:0:
274,36,55810,2,0,P|263:60|249:88,2,55.0000016784668,2|2|2,1:2|0:2|0:2,0:0:0:0:
169,22,56455,2,0,B|151:10|151:10|92:2|92:2|60:7,2,110.000003356934,2|14|2,1:2|0:2|0:2,0:0:0:0:
148,123,57423,6,0,B|120:145|120:145|157:221,1,110.000003356934,0|0,1:0|0:0,0:0:0:0:
145,263,57907,2,0,B|169:283|169:283|193:283,1,55.0000016784668,0|8,0:0|0:0,0:0:0:0:
259,203,58391,2,0,P|308:205|374:216,1,110.000003356934,0|2,1:0|0:0,0:0:0:0:
452,274,59036,6,0,B|444:279|444:279|446:311|446:311|441:333,1,55.0000016784668,4|0,1:0|0:0,0:0:0:0:
402,361,59359,1,12,0:0:0:0:
311,310,59681,2,0,B|303:315|303:315|305:347|305:347|300:369,1,55.0000016784668,2|0,0:0|0:0,0:0:0:0:
250,379,60004,6,0,B|196:372|167:339|167:339|93:353,1,165.0000050354,0|2,1:0|0:0,0:0:0:0:
48,371,60649,1,10,0:0:0:0:
24,270,60971,6,0,P|36:248|37:216,1,55.0000016784668,2|2,1:2|0:2,0:0:0:0:
90,204,61294,2,0,P|101:225|130:242,1,55.0000016784668,2|0,0:2|0:0,0:0:0:0:
179,225,61617,2,0,P|192:201|192:174,1,55.0000016784668,2|0,0:0|0:0,0:0:0:0:
245,159,61939,2,0,P|274:204|326:219,1,110.000003356934,14|2,0:0|0:0,0:0:0:0:
425,190,62584,6,0,B|442:147|442:147|438:126|438:126|449:82,1,110.000003356934,2|2,1:2|0:2,0:0:0:0:
419,38,63068,2,0,B|397:31|397:31|354:51,1,55.0000016784668,2|8,0:2|0:0,0:0:0:0:
325,79,63391,2,0,B|307:88|307:88|247:78|247:78|216:55,1,110.000003356934,2|2,0:2|0:2,0:0:0:0:
128,19,64036,6,0,P|92:25|66:32,1,55.0000016784668,2|2,0:2|1:2,0:0:0:0:
19,117,64520,1,12,0:0:0:0:
68,131,64681,2,0,B|80:132|80:132|87:150|87:150|105:172,1,55.0000016784668,0|0,0:0|0:0,0:0:0:0:
171,244,65165,6,0,B|226:244|252:206|252:206|262:118,1,165.0000050354,4|2,1:2|0:0,0:0:0:0:
235,89,65810,1,10,0:0:0:0:
317,26,66133,2,0,P|341:21|368:9,2,55.0000016784668,2|2|2,1:2|0:2|0:2,0:0:0:0:
392,111,66778,2,0,B|416:127|416:127|466:133|466:133|499:126,2,110.000003356934,2|14|2,1:2|0:2|0:2,0:0:0:0:
290,128,67746,6,0,B|276:162|276:162|201:148,1,110.000003356934,0|0,1:0|0:0,0:0:0:0:
165,188,68230,2,0,B|137:178|137:178|123:156,1,55.0000016784668,0|8,0:1|0:0,0:0:0:0:
24,108,68713,2,0,P|21:157|13:219,1,110.000003356934,2|2,1:2|0:0,0:0:0:0:
64,310,69359,6,0,B|68:302|68:302|103:299|103:299|113:291,1,55.0000016784668,4|0,1:0|0:0,0:0:0:0:
145,248,69681,1,12,0:0:0:0:
201,336,70004,2,0,B|205:328|205:328|240:325|240:325|250:317,1,55.0000016784668,2|0,0:0|0:0,0:0:0:0:
285,277,70326,6,0,B|295:231|252:190|252:190|261:118,1,165.0000050354,2|2,1:2|0:0,0:0:0:0:
291,78,70971,1,8,0:0:0:0:
389,46,71294,6,0,P|410:58|443:59,1,55.0000016784668,2|2,1:2|0:2,0:0:0:0:
455,112,71617,2,0,P|433:123|416:152,1,55.0000016784668,2|0,0:2|0:0,0:0:0:0:
434,201,71940,2,0,P|457:214|484:214,1,55.0000016784668,2|0,0:2|0:0,0:0:0:0:
500,267,72262,2,0,P|454:296|439:348,1,110.000003356934,12|0,1:2|0:0,0:0:0:0:
335,352,72907,6,0,B|294:341|294:341|275:346|275:346|224:339,1,110.000003356934,2|2,1:2|0:2,0:0:0:0:
194,296,73391,2,0,B|171:279|171:279|141:284,1,55.0000016784668,2|0,0:2|0:0,0:0:0:0:
99,308,73713,2,0,B|83:313|83:313|63:310|63:310|47:302,2,55.0000016784668,2|2|2,0:2|1:2|0:2,0:0:0:0:
109,152,74520,6,0,B|109:106|102:71|102:71|100:64|100:64|97:58|97:58|92:59|92:59|91:64|91:64|92:69,1,110.000003356934,0|8,1:0|0:0,0:0:0:0:
273,118,75488,6,0,P|359:68|457:58,1,200,4|8,1:1|0:0,0:0:0:0:
504,145,76455,2,0,B|388:195|477:281|354:332,1,250,2|2,1:1|0:1,0:0:0:0:
315,302,77423,1,8,0:0:0:0:
265,312,77584,2,0,P|249:330|237:352,2,50,2|2|2,0:2|0:2|0:2,0:0:0:0:
242,267,78068,5,0,1:0:0:0:
193,253,78230,2,0,P|171:241|152:224,2,50,2|0|2,0:0|0:0|0:0,0:0:0:0:
254,174,78875,2,0,P|237:155|225:133,2,50,2|2|2,0:0|1:2|0:0,0:0:0:0:
354,169,79520,1,2,0:2:0:0:
339,121,79681,2,0,P|329:97|326:73,1,50,2|2,0:2|0:2,0:0:0:0:
366,42,80004,6,0,B|390:50|390:50|414:53|414:53|431:68|431:68|455:79|455:79|468:104|468:104|486:122,1,150,8|0,0:0|0:0,0:0:0:0:
485,170,80649,6,0,P|419:199|331:292,1,200,0|8,1:0|0:0,0:0:0:0:
245,340,81617,2,0,B|168:229|108:335|23:209,1,250,2|2,1:1|0:1,0:0:0:0:
37,175,82584,1,8,0:2:0:0:
56,128,82746,2,0,P|48:101|36:77,2,50,2|2|2,0:2|0:2|0:2,0:0:0:0:
102,146,83230,5,0,1:0:0:0:
127,188,83391,2,0,P|145:204|167:215,2,50,2|0|2,0:0|0:0|0:0,0:0:0:0:
72,271,84036,2,0,P|83:293|100:310,2,50,2|2|2,0:0|1:2|0:0,0:0:0:0:
0,340,84681,6,0,P|-23:367|12:368,2,89.999997253418,2|2|2,0:0|0:0|0:0,0:0:0:0:
48,334,85488,1,2,0:0:0:0:
