osu file format v14

[General]
AudioFilename: audio.mp3
AudioLeadIn: 0
PreviewTime: 34092
Countdown: 0
SampleSet: None
StackLeniency: 0.2
Mode: 0
LetterboxInBreaks: 0
EpilepsyWarning: 1
WidescreenStoryboard: 1

[Editor]
Bookmarks: 13427,23749,34072,44394,54717,59878,65040,70201,70866,75362,85685
DistanceSpacing: 1.3
BeatDivisor: 8
GridSize: 32
TimelineZoom: 3.999999

[Metadata]
Title:Yonakajikaru [TV Size]
TitleUnicode:ヨナカジカル【TVサイズ】
Artist:Tamaki to Yumine (CV*Naganawa Maria, Maekawa Ryoko)
ArtistUnicode:たまきとゆみね(CV*長縄まりあ・前川涼子)
Creator:rrtyui
Version:Insane
Source:ステラのまほう
Tags:ed stella no mahou magic of stella ending ここのか kokonoka 黒木人生 jinsei kuroki r・o・n ron future bass tukamoto7km kogumano-putaro KogumaX tyui Sing NeilPerry KuranteMelodii Firis Mistlud Lulu-
BeatmapID:1897689
BeatmapSetID:747401

[Difficulty]
HPDrainRate:5
CircleSize:3.2
OverallDifficulty:7
ApproachRate:8
SliderMultiplier:2.7
SliderTickRate:1

[Events]
//Background and Video events
0,0,"bg.jpg",0,0
//Break Periods
//Storyboard Layer 0 (Background)
//Storyboard Layer 1 (Fail)
//Storyboard Layer 2 (Pass)
//Storyboard Layer 3 (Foreground)
Sprite,Foreground,Centre,"sb\text\lores\title\004d.png",296.3281,206.875 S,0,0,,0.46875 C,0,0,,242,242,242 F,0,8391,,0,1 F,0,11617,,1,0
Sprite,Foreground,Centre,"sb\text\lores\title\004d.png",296.3281,206.875 S,0,0,,0.46875 C,0,0,,72,72,72 F,0,8391,,0,1 P,0,8391,11617,A F,0,11617,,1,0
Sprite,Foreground,Centre,"sb\text\lores\title\0061.png",308.2813,206.875 S,0,0,,0.46875 C,0,0,,242,242,242 F,0,8391,,0,1 F,0,11617,,1,0
Sprite,Foreground,Centre,"sb\text\lores\title\0061.png",308.2813,206.875 S,0,0,,0.46875 C,0,0,,72,72,72 F,0,8391,,0,1 P,0,8391,11617,A F,0,11617,,1,0
Sprite,Foreground,Centre,"sb\text\lores\title\0070.png",318.125,206.875 S,0,0,,0.46875 C,0,0,,242,242,242 F,0,8391,,0,1 F,0,11617,,1,0
Sprite,Foreground,Centre,"sb\text\lores\title\0070.png",318.125,206.875 S,0,0,,0.46875 C,0,0,,72,72,72 F,0,8391,,0,1 P,0,8391,11617,A F,0,11617,,1,0
Sprite,Foreground,Centre,"sb\text\lores\title\0070.png",328.4375,206.875 S,0,0,,0.46875 C,0,0,,242,242,242 F,0,8391,,0,1 F,0,11617,,1,0
Sprite,Foreground,Centre,"sb\text\lores\title\0070.png",328.4375,206.875 S,0,0,,0.46875 C,0,0,,72,72,72 F,0,8391,,0,1 P,0,8391,11617,A F,0,11617,,1,0
Sprite,Foreground,Centre,"sb\text\lores\title\0065.png",338.2813,206.875 S,0,0,,0.46875 C,0,0,,242,242,242 F,0,8391,,0,1 F,0,11617,,1,0
Sprite,Foreground,Centre,"sb\text\lores\title\0065.png",338.2813,206.875 S,0,0,,0.46875 C,0,0,,72,72,72 F,0,8391,,0,1 P,0,8391,11617,A F,0,11617,,1,0
Sprite,Foreground,Centre,"sb\text\lores\title\0072.png",346.9531,206.875 S,0,0,,0.46875 C,0,0,,242,242,242 F,0,8391,,0,1 F,0,11617,,1,0
Sprite,Foreground,Centre,"sb\text\lores\title\0072.png",346.9531,206.875 S,0,0,,0.46875 C,0,0,,72,72,72 F,0,8391,,0,1 P,0,8391,11617,A F,0,11617,,1,0
Sprite,Foreground,Centre,"sb\text\lores\sub\0072.png",308.9844,221.875 S,0,0,,0.46875 C,0,0,,242,242,242 F,0,8391,,0,1 F,0,11617,,1,0
Sprite,Foreground,Centre,"sb\text\lores\sub\0072.png",308.9844,221.875 S,0,0,,0.46875 C,0,0,,72,72,72 F,0,8391,,0,1 P,0,8391,11617,A F,0,11617,,1,0
Sprite,Foreground,Centre,"sb\text\lores\sub\0072.png",313.2031,221.875 S,0,0,,0.46875 C,0,0,,242,242,242 F,0,8391,,0,1 F,0,11617,,1,0
Sprite,Foreground,Centre,"sb\text\lores\sub\0072.png",313.2031,221.875 S,0,0,,0.46875 C,0,0,,72,72,72 F,0,8391,,0,1 P,0,8391,11617,A F,0,11617,,1,0
Sprite,Foreground,Centre,"sb\text\lores\sub\0074.png",317.6563,221.875 S,0,0,,0.46875 C,0,0,,242,242,242 F,0,8391,,0,1 F,0,11617,,1,0
Sprite,Foreground,Centre,"sb\text\lores\sub\0074.png",317.6563,221.875 S,0,0,,0.46875 C,0,0,,72,72,72 F,0,8391,,0,1 P,0,8391,11617,A F,0,11617,,1,0
Sprite,Foreground,Centre,"sb\text\lores\sub\0079.png",322.5781,221.875 S,0,0,,0.46875 C,0,0,,242,242,242 F,0,8391,,0,1 F,0,11617,,1,0
Sprite,Foreground,Centre,"sb\text\lores\sub\0079.png",322.5781,221.875 S,0,0,,0.46875 C,0,0,,72,72,72 F,0,8391,,0,1 P,0,8391,11617,A F,0,11617,,1,0
Sprite,Foreground,Centre,"sb\text\lores\sub\0075.png",327.7344,221.875 S,0,0,,0.46875 C,0,0,,242,242,242 F,0,8391,,0,1 F,0,11617,,1,0
Sprite,Foreground,Centre,"sb\text\lores\sub\0075.png",327.7344,221.875 S,0,0,,0.46875 C,0,0,,72,72,72 F,0,8391,,0,1 P,0,8391,11617,A F,0,11617,,1,0
Sprite,Foreground,Centre,"sb\text\lores\sub\0069.png",331.7188,221.875 S,0,0,,0.46875 C,0,0,,242,242,242 F,0,8391,,0,1 F,0,11617,,1,0
Sprite,Foreground,Centre,"sb\text\lores\sub\0069.png",331.7188,221.875 S,0,0,,0.46875 C,0,0,,72,72,72 F,0,8391,,0,1 P,0,8391,11617,A F,0,11617,,1,0
Sprite,Foreground,Centre,"sb\text\lores\title\0053.png",269.1406,249.375 S,0,0,,0.46875 C,0,0,,242,242,242 F,0,8391,,0,1 F,0,11617,,1,0
Sprite,Foreground,Centre,"sb\text\lores\title\0053.png",269.1406,249.375 S,0,0,,0.46875 C,0,0,,72,72,72 F,0,8391,,0,1 P,0,8391,11617,A F,0,11617,,1,0
Sprite,Foreground,Centre,"sb\text\lores\title\0074.png",278.5156,249.375 S,0,0,,0.46875 C,0,0,,242,242,242 F,0,8391,,0,1 F,0,11617,,1,0
Sprite,Foreground,Centre,"sb\text\lores\title\0074.png",278.5156,249.375 S,0,0,,0.46875 C,0,0,,72,72,72 F,0,8391,,0,1 P,0,8391,11617,A F,0,11617,,1,0
Sprite,Foreground,Centre,"sb\text\lores\title\006f.png",287.8906,249.375 S,0,0,,0.46875 C,0,0,,242,242,242 F,0,8391,,0,1 F,0,11617,,1,0
Sprite,Foreground,Centre,"sb\text\lores\title\006f.png",287.8906,249.375 S,0,0,,0.46875 C,0,0,,72,72,72 F,0,8391,,0,1 P,0,8391,11617,A F,0,11617,,1,0
Sprite,Foreground,Centre,"sb\text\lores\title\0072.png",296.7969,249.375 S,0,0,,0.46875 C,0,0,,242,242,242 F,0,8391,,0,1 F,0,11617,,1,0
Sprite,Foreground,Centre,"sb\text\lores\title\0072.png",296.7969,249.375 S,0,0,,0.46875 C,0,0,,72,72,72 F,0,8391,,0,1 P,0,8391,11617,A F,0,11617,,1,0
Sprite,Foreground,Centre,"sb\text\lores\title\0079.png",305.7031,249.375 S,0,0,,0.46875 C,0,0,,242,242,242 F,0,8391,,0,1 F,0,11617,,1,0
Sprite,Foreground,Centre,"sb\text\lores\title\0079.png",305.7031,249.375 S,0,0,,0.46875 C,0,0,,72,72,72 F,0,8391,,0,1 P,0,8391,11617,A F,0,11617,,1,0
Sprite,Foreground,Centre,"sb\text\lores\title\0062.png",315.7813,249.375 S,0,0,,0.46875 C,0,0,,242,242,242 F,0,8391,,0,1 F,0,11617,,1,0
Sprite,Foreground,Centre,"sb\text\lores\title\0062.png",315.7813,249.375 S,0,0,,0.46875 C,0,0,,72,72,72 F,0,8391,,0,1 P,0,8391,11617,A F,0,11617,,1,0
Sprite,Foreground,Centre,"sb\text\lores\title\006f.png",325.8594,249.375 S,0,0,,0.46875 C,0,0,,242,242,242 F,0,8391,,0,1 F,0,11617,,1,0
Sprite,Foreground,Centre,"sb\text\lores\title\006f.png",325.8594,249.375 S,0,0,,0.46875 C,0,0,,72,72,72 F,0,8391,,0,1 P,0,8391,11617,A F,0,11617,,1,0
Sprite,Foreground,Centre,"sb\text\lores\title\0061.png",335.4688,249.375 S,0,0,,0.46875 C,0,0,,242,242,242 F,0,8391,,0,1 F,0,11617,,1,0
Sprite,Foreground,Centre,"sb\text\lores\title\0061.png",335.4688,249.375 S,0,0,,0.46875 C,0,0,,72,72,72 F,0,8391,,0,1 P,0,8391,11617,A F,0,11617,,1,0
Sprite,Foreground,Centre,"sb\text\lores\title\0072.png",344.1406,249.375 S,0,0,,0.46875 C,0,0,,242,242,242 F,0,8391,,0,1 F,0,11617,,1,0
Sprite,Foreground,Centre,"sb\text\lores\title\0072.png",344.1406,249.375 S,0,0,,0.46875 C,0,0,,72,72,72 F,0,8391,,0,1 P,0,8391,11617,A F,0,11617,,1,0
Sprite,Foreground,Centre,"sb\text\lores\title\0064.png",353.2813,249.375 S,0,0,,0.46875 C,0,0,,242,242,242 F,0,8391,,0,1 F,0,11617,,1,0
Sprite,Foreground,Centre,"sb\text\lores\title\0064.png",353.2813,249.375 S,0,0,,0.46875 C,0,0,,72,72,72 F,0,8391,,0,1 P,0,8391,11617,A F,0,11617,,1,0
Sprite,Foreground,Centre,"sb\text\lores\title\0065.png",363.125,249.375 S,0,0,,0.46875 C,0,0,,242,242,242 F,0,8391,,0,1 F,0,11617,,1,0
Sprite,Foreground,Centre,"sb\text\lores\title\0065.png",363.125,249.375 S,0,0,,0.46875 C,0,0,,72,72,72 F,0,8391,,0,1 P,0,8391,11617,A F,0,11617,,1,0
Sprite,Foreground,Centre,"sb\text\lores\title\0072.png",371.7969,249.375 S,0,0,,0.46875 C,0,0,,242,242,242 F,0,8391,,0,1 F,0,11617,,1,0
Sprite,Foreground,Centre,"sb\text\lores\title\0072.png",371.7969,249.375 S,0,0,,0.46875 C,0,0,,72,72,72 F,0,8391,,0,1 P,0,8391,11617,A F,0,11617,,1,0
Sprite,Foreground,Centre,"sb\text\lores\sub\0072.png",308.9844,264.375 S,0,0,,0.46875 C,0,0,,242,242,242 F,0,8391,,0,1 F,0,11617,,1,0
Sprite,Foreground,Centre,"sb\text\lores\sub\0072.png",308.9844,264.375 S,0,0,,0.46875 C,0,0,,72,72,72 F,0,8391,,0,1 P,0,8391,11617,A F,0,11617,,1,0
Sprite,Foreground,Centre,"sb\text\lores\sub\0072.png",313.2031,264.375 S,0,0,,0.46875 C,0,0,,242,242,242 F,0,8391,,0,1 F,0,11617,,1,0
Sprite,Foreground,Centre,"sb\text\lores\sub\0072.png",313.2031,264.375 S,0,0,,0.46875 C,0,0,,72,72,72 F,0,8391,,0,1 P,0,8391,11617,A F,0,11617,,1,0
Sprite,Foreground,Centre,"sb\text\lores\sub\0074.png",317.6563,264.375 S,0,0,,0.46875 C,0,0,,242,242,242 F,0,8391,,0,1 F,0,11617,,1,0
Sprite,Foreground,Centre,"sb\text\lores\sub\0074.png",317.6563,264.375 S,0,0,,0.46875 C,0,0,,72,72,72 F,0,8391,,0,1 P,0,8391,11617,A F,0,11617,,1,0
Sprite,Foreground,Centre,"sb\text\lores\sub\0079.png",322.5781,264.375 S,0,0,,0.46875 C,0,0,,242,242,242 F,0,8391,,0,1 F,0,11617,,1,0
Sprite,Foreground,Centre,"sb\text\lores\sub\0079.png",322.5781,264.375 S,0,0,,0.46875 C,0,0,,72,72,72 F,0,8391,,0,1 P,0,8391,11617,A F,0,11617,,1,0
Sprite,Foreground,Centre,"sb\text\lores\sub\0075.png",327.7344,264.375 S,0,0,,0.46875 C,0,0,,242,242,242 F,0,8391,,0,1 F,0,11617,,1,0
Sprite,Foreground,Centre,"sb\text\lores\sub\0075.png",327.7344,264.375 S,0,0,,0.46875 C,0,0,,72,72,72 F,0,8391,,0,1 P,0,8391,11617,A F,0,11617,,1,0
Sprite,Foreground,Centre,"sb\text\lores\sub\0069.png",331.7188,264.375 S,0,0,,0.46875 C,0,0,,242,242,242 F,0,8391,,0,1 F,0,11617,,1,0
Sprite,Foreground,Centre,"sb\text\lores\sub\0069.png",331.7188,264.375 S,0,0,,0.46875 C,0,0,,72,72,72 F,0,8391,,0,1 P,0,8391,11617,A F,0,11617,,1,0
//Storyboard Sound Samples

[TimingPoints]
3230,645.161290322581,4,2,1,75,1,0
3230,-100,4,2,1,75,0,0
3552,-100,4,2,1,75,0,0
5165,-100,4,2,2,75,0,0
5810,-100,4,2,1,75,0,0
6294,-100,4,3,1,75,0,0
6455,-100,4,2,2,75,0,0
6778,-100,4,2,1,75,0,0
7745,-100,4,2,2,75,0,0
8068,-100,4,2,1,75,0,0
10326,-100,4,2,2,75,0,0
10971,-100,4,2,1,75,0,0
11455,-100,4,3,1,75,0,0
11616,-100,4,2,2,75,0,0
11939,-100,4,2,1,75,0,0
12262,-66.6666666666667,4,2,1,75,0,0
12907,-100,4,1,2,75,0,0
13229,-100,4,2,1,75,0,0
13552,-80,4,2,1,70,0,0
15487,-80,4,2,2,70,0,0
16132,-80,4,2,1,70,0,0
18068,-80,4,2,2,70,0,0
18390,-80,4,2,1,70,0,0
20649,-80,4,2,2,70,0,0
21294,-80,4,2,1,70,0,0
22584,-66.6666666666667,4,2,2,70,0,0
23230,-80,4,2,2,70,0,0
24727,-80,4,2,1,70,0,0
25810,-80,4,2,2,70,0,0
26132,-80,4,2,1,70,0,0
30971,-80,4,2,2,70,0,0
31616,-80,4,2,1,70,0,0
32907,-66.6666666666667,4,2,2,70,0,0
33552,-80,4,2,2,70,0,0
34197,-133.333333333333,4,2,6,60,0,0
44519,-133.333333333333,4,2,6,60,0,0
45810,-133.333333333333,4,2,1,60,0,0
46455,-133.333333333333,4,2,6,60,0,0
46778,-133.333333333333,4,2,1,60,0,0
47100,-133.333333333333,4,2,6,60,0,0
48390,-133.333333333333,4,2,2,60,0,0
49681,-133.333333333333,4,2,6,60,0,0
50326,-133.333333333333,4,2,1,60,0,0
50649,-133.333333333333,4,2,6,60,0,0
50971,-133.333333333333,4,2,1,60,0,0
51616,-133.333333333333,4,2,6,60,0,0
51939,-133.333333333333,4,2,1,60,0,0
52261,-133.333333333333,4,2,6,60,0,0
53552,-133.333333333333,4,2,99,60,0,0
54519,-133.333333333333,4,2,1,60,0,0
54842,-80,4,2,3,80,0,1
55165,-80,4,2,1,80,0,1
55487,-80,4,2,2,80,0,1
55810,-80,4,2,1,80,0,1
56778,-80,4,2,2,80,0,1
57100,-80,4,2,1,80,0,1
58068,-80,4,2,2,80,0,1
58229,-80,4,2,1,80,0,1
59359,-80,4,2,2,80,0,0
59681,-80,4,2,1,80,0,0
60004,-80,4,2,1,80,0,1
61939,-80,4,2,2,80,0,1
62261,-80,4,2,1,80,0,1
64519,-80,4,2,2,80,0,1
64520,-80,4,2,2,80,0,0
64681,-80,4,2,1,80,0,0
65165,-80,4,2,3,80,0,1
65245,-80,4,2,1,80,0,1
65810,-80,4,2,2,80,0,1
66133,-80,4,2,1,80,0,1
68391,-80,4,2,2,80,0,1
68552,-80,4,2,1,80,0,1
69681,-80,4,2,2,80,0,0
69923,-80,4,2,1,80,0,0
70326,-80,4,2,1,80,0,1
70971,-80,4,2,2,80,0,1
71294,-80,4,2,1,80,0,1
72261,-80,4,2,2,80,0,1
72907,-80,4,2,1,80,0,1
73552,-80,4,2,4,80,0,1
73713,-80,4,2,1,80,0,1
74842,-100,4,2,6,80,0,0
75165,-100,4,2,1,80,0,0
75487,-100,4,2,1,65,0,0
80003,-100,4,2,2,65,0,0
80649,-100,4,2,1,65,0,0
84520,-133.333333333333,4,2,1,65,0,0

[Colours]
Combo1 : 28,211,255
Combo2 : 185,86,176
Combo3 : 252,94,178
Combo4 : 255,209,1
Combo5 : 146,227,0
Combo6 : 0,204,155

[HitObjects]
32,108,3230,6,0,P|66:97|92:126,1,67.5,4|0,1:2|0:0,0:0:0:0:
159,67,3552,1,2,0:1:0:0:
244,75,3713,2,0,P|264:104|262:135,2,67.5,2|8|0,0:1|0:0|0:0,0:0:0:0:
307,15,4197,2,0,L|393:33,1,67.5,2|0,1:1|0:0,0:0:0:0:
467,22,4520,6,0,P|458:53|474:81,1,67.5
427,157,4842,2,0,P|443:189|430:229,1,67.5
370,277,5165,2,0,P|361:294|365:314,2,33.75,14|0|2,0:0|0:0|0:0,0:0:0:0:
308,213,5488,2,0,P|280:210|269:213,1,33.75,2|0,0:0|0:0,0:0:0:0:
240,192,5649,2,0,P|214:203|206:211,1,33.75,2|0,0:0|0:0,0:0:0:0:
148,256,5810,5,0,1:0:0:0:
148,256,6133,1,0,0:0:0:0:
68,231,6294,1,0,0:0:0:0:
45,144,6455,2,0,B|55:110|26:79|61:41,1,101.25,8|0,2:2|0:0,0:0:0:0:
75,32,6778,1,0,0:0:0:0:
154,69,6939,1,2,0:1:0:0:
236,39,7100,6,0,B|256:50|277:48|277:48|305:54,1,67.5,2|2,0:0|0:0,0:0:0:0:
368,112,7423,2,0,B|358:132|362:153|362:153|336:136,1,67.5,2|2,1:2|0:0,0:0:0:0:
267,186,7746,2,0,B|246:200|246:200|237:221|237:221|212:226|212:226|214:267|190:303,1,135,8|0,0:2|0:0,0:0:0:0:
3,360,8391,6,0,P|37:359|62:381,1,67.5,0|0,1:0|0:0,0:0:0:0:
55,274,8713,1,2,0:1:0:0:
114,210,8875,2,0,P|152:188|183:190,2,67.5,2|8|0,0:1|0:0|0:0,0:0:0:0:
37,167,9359,2,0,L|65:84,1,67.5,2|0,1:1|0:0,0:0:0:0:
20,12,9681,6,0,P|54:18|82:1,1,67.5
157,40,10004,2,0,P|185:23|218:29,1,67.5
278,89,10326,2,0,P|294:91|309:84,2,33.75,14|0|2,0:2|0:0|0:0,0:0:0:0:
207,143,10649,2,0,P|198:165|203:191,1,33.75,2|0,0:0|0:0,0:0:0:0:
170,209,10810,2,0,P|178:233|204:249,1,33.75,2|0,0:0|0:0,0:0:0:0:
247,286,10971,5,0,1:0:0:0:
247,286,11294,1,0,0:0:0:0:
329,303,11455,1,0,0:0:0:0:
392,363,11617,2,0,B|429:329|398:291|451:268,1,101.25,8|0,0:0|0:0,0:0:0:0:
474,247,11939,2,0,L|479:185,1,33.75,0|0,0:0|0:0,0:0:0:0:
463,195,12100,1,2,0:1:0:0:
478,108,12262,6,0,B|482:88|482:88|463:82|463:82|453:110,2,50.6250019311906
374,29,12584,2,0,B|381:52|381:52|371:61|371:61|351:48|351:48|353:22,2,50.6250019311906,0|0|0,1:0|0:0|0:0,0:0:0:0:
274,55,12907,2,0,B|215:46|215:46|207:48|207:48|145:15,2,135,8|0|0,2:2|0:0|1:0,0:0:0:0:
391,242,13875,5,0,0:0:0:0:
409,324,14036,1,0,0:0:0:0:
340,378,14197,2,0,B|275:397|241:346|241:346|249:332|200:291,1,168.75,0|2,0:0|1:0,0:0:0:0:
155,227,14681,2,0,B|121:298|118:236|40:371,1,168.75
29,233,15165,2,0,P|30:188|60:156,1,84.375
113,94,15488,2,0,L|103:43,1,42.1875,12|0,0:0|0:0,0:0:0:0:
86,40,15649,6,0,B|53:53|1:52,2,84.375,0|2|2,0:0|0:0|0:0,0:0:0:0:
162,0,16133,1,0,1:0:0:0:
231,47,16294,2,0,P|281:51|319:60,2,84.375,2|2|2,0:0|0:0|0:0,0:0:0:0:
387,17,16778,1,8,0:0:0:0:
452,77,16939,1,0,0:0:0:0:
407,153,17100,2,0,B|415:203|415:203|428:212|428:212|450:272,1,126.5625,2|0,0:0|0:0,0:0:0:0:
470,282,17423,6,0,B|427:309|427:309|415:305|415:305|311:340,1,168.75,0|2,0:0|1:2,0:0:0:0:
262,268,17907,1,0,0:0:0:0:
189,317,18068,2,0,B|115:264|82:288|82:288|70:288|70:288|17:264|12:163,1,253.125,8|0,0:0|0:0,0:0:0:0:
53,106,18713,5,0,1:0:0:0:
261,22,19036,2,0,B|366:29|331:42|384:64|430:46,2,168.75,0|8|0,0:0|0:0|1:0,0:0:0:0:
190,80,19842,2,0,B|150:133|173:188|256:197,1,168.75
328,158,20326,2,0,P|365:147|404:177,1,84.375
456,240,20649,2,0,L|449:281,1,42.1875,12|0,0:0|0:0,0:0:0:0:
429,295,20810,6,0,P|447:329|460:373,2,84.375,0|2|2,0:0|0:0|0:0,0:0:0:0:
355,252,21294,1,0,1:0:0:0:
274,231,21455,2,0,P|235:240|177:244,2,84.375,2|2|2,0:0|0:0|0:0,0:0:0:0:
120,194,21939,1,8,0:0:0:0:
41,230,22100,2,0,B|20:295|47:314|47:314|70:324|93:393,1,168.75,0|2,0:0|0:0,0:0:0:0:
178,377,22584,6,0,B|192:364|192:364|181:351|181:351|168:370,2,50.6250019311906
225,262,22907,2,0,B|240:283|240:283|250:234,2,50.6250019311906,0|0|0,1:0|0:0|0:0,0:0:0:0:
321,316,23230,2,0,B|372:252|413:326|469:207|468:124,1,253.125,8|0,0:0|0:0,0:0:0:0:
408,68,23875,6,0,B|314:55|243:77|260:102|260:102|182:121|94:153,1,337.5,4|8,1:2|0:0,0:0:0:0:
8,318,24842,2,0,B|125:237|238:314|288:384|375:194,1,421.875,0|0,1:0|0:0,0:0:0:0:
344,118,25810,2,0,L|263:99,1,42.1875,12|0,0:0|0:0,0:0:0:0:
285,91,25971,6,0,P|245:101|179:113,2,84.375,0|2|2,0:0|0:0|0:0,0:0:0:0:
345,28,26455,1,0,1:0:0:0:
427,49,26617,2,0,P|462:72|502:88,2,84.375,2|2|2,0:0|0:0|0:0,0:0:0:0:
512,173,27100,1,8,0:0:0:0:
408,303,27423,5,2,0:0:0:0:
336,259,27584,2,0,P|293:252|246:251,1,84.375,2|0,0:0|0:0,0:0:0:0:
174,288,27907,1,2,0:0:0:0:
138,368,28068,2,0,P|98:356|60:339,1,84.375,2|0,1:2|0:0,0:0:0:0:
20,262,28391,6,0,B|45:215|45:215|52:211|52:211|65:157|65:157|56:152|56:152|60:108|60:108|54:103|54:103|85:81|85:81|111:29,1,253.125,8|0,0:0|0:0,0:0:0:0:
181,14,29036,6,0,B|234:111|403:42|439:105|340:125|468:185,1,337.5,0|8,1:0|0:0,0:0:0:0:
471,336,30004,2,0,B|520:326|558:349|523:384|401:400|338:259|287:355|375:187|229:266|255:201|187:209,1,421.875,0|0,1:0|0:0,0:0:0:0:
109,251,30971,2,0,L|96:295,1,42.1875,12|0,0:0|0:0,0:0:0:0:
74,300,31133,6,0,P|83:334|91:385,2,84.375,0|2|2,0:0|0:0|0:0,0:0:0:0:
24,231,31617,1,0,1:0:0:0:
74,161,31778,2,0,P|79:122|92:75,2,84.375,2|2|2,0:0|0:0|0:0,0:0:0:0:
49,5,32262,1,8,0:0:0:0:
230,47,32584,2,0,P|246:56|271:49,2,42.1875,2|0|2,0:0|0:0|0:0,0:0:0:0:
351,26,32907,6,0,B|363:39|363:39|377:33|377:33|366:12,2,50.6250019311906
455,74,33230,2,0,B|470:94|470:94|434:85,2,50.6250019311906,0|0|0,1:0|0:0|0:0,0:0:0:0:
488,181,33552,2,0,B|455:205|454:257|409:226|368:223|411:278|381:286|350:285|350:285|328:338|250:307,1,253.125,8|0,0:0|2:0,0:0:0:0:
213,278,34197,5,4,0:2:0:0:
201,272,34681,1,2,0:0:0:0:
189,268,35165,1,2,0:0:0:0:
30,72,36133,2,0,P|129:66|188:46,1,151.875005793572,2|0,0:0|0:0,0:0:0:0:
262,82,36778,5,2,0:0:0:0:
270,90,37262,1,2,0:0:0:0:
278,101,37746,1,2,0:0:0:0:
489,282,38713,2,0,P|414:294|344:323,1,151.875005793572,2|0,0:0|0:0,0:0:0:0:
266,281,39359,5,2,0:0:0:0:
260,269,39843,1,2,0:0:0:0:
256,257,40327,1,2,0:0:0:0:
0,159,41294,2,0,P|23:231|26:306,1,151.875005793572,2|0,0:0|0:0,0:0:0:0:
82,377,41939,5,2,0:0:0:0:
94,373,42423,1,2,0:0:0:0:
106,367,42907,1,2,0:0:0:0:
452,317,44520,6,0,B|449:259|423:292|417:194,1,101.250003862381,2|0,0:0|0:0,0:0:0:0:
436,140,45004,1,2,0:0:0:0:
354,163,45165,2,0,P|305:149|254:147,2,101.250003862381,0|2|2,0:0|0:0|0:0,0:0:0:0:
58,56,46455,2,0,B|22:20|100:10|84:131,1,101.250003862381,2|2,0:0|0:0,0:0:0:0:
75,174,46939,1,0,0:0:0:0:
1,215,47100,6,0,P|76:220|147:247,2,151.875005793572,2|2|2,0:0|0:0|0:0,0:0:0:0:
157,331,48391,2,0,B|218:233|152:241|241:131,1,202.500007724762,2|2,0:0|0:0,0:0:0:0:
411,196,49359,1,2,0:0:0:0:
486,165,49520,1,0,0:0:0:0:
500,81,49681,6,0,B|451:45|464:81|389:56,1,101.250003862381,2|0,0:0|0:0,0:0:0:0:
340,6,50165,1,2,0:0:0:0:
323,87,50326,2,0,P|277:108|227:115,2,101.250003862381,2|2|2,0:0|0:0|0:0,0:0:0:0:
29,296,51617,2,0,B|-15:303|8:231|107:325,1,101.250003862381,2|0,0:0|0:0,0:0:0:0:
132,357,52100,1,0,0:0:0:0:
213,377,52262,6,0,P|168:308|149:222,2,151.875005793572,2|2|2,0:0|0:0|0:0,0:0:0:0:
376,333,53552,2,0,B|444:190|385:205|359:152|366:63|443:59,1,303.750011587143,2|0,0:0|0:0,0:0:0:0:
429,60,54842,6,0,B|393:72|393:72|361:69|342:106,1,84.375,4|0,1:2|0:0,0:0:0:0:
267,118,55165,1,2,0:0:0:0:
191,70,55326,1,2,0:0:0:0:
103,52,55488,2,0,B|70:80|70:80|85:147,1,84.375,10|0,0:0|0:0,0:0:0:0:
133,192,55810,6,0,B|158:214|146:235|162:282,2,84.375,2|2|2,1:2|0:2|0:2,0:0:0:0:
66,256,56294,1,0,0:0:0:0:
87,347,56455,2,0,P|158:315|231:293,1,126.5625,2|0,1:2|0:0,0:0:0:0:
252,272,56778,2,0,B|277:284|297:280|297:280|386:328,1,126.5625,14|0,0:2|0:0,0:0:0:0:
409,348,57100,2,0,B|456:281|469:226,1,126.5625,2|0,0:2|0:0,0:0:0:0:
495,188,57423,6,0,B|481:179|481:179|450:136|450:136|443:144|443:144|401:118|401:118|392:113|392:113|370:80|370:80,1,168.75,0|0,1:0|0:0,0:0:0:0:
312,30,57907,1,0,0:0:0:0:
239,78,58068,2,0,B|223:98|223:98|159:84,1,84.375,8|0,0:0|0:0,0:0:0:0:
96,145,58391,6,0,B|149:185|101:220|141:263,1,126.5625,0|0,1:0|0:0,0:0:0:0:
176,301,58713,6,0,L|242:306,1,42.1875,2|0,0:0|0:0,0:0:0:0:
238,291,58875,1,2,0:0:0:0:
322,323,59036,2,0,B|363:301|363:301|369:301|369:301|386:292|386:292|391:282|391:282|465:257,1,126.5625,4|0,1:0|0:0,0:0:0:0:
480,273,59359,6,0,B|502:235|502:235|496:194,1,84.375,12|0,0:0|0:0,0:0:0:0:
458,114,59681,2,0,B|448:121|448:121|426:125|408:104|408:104|410:99|410:99|396:75|377:72|377:72|326:77,1,126.5625,2|0,0:0|0:0,0:0:0:0:
309,75,60004,6,0,P|261:100|204:103,1,84.375,0|0,1:0|0:0,0:0:0:0:
150,78,60326,1,2,0:0:0:0:
102,151,60488,1,2,0:0:0:0:
15,178,60649,2,0,B|30:213|30:213|39:268,1,84.375,10|0,0:0|0:0,0:0:0:0:
119,292,60971,6,0,P|137:283|160:284,1,42.1875,2|0,1:2|0:0,0:0:0:0:
193,249,61133,2,0,P|215:247|234:254,1,42.1875,2|0,0:2|0:0,0:0:0:0:
283,237,61294,2,0,B|317:259|279:257|340:298,1,84.375,2|0,0:2|0:0,0:0:0:0:
426,302,61617,6,0,P|433:282|433:261,1,42.1875,2|0,0:0|0:0,0:0:0:0:
459,224,61778,2,0,P|452:204|439:187,1,42.1875,0|0,0:0|0:0,0:0:0:0:
445,137,61939,2,0,B|409:115|409:115|356:122,1,84.375,14|0,0:0|0:0,0:0:0:0:
295,179,62262,2,0,B|258:174|269:182|201:196,1,84.375,2|0,0:0|0:0,0:0:0:0:
95,207,62584,6,0,B|157:171|135:92|85:103,1,126.5625,2|0,1:2|0:0,0:0:0:0:
86,100,62907,1,2,0:2:0:0:
123,16,63068,2,0,P|164:8|228:53,1,84.375,2|8,0:2|0:0,0:0:0:0:
276,75,63391,2,0,B|289:111|270:100|301:162,1,84.375,2|0,0:2|1:0,0:0:0:0:
397,124,63713,6,0,P|383:185|377:258,1,126.5625,2|0,0:2|0:0,0:0:0:0:
389,269,64036,1,2,0:2:0:0:
317,323,64197,2,0,B|301:305|301:305|294:307|294:307|263:297|263:297|189:295,1,126.5625,2|0,1:2|0:0,0:0:0:0:
179,305,64520,5,12,0:0:0:0:
95,278,64681,1,0,0:0:0:0:
26,334,64842,2,0,B|48:282|48:282|37:273|37:273|32:248|32:248|28:243|28:243|21:205,1,126.5625
32,172,65165,6,0,B|82:161|70:184|122:188,1,84.375,4|0,1:2|0:0,0:0:0:0:
194,218,65488,1,2,0:0:0:0:
264,169,65649,1,2,0:0:0:0:
348,147,65810,2,0,B|393:156|393:156|421:198,1,84.375,10|0,0:0|0:0,0:0:0:0:
460,263,66133,6,0,B|434:290|449:311|424:348,2,84.375,2|2|2,1:2|0:2|0:2,0:0:0:0:
361,267,66617,1,0,0:0:0:0:
384,359,66778,2,0,P|308:344|241:336,1,126.5625,2|0,1:2|0:0,0:0:0:0:
219,306,67100,2,0,B|171:319|171:319|158:334|158:334|135:333|135:333|128:331|128:331|95:355,1,126.5625,14|0,0:2|0:0,0:0:0:0:
51,327,67423,2,0,P|44:239|28:174,1,126.5625,2|0,0:2|0:0,0:0:0:0:
15,153,67746,6,0,B|60:134|60:134|68:140|94:124|94:124|96:116|96:116|118:134|118:134|175:138,1,168.75,0|0,1:0|0:0,0:0:0:0:
231,194,68230,1,0,0:1:0:0:
314,169,68391,2,0,B|354:172|354:172|383:204,1,84.375,8|0,0:0|0:0,0:0:0:0:
469,231,68713,2,0,B|478:151|489:189|491:91,1,126.5625,2|0,1:2|0:0,0:0:0:0:
477,63,69036,6,0,L|404:50,1,42.1875,2|0,0:0|0:0,0:0:0:0:
412,65,69197,1,0,0:0:0:0:
332,25,69359,2,0,B|281:43|281:43|275:60|275:60|266:66|266:66|260:63|260:63|246:62|191:83,1,126.5625,4|0,1:0|0:0,0:0:0:0:
178,51,69681,6,0,B|146:79|146:79|127:132,1,84.375,12|0,0:0|0:0,0:0:0:0:
144,206,70004,2,0,B|173:221|191:238|187:253|187:253|197:250|196:266|196:266|204:292|248:309,1,126.5625,2|0,0:0|0:0,0:0:0:0:
269,308,70326,6,0,P|305:291|373:282,1,84.375,2|2,1:2|0:0,0:0:0:0:
434,298,70648,1,0,0:0:0:0:
459,216,70810,1,2,0:0:0:0:
403,149,70971,2,0,B|385:118|385:118|378:69,1,84.375,8|0,0:0|0:0,0:0:0:0:
311,13,71294,6,8,P|292:23|272:28,1,42.1875,2|0,1:2|0:0,0:0:0:0:
247,67,71455,2,0,P|226:72|205:72,1,42.1875,2|0,0:2|0:0,0:0:0:0:
156,93,71617,2,0,B|106:80|123:57|61:52,1,84.375,2|0,0:2|0:0,0:0:0:0:
4,96,71939,6,0,P|11:121|8:152,1,42.1875,2|0,0:2|0:0,0:0:0:0:
54,165,72100,2,0,P|54:191|43:220,1,42.1875,0|0,0:0|0:0,0:0:0:0:
72,249,72262,2,0,B|54:280|54:280|8:314,1,84.375,12|0,1:2|0:0,0:0:0:0:
138,312,72584,2,0,B|176:323|163:343|213:375,1,84.375
329,372,72907,6,0,B|280:352|253:302|306:253,1,126.5625,2|0,1:2|0:0,0:0:0:0:
310,263,73230,1,2,0:2:0:0:
244,199,73391,2,0,P|212:197|162:222,1,84.375,2|0,0:2|0:0,0:0:0:0:
82,248,73713,2,0,B|51:213|18:239|-4:187,2,84.375,2|2|2,0:2|1:2|0:2,0:0:0:0:
55,61,74359,5,0,0:0:0:0:
137,79,74520,2,0,B|216:74|278:39|284:10|271:4|236:29,1,168.75,0|8,1:0|0:0,0:0:0:0:
482,241,75488,6,0,B|402:195|349:271|267:192,1,202.5,4|2,1:1|0:1,0:0:0:0:
233,142,76133,2,0,P|191:139|163:171,1,67.5,8|0,0:0|0:0,0:0:0:0:
98,196,76455,2,0,B|114:263|80:343|9:365|9:365|54:316|126:307,1,337.5,2|2,1:1|0:1,0:0:0:0:
203,329,77423,1,8,0:0:0:0:
289,316,77584,6,0,P|303:346|314:378,2,67.5,2|2|2,0:2|0:2|0:2,0:0:0:0:
235,249,78068,1,0,1:0:0:0:
211,168,78230,2,0,P|218:126|212:70,2,67.5,2|0|2,0:0|0:0|0:0,0:0:0:0:
178,25,78713,1,8,0:0:0:0:
390,73,79036,1,2,1:2:0:0:
337,143,79197,6,0,B|399:95|419:135|476:113,1,135,0|2,0:0|0:2,0:0:0:0:
508,191,79681,1,2,0:2:0:0:
473,270,79842,1,2,0:2:0:0:
509,349,80004,2,0,B|474:326|474:326|462:323|462:323|422:311|422:311|409:313|409:313|386:300|386:300|381:294|381:294|359:298|359:298|303:296,1,202.5,8|0,0:0|0:0,0:0:0:0:
243,263,80649,6,0,B|165:278|197:326|126:366|49:377|26:327,1,202.5,0|2,1:0|0:1,0:0:0:0:
21,284,81294,2,0,P|18:255|64:213,1,67.5,8|0,0:0|0:0,0:0:0:0:
102,165,81617,2,0,B|148:95|112:38|112:38|97:142|172:178|257:175,1,337.5,2|2,1:1|0:1,0:0:0:0:
299,135,82584,1,8,0:2:0:0:
349,65,82746,6,0,P|353:32|361:0,2,67.5,2|2|2,0:2|0:2|0:2,0:0:0:0:
383,144,83230,1,0,1:0:0:0:
393,228,83391,2,0,P|371:253|354:283,2,67.5,2|0|2,0:0|0:0|0:0,0:0:0:0:
335,365,83875,1,8,0:0:0:0:
180,240,84197,1,2,1:2:0:0:
200,323,84359,5,2,0:0:0:0:
24,365,84681,2,0,B|4:385|-19:365|-1:317|78:316,2,101.250003862381,2|2|2,0:0|0:0|0:0,0:0:0:0:
108,379,85488,1,2,0:0:0:0:
