osu file format v14

[General]
AudioFilename: audio.mp3
AudioLeadIn: 0
PreviewTime: 54799
Countdown: 0
SampleSet: Normal
StackLeniency: 0.7
Mode: 1
LetterboxInBreaks: 0
WidescreenStoryboard: 0

[Editor]
DistanceSpacing: 0.9
BeatDivisor: 4
GridSize: 32
TimelineZoom: 2.5

[Metadata]
Title:Yonakajikaru [TV Size]
TitleUnicode:ヨナカジカル【TVサイズ】
Artist:Tamaki to Yumine (CV*Naganawa Maria, Maekawa Ryoko)
ArtistUnicode:たまきとゆみね(CV*長縄まりあ・前川涼子)
Creator:_yu68
Version:Muzukashii
Source:ステラのまほう
Tags:magic of stella ending ここのか kokonoka 黒木人生 jinsei kuroki r・o・n ron future bass namaniku
BeatmapID:1346287
BeatmapSetID:634016

[Difficulty]
HPDrainRate:6
CircleSize:5
OverallDifficulty:5
ApproachRate:5
SliderMultiplier:1.4
SliderTickRate:1

[Events]
//Background and Video events
0,0,"BG.png",0,0
//Break Periods
//Storyboard Layer 0 (Background)
//Storyboard Layer 1 (Fail)
//Storyboard Layer 2 (Pass)
//Storyboard Layer 3 (Foreground)
//Storyboard Sound Samples

[TimingPoints]
687,322.58064516129,4,1,0,50,1,0
3186,-100,4,1,0,80,0,0
34396,-133.333333333333,4,1,0,50,0,0
54799,-133.333333333333,4,1,0,90,0,0
54880,-100,4,1,0,90,0,1
75525,-100,4,1,0,90,0,0

[HitObjects]
256,192,687,8,0,3106,0:0:0:0:
256,192,3267,5,0,0:0:0:0:
256,192,3590,1,0,0:0:0:0:
256,192,3751,1,0,0:0:0:0:
256,192,3912,1,8,0:0:0:0:
256,192,4235,1,0,0:0:0:0:
256,192,4557,1,8,0:0:0:0:
256,192,4719,1,0,0:0:0:0:
256,192,5041,1,0,0:0:0:0:
256,192,5203,1,8,0:0:0:0:
256,192,5364,1,0,0:0:0:0:
256,192,5525,1,0,0:0:0:0:
256,192,5848,1,0,0:0:0:0:
256,192,6009,1,8,0:0:0:0:
256,192,6170,1,8,0:0:0:0:
256,192,6493,1,8,0:0:0:0:
256,192,6654,1,8,0:0:0:0:
256,192,6816,1,0,0:0:0:0:
256,192,6977,1,8,0:0:0:0:
256,192,7299,1,8,0:0:0:0:
256,192,7461,1,0,0:0:0:0:
256,192,7622,1,0,0:0:0:0:
256,192,7783,1,8,0:0:0:0:
256,192,8428,1,0,0:0:0:0:
256,192,8751,1,0,0:0:0:0:
256,192,8912,1,0,0:0:0:0:
256,192,9074,1,8,0:0:0:0:
256,192,9396,1,0,0:0:0:0:
256,192,9719,1,8,0:0:0:0:
256,192,9880,1,0,0:0:0:0:
256,192,10203,1,0,0:0:0:0:
256,192,10364,1,8,0:0:0:0:
256,192,10525,1,0,0:0:0:0:
256,192,10686,1,0,0:0:0:0:
256,192,11009,1,0,0:0:0:0:
256,192,11170,1,8,0:0:0:0:
256,192,11332,1,8,0:0:0:0:
256,192,11654,1,8,0:0:0:0:
256,192,11816,1,0,0:0:0:0:
256,192,11977,1,8,0:0:0:0:
256,192,12299,1,0,0:0:0:0:
256,192,12380,1,0,0:0:0:0:
256,192,12461,1,0,0:0:0:0:
256,192,12622,1,8,0:0:0:0:
256,192,12783,1,0,0:0:0:0:
256,192,12945,1,8,0:0:0:0:
256,192,13590,1,0,0:0:0:0:
256,192,13912,1,0,0:0:0:0:
256,192,14074,1,0,0:0:0:0:
256,192,14235,1,8,0:0:0:0:
256,192,14557,1,0,0:0:0:0:
256,192,14719,1,8,0:0:0:0:
256,192,15041,1,0,0:0:0:0:
256,192,15203,1,8,0:0:0:0:
256,192,15364,1,8,0:0:0:0:
256,192,15686,1,0,0:0:0:0:
256,192,15848,1,8,0:0:0:0:
256,192,16170,1,0,0:0:0:0:
256,192,16332,1,0,0:0:0:0:
256,192,16493,1,8,0:0:0:0:
256,192,16654,1,0,0:0:0:0:
256,192,16977,1,8,0:0:0:0:
256,192,17138,1,0,0:0:0:0:
256,192,17461,1,8,0:0:0:0:
256,192,17783,1,0,0:0:0:0:
256,192,17945,1,8,0:0:0:0:
256,192,18106,1,8,0:0:0:0:
256,192,18267,1,0,0:0:0:0:
256,192,18428,1,8,0:0:0:0:
256,192,18751,1,0,0:0:0:0:
256,192,19074,1,8,0:0:0:0:
256,192,19396,1,8,0:0:0:0:
256,192,19719,1,0,0:0:0:0:
256,192,19880,1,8,0:0:0:0:
256,192,20203,1,8,0:0:0:0:
256,192,20364,1,8,0:0:0:0:
256,192,20525,1,0,0:0:0:0:
256,192,20848,1,0,0:0:0:0:
256,192,21009,1,8,0:0:0:0:
256,192,21332,1,0,0:0:0:0:
256,192,21493,1,0,0:0:0:0:
256,192,21654,1,8,0:0:0:0:
256,192,21816,1,0,0:0:0:0:
256,192,22138,1,0,0:0:0:0:
256,192,22299,1,8,0:0:0:0:
256,192,22622,1,0,0:0:0:0:
256,192,22703,1,0,0:0:0:0:
256,192,22783,1,0,0:0:0:0:
256,192,22945,1,8,0:0:0:0:
256,192,23106,1,0,0:0:0:0:
256,192,23267,1,8,0:0:0:0:
256,192,23912,1,0,0:0:0:0:
256,192,24235,1,0,0:0:0:0:
256,192,24396,1,0,0:0:0:0:
256,192,24557,1,8,0:0:0:0:
256,192,24880,1,0,0:0:0:0:
256,192,25203,1,8,0:0:0:0:
256,192,25364,1,0,0:0:0:0:
256,192,25686,1,0,0:0:0:0:
256,192,25848,1,8,0:0:0:0:
256,192,26009,1,0,0:0:0:0:
256,192,26170,1,0,0:0:0:0:
256,192,26493,1,0,0:0:0:0:
256,192,26654,1,8,0:0:0:0:
256,192,26816,1,8,0:0:0:0:
256,192,27138,1,8,0:0:0:0:
256,192,27299,1,8,0:0:0:0:
256,192,27461,1,0,0:0:0:0:
256,192,27622,1,8,0:0:0:0:
256,192,27945,1,8,0:0:0:0:
256,192,28106,1,0,0:0:0:0:
256,192,28267,1,0,0:0:0:0:
256,192,28428,1,8,0:0:0:0:
256,192,29074,1,0,0:0:0:0:
256,192,29396,1,0,0:0:0:0:
256,192,29557,1,0,0:0:0:0:
256,192,29719,1,8,0:0:0:0:
256,192,30041,1,0,0:0:0:0:
256,192,30364,1,8,0:0:0:0:
256,192,30525,1,0,0:0:0:0:
256,192,30848,1,0,0:0:0:0:
256,192,31009,1,8,0:0:0:0:
256,192,31170,1,0,0:0:0:0:
256,192,31332,1,0,0:0:0:0:
256,192,31654,1,0,0:0:0:0:
256,192,31816,1,8,0:0:0:0:
256,192,31977,1,8,0:0:0:0:
256,192,32299,1,8,0:0:0:0:
256,192,32461,1,0,0:0:0:0:
256,192,32622,1,8,0:0:0:0:
256,192,32945,1,0,0:0:0:0:
256,192,33025,1,0,0:0:0:0:
256,192,33106,1,0,0:0:0:0:
256,192,33267,1,8,0:0:0:0:
256,192,33428,1,0,0:0:0:0:
256,192,33590,1,8,0:0:0:0:
256,192,34235,1,4,0:0:0:0:
256,192,34719,1,0,0:0:0:0:
256,192,35203,1,8,0:0:0:0:
256,192,36170,1,8,0:0:0:0:
256,192,36816,1,0,0:0:0:0:
256,192,37299,1,8,0:0:0:0:
256,192,37783,1,0,0:0:0:0:
256,192,38751,1,8,0:0:0:0:
256,192,39396,1,0,0:0:0:0:
256,192,39880,1,0,0:0:0:0:
256,192,40364,1,8,0:0:0:0:
256,192,41332,1,0,0:0:0:0:
256,192,41977,1,0,0:0:0:0:
256,192,42461,1,8,0:0:0:0:
256,192,42945,1,0,0:0:0:0:
256,192,44557,1,8,0:0:0:0:
256,192,45041,1,0,0:0:0:0:
256,192,45525,1,8,0:0:0:0:
256,192,45848,1,0,0:0:0:0:
256,192,46493,1,8,0:0:0:0:
256,192,47138,1,0,0:0:0:0:
256,192,47622,1,8,0:0:0:0:
256,192,48106,1,8,0:0:0:0:
256,192,48428,1,0,0:0:0:0:
256,192,49074,1,0,0:0:0:0:
256,192,49719,1,8,0:0:0:0:
256,192,50203,1,0,0:0:0:0:
256,192,50686,1,8,0:0:0:0:
256,192,51009,1,0,0:0:0:0:
256,192,51654,1,8,0:0:0:0:
256,192,52299,1,0,0:0:0:0:
256,192,52783,1,8,0:0:0:0:
256,192,53267,1,0,0:0:0:0:
256,192,53590,12,0,54557,0:0:0:0:
256,192,54880,5,4,0:0:0:0:
256,192,55203,1,8,0:0:0:0:
256,192,55364,1,0,0:0:0:0:
256,192,55525,1,8,0:0:0:0:
256,192,55686,1,8,0:0:0:0:
256,192,55848,1,0,0:0:0:0:
256,192,56170,1,8,0:0:0:0:
256,192,56332,1,0,0:0:0:0:
256,192,56493,1,0,0:0:0:0:
256,192,56574,1,0,0:0:0:0:
256,192,56654,1,0,0:0:0:0:
256,192,56816,1,8,0:0:0:0:
256,192,57138,1,0,0:0:0:0:
256,192,57299,1,8,0:0:0:0:
256,192,57461,1,0,0:0:0:0:
256,192,57783,1,0,0:0:0:0:
256,192,57945,1,0,0:0:0:0:
256,192,58106,1,8,0:0:0:0:
256,192,58267,1,8,0:0:0:0:
256,192,58428,1,0,0:0:0:0:
256,192,58751,1,8,0:0:0:0:
256,192,58912,1,8,0:0:0:0:
256,192,59074,1,0,0:0:0:0:
256,192,59154,1,0,0:0:0:0:
256,192,59235,1,0,0:0:0:0:
256,192,59396,1,8,0:0:0:0:
256,192,59557,1,0,0:0:0:0:
256,192,59719,1,0,0:0:0:0:
256,192,60041,1,0,0:0:0:0:
256,192,60364,1,8,0:0:0:0:
256,192,60525,1,0,0:0:0:0:
256,192,60686,1,8,0:0:0:0:
256,192,60848,1,8,0:0:0:0:
256,192,61009,1,0,0:0:0:0:
256,192,61332,1,8,0:0:0:0:
256,192,61493,1,0,0:0:0:0:
256,192,61654,1,0,0:0:0:0:
256,192,61816,1,0,0:0:0:0:
256,192,61977,1,8,0:0:0:0:
256,192,62299,1,8,0:0:0:0:
256,192,62461,1,8,0:0:0:0:
256,192,62622,1,0,0:0:0:0:
256,192,62945,1,8,0:0:0:0:
256,192,63106,1,0,0:0:0:0:
256,192,63267,1,8,0:0:0:0:
256,192,63428,1,8,0:0:0:0:
256,192,63590,1,0,0:0:0:0:
256,192,63751,1,8,0:0:0:0:
256,192,64074,1,8,0:0:0:0:
256,192,64235,1,0,0:0:0:0:
256,192,64316,1,0,0:0:0:0:
256,192,64396,1,0,0:0:0:0:
256,192,64557,1,8,0:0:0:0:
256,192,65203,1,4,0:0:0:0:
256,192,65526,1,8,0:0:0:0:
256,192,65687,1,0,0:0:0:0:
256,192,65848,1,8,0:0:0:0:
256,192,66009,1,8,0:0:0:0:
256,192,66171,1,0,0:0:0:0:
256,192,66493,1,8,0:0:0:0:
256,192,66655,1,0,0:0:0:0:
256,192,66816,1,0,0:0:0:0:
256,192,66897,1,0,0:0:0:0:
256,192,66977,1,0,0:0:0:0:
256,192,67139,1,8,0:0:0:0:
256,192,67461,1,0,0:0:0:0:
256,192,67622,1,8,0:0:0:0:
256,192,67784,1,0,0:0:0:0:
256,192,68106,1,0,0:0:0:0:
256,192,68268,1,0,0:0:0:0:
256,192,68429,1,8,0:0:0:0:
256,192,68590,1,8,0:0:0:0:
256,192,68751,1,0,0:0:0:0:
256,192,69074,1,8,0:0:0:0:
256,192,69235,1,8,0:0:0:0:
256,192,69397,1,0,0:0:0:0:
256,192,69477,1,0,0:0:0:0:
256,192,69558,1,0,0:0:0:0:
256,192,69719,1,8,0:0:0:0:
256,192,69880,1,0,0:0:0:0:
256,192,70042,1,0,0:0:0:0:
256,192,70364,1,0,0:0:0:0:
256,192,70687,1,8,0:0:0:0:
256,192,70848,1,0,0:0:0:0:
256,192,71009,1,8,0:0:0:0:
256,192,71171,1,8,0:0:0:0:
256,192,71332,1,0,0:0:0:0:
256,192,71655,1,8,0:0:0:0:
256,192,71816,1,8,0:0:0:0:
256,192,71977,1,0,0:0:0:0:
256,192,72139,1,0,0:0:0:0:
256,192,72300,1,8,0:0:0:0:
256,192,72622,1,8,0:0:0:0:
256,192,72784,1,8,0:0:0:0:
256,192,72945,1,0,0:0:0:0:
256,192,73268,1,8,0:0:0:0:
256,192,73429,1,0,0:0:0:0:
256,192,73590,1,8,0:0:0:0:
256,192,73751,1,0,0:0:0:0:
256,192,73913,1,0,0:0:0:0:
256,192,74074,1,8,0:0:0:0:
256,192,74397,1,8,0:0:0:0:
256,192,74558,1,0,0:0:0:0:
256,192,74880,1,8,0:0:0:0:
256,192,75525,1,0,0:0:0:0:
256,192,75848,1,0,0:0:0:0:
256,192,76009,1,0,0:0:0:0:
256,192,76170,1,8,0:0:0:0:
256,192,76493,1,0,0:0:0:0:
256,192,76977,1,8,0:0:0:0:
256,192,77138,1,0,0:0:0:0:
256,192,77461,1,8,0:0:0:0:
256,192,77783,1,0,0:0:0:0:
256,192,78106,1,0,0:0:0:0:
256,192,78267,1,8,0:0:0:0:
256,192,78428,1,0,0:0:0:0:
256,192,78751,1,8,0:0:0:0:
256,192,79074,1,0,0:0:0:0:
256,192,79235,1,8,0:0:0:0:
256,192,79557,1,0,0:0:0:0:
256,192,79880,1,0,0:0:0:0:
256,192,80041,1,8,0:0:0:0:
256,192,80686,1,0,0:0:0:0:
256,192,81009,1,0,0:0:0:0:
256,192,81170,1,0,0:0:0:0:
256,192,81332,1,8,0:0:0:0:
256,192,81654,1,0,0:0:0:0:
256,192,82138,1,8,0:0:0:0:
256,192,82299,1,0,0:0:0:0:
256,192,82622,1,8,0:0:0:0:
256,192,82945,1,0,0:0:0:0:
256,192,83267,1,0,0:0:0:0:
256,192,83428,1,8,0:0:0:0:
256,192,83590,1,0,0:0:0:0:
256,192,83912,1,8,0:0:0:0:
256,192,84235,1,0,0:0:0:0:
256,192,84396,1,8,0:0:0:0:
256,192,84719,1,8,0:0:0:0:
256,192,85041,1,8,0:0:0:0:
256,192,85364,1,8,0:0:0:0:
256,192,85525,1,8,0:0:0:0:
