osu file format v14

[General]
AudioFilename: audio.mp3
AudioLeadIn: 0
PreviewTime: 33594
Countdown: 0
SampleSet: Soft
StackLeniency: 0.3
Mode: 0
LetterboxInBreaks: 0
WidescreenStoryboard: 0

[Editor]
DistanceSpacing: 1.4
BeatDivisor: 8
GridSize: 8
TimelineZoom: 1

[Metadata]
Title:Yonaka Jikaru
TitleUnicode:ヨナカジカル
Artist:Tamaki to Yumine (CV: Naganawa Maria Maekawa Ryouko)
ArtistUnicode:たまきとゆみね(CV:長縄まりあ・前川涼子)
Creator:-[Koinuri]
Version:Insane
Source:ステラのまほう
Tags:Stella no Mahou Magic of Honda Tamaki Murakami Shiina Siina Seki Ayame Fujikawa Kayo star iris iri§ ed ending tv size
BeatmapID:1111027
BeatmapSetID:522923

[Difficulty]
HPDrainRate:4
CircleSize:4
OverallDifficulty:6
ApproachRate:7.5
SliderMultiplier:2.2
SliderTickRate:1

[Events]
//Background and Video events
0,0,"bg.jpg",0,0
//Break Periods
//Storyboard Layer 0 (Background)
//Storyboard Layer 1 (Fail)
//Storyboard Layer 2 (Pass)
//Storyboard Layer 3 (Foreground)
//Storyboard Sound Samples

[TimingPoints]
86,645.161290322581,4,2,1,60,1,0
2505,-100,4,2,1,5,0,0
2666,-100,4,2,1,60,0,0
33634,-100,4,2,1,30,0,0
35569,-166.666666666667,4,2,1,30,0,0
43956,-125,4,2,1,40,0,0
53956,-125,4,2,2,60,0,0
54279,-100,4,2,1,60,0,1
63956,-100,4,2,1,60,0,0
64602,-100,4,2,1,60,0,1
74279,-100,4,2,2,60,0,0
74924,-100,4,2,1,60,0,0

[Colours]
Combo1 : 252,255,111
Combo2 : 74,115,253
Combo3 : 221,221,221
Combo4 : 169,115,54
Combo5 : 255,98,98
Combo6 : 169,101,224

[HitObjects]
256,192,86,12,0,2505,0:0:0:0:
195,143,2667,6,0,L|70:136,1,110,2|2,1:2|0:2,0:0:0:0:
27,180,3150,2,0,P|5:245|22:293,1,110,2|2,1:2|0:2,0:0:0:0:
85,307,3634,2,0,L|146:305,1,55,2|0,1:2|0:2,0:0:0:0:
267,272,3957,5,2,1:2:0:0:
227,369,4118,1,2,0:2:0:0:
318,325,4279,2,0,P|348:319|383:326,1,55,2|2,0:2|0:2,0:0:0:0:
353,228,4602,2,0,P|344:152|356:96,1,110,2|2,1:2|0:2,0:0:0:0:
347,36,5086,1,2,0:2:0:0:
251,106,5247,5,0,1:2:0:0:
186,143,5408,2,0,P|155:145|123:139,2,55,0|0|0,0:2|0:2|0:2,0:0:0:0:
251,106,5892,1,8,0:2:0:0:
316,143,6053,2,0,P|347:145|379:139,2,55,0|2|0,0:2|0:3|1:3,0:0:0:0:
250,252,6537,5,0,0:2:0:0:
250,181,6699,1,2,0:3:0:0:
331,243,6860,2,0,P|336:271|331:310,1,55,0|0,1:2|0:2,0:0:0:0:
437,321,7183,2,0,P|428:263|434:208,1,110,0|0,1:2|0:0,0:0:0:0:
471,143,7667,1,0,0:0:0:0:
375,71,7828,6,0,L|237:68,1,110,2|2,1:2|0:2,0:0:0:0:
187,61,8311,2,0,P|202:120|179:184,1,110,2|2,1:2|0:2,0:0:0:0:
70,173,8796,2,0,P|62:144|71:105,1,55,2|0,1:2|0:2,0:0:0:0:
137,227,9118,5,2,1:2:0:0:
82,306,9279,1,2,0:2:0:0:
182,283,9441,2,0,P|211:276|240:279,1,55,2|2,0:2|0:2,0:0:0:0:
309,325,9763,2,0,P|375:334|448:308,1,110,2|2,1:2|0:2,0:0:0:0:
476,277,10247,1,2,0:2:0:0:
407,167,10408,5,0,1:2:0:0:
337,130,10570,2,0,P|332:97|336:71,2,55,0|0|0,0:2|0:2|0:2,0:0:0:0:
407,167,11054,1,8,0:2:0:0:
370,237,11216,2,0,P|337:242|311:238,2,55,0|2|0,0:2|3:0|1:3,0:0:0:0:
407,167,11699,5,2,0:2:0:0:
430,286,11860,1,10,0:3:0:0:
504,329,12021,2,0,P|511:302|507:266,1,55,2|2,1:2|0:2,0:0:0:0:
384,369,12344,2,0,L|499:354,1,110,2|0,1:2|1:2,0:0:0:0:
430,286,12828,1,2,0:3:0:0:
323,304,12989,2,0,P|320:332|329:363,1,55,0|0,1:2|0:0,0:0:0:0:
436,274,13312,6,0,L|436:201,1,55,2|2,0:2|0:2,0:0:0:0:
355,195,13634,2,0,P|291:205|215:182,1,110,10|2,0:2|0:3,0:0:0:0:
173,164,14118,2,0,P|118:155|65:165,1,110,2|2,1:2|0:3,0:0:0:0:
26,235,14602,2,0,P|24:289|25:295,1,55,2|2,1:2|0:2,0:0:0:0:
52,361,14925,1,8,0:2:0:0:
141,363,15086,5,2,0:2:0:0:
168,290,15247,2,0,P|140:285|113:289,1,55,2|2,0:2|0:2,0:0:0:0:
61,351,15570,1,0,1:0:0:0:
141,363,15731,1,2,0:2:0:0:
201,306,15892,2,0,P|176:292|150:286,1,55,0|2,0:2|0:2,0:0:0:0:
61,351,16215,1,8,0:2:0:0:
25,265,16376,6,0,P|23:233|34:191,2,55,2|0|0,0:2|1:2|0:0,0:0:0:0:
82,147,16860,2,0,P|89:85|83:28,1,110,0|0,1:2|1:2,0:0:0:0:
171,35,17344,2,0,L|285:32,1,110,2|0,0:3|0:2,0:0:0:0:
365,36,17828,2,0,P|369:62|361:97,1,55,2|0,0:3|0:0,0:0:0:0:
301,159,18150,2,0,P|295:185|299:213,1,55,0|0,1:2|0:0,0:0:0:0:
352,288,18473,6,0,P|383:296|425:287,1,55,2|2,0:2|0:2,0:0:0:0:
302,348,18796,2,0,P|244:340|178:353,1,110,10|2,0:2|0:3,0:0:0:0:
108,369,19279,2,0,P|53:376|0:368,1,110,2|2,1:2|0:3,0:0:0:0:
60,279,19763,2,0,P|87:275|116:279,1,55,2|2,1:2|0:2,0:0:0:0:
178,359,20086,1,8,0:2:0:0:
256,283,20247,6,0,P|264:260|260:219,1,55,2|2,0:2|0:2,0:0:0:0:
180,249,20570,1,0,0:2:0:0:
173,352,20731,1,2,1:2:0:0:
272,355,20892,2,0,P|300:347|327:351,1,55,2|2,0:2|0:2,0:0:0:0:
399,380,21215,1,2,0:2:0:0:
326,274,21376,1,8,0:2:0:0:
391,239,21537,6,0,P|398:207|391:167,1,55,2|2,0:2|1:2,0:0:0:0:
341,120,21860,1,0,0:0:0:0:
225,140,22021,2,0,P|216:208|236:268,1,110,2|0,1:2|0:0,0:0:0:0:
152,368,22505,2,0,P|163:314|153:261,1,110,0|0,1:2|1:0,0:0:0:0:
39,318,22989,2,0,P|39:345|49:371,1,55,0|0,1:0|0:2,0:0:0:0:
80,224,23312,6,0,B|96:185|82:160|82:160|64:132|75:103|75:103|88:72|145:62|161:111,1,220,0|8,1:2|0:2,0:0:0:0:
162,115,24279,6,0,P|238:71|384:114,1,220,0|0,1:2|1:2,0:0:0:0:
376,114,25247,6,0,P|394:164|391:222,1,110,8|0,0:2|0:0,0:0:0:0:
366,300,25731,1,0,0:0:0:0:
308,195,25892,5,2,1:2:0:0:
284,279,26054,2,0,P|280:308|288:346,2,55,2|2|2,0:2|0:2|0:2,0:0:0:0:
230,202,26537,1,10,0:2:0:0:
180,136,26699,2,0,P|176:108|180:81,2,55,2|10|2,0:2|0:3|1:2,0:0:0:0:
128,201,27183,1,2,0:2:0:0:
78,267,27345,2,0,P|74:294|78:321,2,55,10|0|2,0:3|1:0|0:2,0:0:0:0:
30,187,27828,6,0,B|15:149|28:112|28:112|42:71|26:16,1,165,0|0,1:2|0:2,0:0:0:0:
113,62,28473,6,0,B|239:46|239:46|252:89|189:106|173:64,1,220,0|8,1:2|0:2,0:0:0:0:
197,89,29440,6,0,B|182:162|212:201|212:201|248:247|226:320,1,220,0|0,1:2|1:2,0:0:0:0:
217,307,30408,6,0,P|275:291|332:312,1,110,8|0,0:2|1:0,0:0:0:0:
384,370,30892,1,0,0:0:0:0:
498,304,31054,5,2,1:2:0:0:
400,234,31215,2,0,P|427:230|454:233,2,55,2|2|2,0:2|0:2|0:2,0:0:0:0:
356,304,31698,1,10,0:2:0:0:
251,212,31860,2,0,P|278:209|305:212,2,55,2|10|2,0:2|0:3|1:2,0:0:0:0:
212,304,32344,1,2,0:2:0:0:
86,192,32505,2,0,P|113:189|140:192,2,55,10|2|0,0:3|1:2|0:2,0:0:0:0:
234,154,32989,6,0,L|422:151,1,165,8|0,0:2|0:2,0:0:0:0:
415,151,33634,5,2,0:2:0:0:
414,166,34118,1,2,0:2:0:0:
413,181,34602,1,2,0:2:0:0:
403,291,35570,2,0,L|488:286,1,65.9999979858399,2|0,0:2|0:2,0:0:0:0:
302,309,36215,5,2,0:2:0:0:
303,294,36699,1,2,0:2:0:0:
304,279,37183,1,2,0:2:0:0:
314,169,38151,2,0,L|229:174,1,65.9999979858399,2|0,0:2|0:2,0:0:0:0:
155,165,38796,5,2,0:2:0:0:
154,180,39280,1,2,0:2:0:0:
153,195,39764,1,2,0:2:0:0:
234,280,40731,2,0,L|239:361,1,65.9999979858399,2|0,0:2|0:0,0:0:0:0:
86,315,41376,5,2,0:2:0:0:
87,300,41860,1,2,0:2:0:0:
88,285,42344,1,2,0:2:0:0:
60,66,43796,5,2,0:2:0:0:
58,75,43876,1,2,0:2:0:0:
56,83,43957,2,0,P|92:111|161:90,1,88,2|2,0:2|0:2,0:0:0:0:
204,54,44441,2,0,P|247:53|280:81,1,88,2|2,0:2|0:2,0:0:0:0:
287,164,44925,2,0,L|289:216,1,44,2|0,0:2|0:0,0:0:0:0:
289,228,45247,5,2,0:2:0:0:
360,235,45892,2,0,L|454:231,1,88,2|2,0:2|0:2,0:0:0:0:
150,244,46537,6,0,L|62:247,1,88,2|2,0:2|0:2,0:0:0:0:
17,232,47021,2,0,P|4:174|25:144,1,88,2|2,0:2|0:2,0:0:0:0:
47,131,47505,2,0,L|96:130,1,44,2|0,0:2|0:0,0:0:0:0:
104,131,47828,5,2,0:2:0:0:
100,285,48150,1,2,0:2:0:0:
18,283,48473,1,2,0:2:0:0:
21,207,48795,1,2,0:2:0:0:
31,212,48957,5,2,0:2:0:0:
36,212,49037,1,2,0:2:0:0:
41,212,49118,2,0,L|147:212,1,88,2|2,0:2|0:2,0:0:0:0:
186,269,49602,2,0,P|247:280|278:266,1,88,2|2,0:2|0:2,0:0:0:0:
321,210,50086,2,0,L|327:146,1,44,2|0,0:2|0:0,0:0:0:0:
396,169,50408,5,2,0:2:0:0:
394,33,51054,1,2,0:2:0:0:
461,105,51376,1,2,0:2:0:0:
327,102,51699,6,0,L|237:102,1,88,2|0,0:2|0:0,0:0:0:0:
221,100,52183,2,0,P|197:134|201:183,1,88,2|0,0:2|0:0,0:0:0:0:
209,192,52667,1,2,0:2:0:0:
256,192,52747,12,2,53957,0:2:0:0:
311,248,54279,6,0,P|368:248|376:245,1,55,2|2,1:2|0:2,0:0:0:0:
222,212,54602,2,0,P|165:212|157:215,1,55,2|2,0:2|0:2,0:0:0:0:
284,151,54925,2,0,L|288:36,1,110,10|10,0:2|0:3,0:0:0:0:
371,11,55408,1,2,1:2:0:0:
415,85,55570,6,0,P|426:133|404:201,1,110,2|2,0:2|1:2,0:0:0:0:
354,243,56054,1,0,0:0:0:0:
425,271,56215,2,0,P|464:266|500:276,1,55,10|2,0:2|0:2,0:0:0:0:
469,364,56537,2,0,L|414:366,1,55,2|0,0:2|0:2,0:0:0:0:
301,325,56860,6,0,P|257:314|191:337,1,110,2|2,1:2|0:2,0:0:0:0:
127,382,57344,1,2,0:0:0:0:
16,360,57505,2,0,P|12:318|18:290,1,55,8|0,0:0|1:0,0:0:0:0:
54,225,57827,6,0,P|98:214|164:237,1,110,2|2,1:2|0:2,0:0:0:0:
228,282,58311,1,2,0:0:0:0:
339,260,58472,2,0,P|343:218|337:190,1,55,0|0,1:0|0:0,0:0:0:0:
281,155,58796,5,2,1:2:0:0:
206,155,58957,1,2,0:2:0:0:
141,201,59118,2,0,P|139:249|145:262,1,55,10|0,0:3|0:2,0:0:0:0:
306,342,59441,5,2,1:2:0:0:
383,298,59602,2,0,P|426:292|452:298,2,55,2|2|2,0:2|0:2|0:2,0:0:0:0:
219,272,60086,2,0,L|211:147,1,110,10|10,0:2|0:3,0:0:0:0:
204,84,60570,1,2,1:2:0:0:
129,211,60731,6,0,B|117:268|117:268|145:339,1,110,2|2,0:2|1:2,0:0:0:0:
220,344,61215,1,0,0:0:0:0:
305,301,61376,2,0,P|308:271|304:244,1,55,10|2,0:2|0:2,0:0:0:0:
210,272,61699,2,0,P|207:302|211:329,1,55,2|0,0:2|0:2,0:0:0:0:
361,348,62021,6,0,L|487:337,1,110,2|2,1:2|0:2,0:0:0:0:
512,239,62505,2,0,P|456:227|402:257,1,110,2|2,1:2|0:2,0:0:0:0:
361,365,62989,1,2,1:2:0:0:
236,323,63150,6,0,L|126:319,1,110,0|0,1:0|0:2,0:0:0:0:
48,315,63634,2,0,P|42:342|47:370,1,55,2|0,1:2|0:2,0:0:0:0:
179,240,63957,2,0,P|187:173|176:51,1,165,8|0,0:2|0:2,0:0:0:0:
262,139,64602,6,0,P|321:127|329:122,1,55,2|2,1:2|0:2,0:0:0:0:
112,183,64925,2,0,P|53:171|45:166,1,55,2|2,0:2|0:2,0:0:0:0:
201,222,65247,2,0,L|206:344,1,110,10|10,0:2|0:3,0:0:0:0:
130,294,65731,1,2,1:2:0:0:
277,240,65892,6,0,P|354:227|413:239,1,110,2|2,0:2|1:2,0:0:0:0:
460,246,66376,1,0,0:0:0:0:
440,152,66537,2,0,P|410:146|384:146,1,55,10|2,0:2|0:2,0:0:0:0:
316,92,66860,2,0,P|310:62|310:36,1,55,2|0,0:2|0:2,0:0:0:0:
230,110,67183,6,0,L|94:100,1,110,2|2,1:2|0:2,0:0:0:0:
43,228,67666,1,2,0:0:0:0:
123,281,67827,2,0,P|170:277|195:262,1,55,8|0,0:0|1:0,0:0:0:0:
295,209,68150,6,0,L|431:199,1,110,2|2,1:2|0:2,0:0:0:0:
482,327,68633,1,2,0:0:0:0:
402,380,68795,2,0,P|355:376|330:361,1,55,0|0,1:0|0:0,0:0:0:0:
197,300,69118,5,2,1:2:0:0:
125,370,69279,1,2,0:2:0:0:
90,283,69440,2,0,P|84:255|93:222,1,55,10|0,0:3|0:2,0:0:0:0:
106,62,69763,5,2,1:2:0:0:
57,137,69925,2,0,L|2:139,2,55,2|2|2,0:2|0:2|0:2,0:0:0:0:
188,106,70408,2,0,L|340:92,1,110,10|10,0:2|0:3,0:0:0:0:
293,176,70892,1,2,1:2:0:0:
391,135,71054,6,0,P|404:72|382:32,1,110,2|2,0:2|1:2,0:0:0:0:
293,176,71537,1,0,0:0:0:0:
438,219,71699,2,0,P|468:226|495:219,1,55,10|2,0:2|0:2,0:0:0:0:
320,257,72021,2,0,P|291:263|265:257,1,55,2|0,0:2|0:2,0:0:0:0:
190,190,72344,6,0,L|191:43,1,110,2|2,1:2|0:2,0:0:0:0:
289,141,72828,2,0,P|303:206|286:247,1,110,2|2,1:2|0:2,0:0:0:0:
191,284,73312,1,0,1:3:0:0:
121,173,73473,6,0,P|69:157|17:172,1,110,2|0,1:2|0:0,0:0:0:0:
213,132,73957,2,0,P|241:136|270:130,1,55,2|0,0:3|0:0,0:0:0:0:
157,64,74279,1,2,0:2:0:0:
157,75,74925,6,0,B|136:129|155:181|155:181|174:234|154:293,1,220,0|8,1:2|0:2,0:0:0:0:
110,367,75892,6,0,B|156:391|203:372|218:353|218:353|266:366|266:366|329:347,1,220,0|0,1:2|1:2,0:0:0:0:
271,275,76860,5,8,0:2:0:0:
386,306,77183,2,0,P|393:281|391:247,1,55,0|2,1:2|0:3,0:0:0:0:
326,153,77505,5,2,1:2:0:0:
273,217,77667,2,0,P|266:242|268:276,2,55,2|2|2,0:2|0:2|0:2,0:0:0:0:
334,137,78150,1,10,0:2:0:0:
252,123,78312,2,0,P|226:129|198:148,2,55,2|10|2,0:2|0:3|1:2,0:0:0:0:
351,135,78795,1,2,0:2:0:0:
322,57,78957,2,0,P|303:38|273:23,2,55,10|2|2,0:3|1:2|0:2,0:0:0:0:
365,140,79441,6,0,L|536:130,1,165,2|2,1:2|0:2,0:0:0:0:
494,210,80086,6,0,B|506:273|506:273|456:251|425:275|425:275|394:297|357:279,1,220,0|8,1:2|0:2,0:0:0:0:
382,199,81054,6,0,B|367:163|389:125|389:125|345:139|345:139|282:129|282:129|236:145,1,220,0|0,1:2|1:2,0:0:0:0:
134,284,82021,5,8,0:2:0:0:
60,323,82344,2,0,P|52:297|56:263,1,55,0|2,1:2|0:3,0:0:0:0:
89,192,82667,5,2,1:2:0:0:
24,155,82828,2,0,P|-8:160|-36:149,2,55,2|2|2,0:2|0:2|0:2,0:0:0:0:
3,78,83312,1,10,0:2:0:0:
71,45,83473,2,0,P|103:40|131:51,1,55,2|2,0:2|0:2,0:0:0:0:
229,108,83796,6,0,P|305:118|350:95,2,110,2|2|2,0:2|0:2|0:2,0:0:0:0:
348,105,84763,2,0,P|342:138|352:172,1,55,2|2,0:2|0:2,0:0:0:0:
