osu file format v14

[General]
AudioFilename: audio.mp3
AudioLeadIn: 0
PreviewTime: 38041
Countdown: 0
SampleSet: Soft
StackLeniency: 0.2
Mode: 0
LetterboxInBreaks: 0
WidescreenStoryboard: 0

[Editor]
Bookmarks: 680,11651,22622,39080,50051,61022,71994,82965,93937,104908,121365,132337,143308,154280,165251,176222,187194,198165,209137,220108,231080,242051,253022,271537
DistanceSpacing: 1.5
BeatDivisor: 4
GridSize: 4
TimelineZoom: 1

[Metadata]
Title:Koko kara, Koko kara (Solo ver.)
TitleUnicode:ここから、ここから (ソロver.)
Artist:Tamaki Mari (CV: Minase Inori)
ArtistUnicode:玉木マリ (CV: 水瀬いのり)
Creator:Andrea
Version:Asterism
Source:宇宙よりも遠い場所
Tags:Sekai Sekaii Sekai-nyan osuplayer111 sora yori mo tooi basho ed ending a place further than the universe japanese jpop j-pop pop anime solo collab collaboration ヒゲドライバー ヒゲドライVAN
BeatmapID:2858303
BeatmapSetID:1383665

[Difficulty]
HPDrainRate:6.5
CircleSize:4.5
OverallDifficulty:8
ApproachRate:9
SliderMultiplier:1.6
SliderTickRate:1

[Events]
//Background and Video events
0,0,"kokokarabg3.jpg",0,0
//Break Periods
//Storyboard Layer 0 (Background)
//Storyboard Layer 1 (Fail)
//Storyboard Layer 2 (Pass)
//Storyboard Layer 3 (Foreground)
//Storyboard Layer 4 (Overlay)
//Storyboard Sound Samples

[TimingPoints]
665,342.857142857143,4,2,1,60,1,0
665,-111.111111111111,4,2,1,60,0,0
11636,-100,4,2,1,70,0,0
11893,-100,4,2,1,5,0,0
11979,-100,4,2,1,70,0,0
16007,-100,4,2,1,5,0,0
16093,-100,4,2,1,70,0,0
28007,-100,4,2,1,5,0,0
28093,-100,4,2,1,70,0,0
33579,-111.111111111111,4,2,1,70,0,0
34865,-111.111111111111,4,2,1,5,0,0
34950,-111.111111111111,4,2,1,70,0,0
36236,-111.111111111111,4,2,1,5,0,0
36322,-100,4,2,1,70,0,0
38036,-111.111111111111,4,2,1,70,0,0
38893,-111.111111111111,4,2,1,50,0,0
39065,-90.9090909090909,4,2,1,80,0,1
41722,-90.9090909090909,4,2,1,5,0,1
41807,-90.9090909090909,4,2,1,80,0,1
44465,-90.9090909090909,4,2,1,5,0,1
44550,-90.9090909090909,4,2,1,80,0,1
47207,-90.9090909090909,4,2,1,5,0,1
47293,-90.9090909090909,4,2,1,80,0,1
50979,-90.9090909090909,4,2,1,5,0,1
51065,-90.9090909090909,4,2,1,80,0,1
52350,-90.9090909090909,4,2,1,5,0,1
52436,-90.9090909090909,4,2,1,80,0,1
54407,-90.9090909090909,4,2,1,5,0,1
54493,-90.9090909090909,4,2,1,80,0,1
55436,-90.9090909090909,4,2,1,5,0,1
55522,-90.9090909090909,4,2,1,80,0,1
56807,-90.9090909090909,4,2,1,5,0,1
56893,-90.9090909090909,4,2,1,80,0,1
58522,-90.9090909090909,4,2,1,5,0,1
58607,-90.9090909090909,4,2,1,80,0,1
60922,-90.9090909090909,4,2,1,80,0,0
61007,-90.9090909090909,4,2,1,80,0,1
62636,-90.9090909090909,4,2,1,5,0,1
62722,-90.9090909090909,4,2,1,80,0,1
63665,-90.9090909090909,4,2,1,5,0,1
63750,-90.9090909090909,4,2,1,80,0,1
66407,-90.9090909090909,4,2,1,5,0,1
66493,-90.9090909090909,4,2,1,80,0,1
67779,-90.9090909090909,4,2,1,5,0,1
67865,-90.9090909090909,4,2,1,80,0,1
68807,-90.9090909090909,4,2,1,5,0,1
68893,-90.9090909090909,4,2,1,80,0,1
71893,-90.9090909090909,4,2,1,5,0,1
71979,-90.9090909090909,4,2,1,80,0,1
72922,-90.9090909090909,4,2,1,5,0,1
73007,-90.9090909090909,4,2,1,80,0,1
75665,-90.9090909090909,4,2,1,5,0,1
75750,-90.9090909090909,4,2,1,80,0,1
76693,-90.9090909090909,4,2,1,5,0,1
76779,-90.9090909090909,4,2,1,80,0,1
77379,-90.9090909090909,4,2,1,5,0,1
77465,-90.9090909090909,4,2,1,80,0,1
81836,-90.9090909090909,4,2,1,5,0,1
81922,-90.9090909090909,4,2,1,80,0,1
82950,-100,4,2,1,70,0,0
100693,-100,4,2,1,5,0,0
100779,-100,4,2,1,70,0,0
111665,-100,4,2,1,5,0,0
111750,-100,4,2,1,70,0,0
115865,-111.111111111111,4,2,1,70,0,0
118607,-100,4,2,1,70,0,0
121350,-90.9090909090909,4,2,1,80,0,1
122293,-90.9090909090909,4,2,1,5,0,1
122379,-90.9090909090909,4,2,1,80,0,1
125722,-90.9090909090909,4,2,1,5,0,1
125807,-90.9090909090909,4,2,1,80,0,1
126750,-90.9090909090909,4,2,1,5,0,1
126836,-90.9090909090909,4,2,1,80,0,1
129493,-90.9090909090909,4,2,1,5,0,1
129579,-90.9090909090909,4,2,1,80,0,1
132236,-90.9090909090909,4,2,1,5,0,1
132322,-90.9090909090909,4,2,1,80,0,1
133607,-90.9090909090909,4,2,1,5,0,1
133693,-90.9090909090909,4,2,1,80,0,1
134636,-90.9090909090909,4,2,1,5,0,1
134722,-90.9090909090909,4,2,1,80,0,1
137722,-90.9090909090909,4,2,1,5,0,1
137807,-90.9090909090909,4,2,1,80,0,1
139093,-90.9090909090909,4,2,1,5,0,1
139179,-90.9090909090909,4,2,1,80,0,1
143207,-90.9090909090909,4,2,1,80,0,0
143293,-90.9090909090909,4,2,1,80,0,1
145950,-90.9090909090909,4,2,1,5,0,1
146036,-90.9090909090909,4,2,1,80,0,1
147665,-90.9090909090909,4,2,1,5,0,1
147750,-90.9090909090909,4,2,1,80,0,1
148693,-90.9090909090909,4,2,1,5,0,1
148779,-90.9090909090909,4,2,1,80,0,1
151436,-90.9090909090909,4,2,1,5,0,1
151522,-90.9090909090909,4,2,1,80,0,1
152465,-90.9090909090909,4,2,1,5,0,1
152550,-90.9090909090909,4,2,1,80,0,1
153493,-90.9090909090909,4,2,1,5,0,1
153579,-90.9090909090909,4,2,1,80,0,1
154522,-90.9090909090909,4,2,1,5,0,1
154607,-90.9090909090909,4,2,1,80,0,1
155550,-90.9090909090909,4,2,1,5,0,1
155636,-90.9090909090909,4,2,1,80,0,1
157950,-90.9090909090909,4,2,1,5,0,1
158036,-90.9090909090909,4,2,1,80,0,1
158979,-90.9090909090909,4,2,1,5,0,1
159065,-90.9090909090909,4,2,1,80,0,1
159665,-90.9090909090909,4,2,1,5,0,1
159750,-90.9090909090909,4,2,1,80,0,1
164122,-90.9090909090909,4,2,1,5,0,1
164207,-90.9090909090909,4,2,1,80,0,1
165236,-100,4,2,1,70,0,0
166865,-100,4,2,1,5,0,0
166950,-100,4,2,1,70,0,0
167893,-100,4,2,1,5,0,0
167979,-100,4,2,1,70,0,0
168922,-100,4,2,1,5,0,0
169007,-100,4,2,1,70,0,0
173379,-100,4,2,1,5,0,0
173465,-100,4,2,1,70,0,0
175436,-100,4,2,1,5,0,0
175522,-100,4,2,1,70,0,0
177836,-100,4,2,1,5,0,0
177922,-100,4,2,1,70,0,0
188465,-100,4,2,1,5,0,0
188550,-100,4,2,1,70,0,0
189836,-100,4,2,1,5,0,0
189922,-100,4,2,1,70,0,0
192579,-100,4,2,1,5,0,0
192665,-100,4,2,1,70,0,0
193950,-100,4,2,1,5,0,0
194036,-100,4,2,1,70,0,0
195322,-100,4,2,1,5,0,0
195407,-100,4,2,1,70,0,0
202522,-100,4,2,1,5,0,0
202607,-100,4,2,1,70,0,0
209122,-125,4,2,1,60,0,0
220093,-111.111111111111,4,2,1,65,0,0
228322,-100,4,2,1,70,0,0
231065,-90.9090909090909,4,2,1,80,0,1
236465,-90.9090909090909,4,2,1,5,0,1
236550,-90.9090909090909,4,2,1,80,0,1
238522,-90.9090909090909,4,2,1,5,0,1
238607,-90.9090909090909,4,2,1,80,0,1
239207,-90.9090909090909,4,2,1,5,0,1
239293,-90.9090909090909,4,2,1,80,0,1
241265,-90.9090909090909,4,2,1,5,0,1
241350,-90.9090909090909,4,2,1,80,0,1
241950,-90.9090909090909,4,2,1,5,0,1
242036,-90.9090909090909,4,2,1,80,0,1
245722,-90.9090909090909,4,2,1,5,0,1
245807,-90.9090909090909,4,2,1,80,0,1
247093,-90.9090909090909,4,2,1,5,0,1
247179,-90.9090909090909,4,2,1,80,0,1
251550,-90.9090909090909,4,2,1,5,0,1
251636,-90.9090909090909,4,2,1,80,0,1
254293,-90.9090909090909,4,2,1,5,0,1
254379,-90.9090909090909,4,2,1,80,0,1
255665,-90.9090909090909,4,2,1,5,0,1
255750,-90.9090909090909,4,2,1,80,0,1
257722,-90.9090909090909,4,2,1,5,0,1
257807,-90.9090909090909,4,2,1,80,0,1
261493,-90.9090909090909,4,2,1,5,0,1
261579,-90.9090909090909,4,2,1,80,0,1
262865,-90.9090909090909,4,2,1,5,0,1
262950,-90.9090909090909,4,2,1,80,0,1
263979,-125,4,2,1,60,0,0
269207,-125,4,2,1,30,0,0
270150,-125,4,2,1,20,0,0
270836,-125,4,2,1,10,0,0
271522,-125,4,2,1,5,0,0

[Colours]
Combo1 : 245,192,197
Combo2 : 173,129,186
SliderBorder : 151,89,166
SliderTrackOverride : 245,192,197

[HitObjects]
208,164,665,6,0,P|180:100|208:36,1,143.999995605469,2|0,0:0|0:0,0:0:0:0:
303,35,1179,2,0,P|331:99|304:164,1,143.999995605469,2|0,0:0|0:0,0:0:0:0:
256,248,1693,1,2,0:0:0:0:
256,248,2036,6,0,L|384:320,1,143.999995605469,2|0,0:0|0:0,0:0:0:0:
272,360,2550,2,0,L|144:288,1,143.999995605469,2|0,0:0|0:0,0:0:0:0:
64,240,3065,1,2,0:0:0:0:
64,240,3407,6,0,B|98:190|98:190|125:180|125:180|157:134,1,143.999995605469,2|0,0:0|0:0,0:0:0:0:
284,112,3922,2,0,B|249:161|249:161|222:171|222:171|190:217,1,143.999995605469,2|0,0:0|0:0,0:0:0:0:
272,272,4436,1,2,0:0:0:0:
272,272,4779,6,0,B|312:272|336:248|336:248|416:248,1,143.999995605469,2|0,0:0|0:0,0:0:0:0:
508,300,5293,2,0,B|468:300|444:324|444:324|364:324,1,143.999995605469,2|0,0:0|0:0,0:0:0:0:
272,272,5807,1,2,0:0:0:0:
272,272,6150,6,0,P|200:272|152:224,1,143.999995605469,2|0,0:0|0:0,0:0:0:0:
192,136,6665,2,0,P|264:136|312:184,1,143.999995605469,2|0,0:0|0:0,0:0:0:0:
360,264,7179,1,2,0:0:0:0:
360,264,7522,6,0,B|435:245|405:203|474:183,1,143.999995605469,2|0,0:0|0:0,0:0:0:0:
426,104,8036,2,0,B|350:122|380:164|311:184,1,143.999995605469,2|0,0:0|0:0,0:0:0:0:
256,108,8550,1,2,0:0:0:0:
256,108,8893,6,0,B|208:108|192:83|192:83|176:108|128:108,1,143.999995605469,2|0,0:0|0:0,0:0:0:0:
56,168,9407,2,0,B|56:216|31:232|31:232|56:248|56:296,1,143.999995605469,2|0,0:0|0:0,0:0:0:0:
124,364,9922,1,2,0:0:0:0:
124,364,10265,6,0,B|169:331|169:331|180:305|180:305|229:270,1,143.999995605469,2|0,0:0|0:0,0:0:0:0:
308,216,10779,1,2,0:0:0:0:
288,124,10950,2,0,P|255:109|223:123,1,71.9999978027344,2|0,0:0|0:0,0:0:0:0:
308,216,11293,2,0,P|340:230|372:216,1,71.9999978027344,2|0,0:0|0:0,0:0:0:0:
476,124,11636,6,0,L|384:36,1,120,4|0,1:2|0:0,0:0:0:0:
389,41,11979,2,0,B|345:41|321:6|321:6|297:41|253:41,1,160,8|2,0:3|0:2,0:0:0:0:
140,92,12493,1,0,0:0:0:0:
252,41,12665,2,0,L|292:113,1,80,8|0,0:3|0:0,0:0:0:0:
140,92,13007,6,0,P|72:56|4:92,1,160,2|8,1:2|0:3,0:0:0:0:
80,192,13522,2,0,P|147:227|215:191,1,160,8|0,2:3|1:2,0:0:0:0:
140,92,14036,1,2,1:2:0:0:
80,192,14207,1,2,0:2:0:0:
140,92,14379,6,0,B|220:60|220:124|296:92,1,160,0|8,1:2|2:3,0:0:0:0:
416,28,14893,2,0,B|336:60|336:-4|260:28,1,160,8|0,0:3|0:0,0:0:0:0:
139,164,15407,2,0,B|122:128|122:128|139:92,1,80,0|0,1:2|0:0,0:0:0:0:
176,232,15750,6,0,L|92:328,1,120,2|0,1:2|0:0,0:0:0:0:
160,360,16093,2,0,L|216:296,1,80,2|8,0:2|0:3,0:0:0:0:
352,360,16436,2,0,L|296:296,1,80,2|8,0:2|2:3,0:0:0:0:
220,176,16779,2,0,P|256:161|292:176,1,80,8|0,0:3|0:0,0:0:0:0:
323,71,17122,6,0,P|255:36|188:72,1,160,4|8,1:2|0:3,0:0:0:0:
65,175,17636,2,0,B|145:143|145:207|221:175,1,160,8|0,0:3|0:0,0:0:0:0:
104,240,18150,1,2,1:2:0:0:
32,108,18322,1,0,0:0:0:0:
104,240,18493,6,0,B|176:274|176:274|248:240,1,160,2|8,1:2|0:3,0:0:0:0:
447,175,19007,2,0,B|367:143|367:207|291:175,1,160,8|0,0:3|1:2,0:0:0:0:
220,52,19522,2,0,P|256:37|292:52,1,80,2|2,1:2|0:2,0:0:0:0:
172,124,19865,6,0,P|136:191|172:259,1,160,0|8,1:2|2:3,0:0:0:0:
339,259,20379,2,0,P|375:191|340:124,1,160,8|0,2:3|0:0,0:0:0:0:
216,192,20893,2,0,L|308:192,1,80,0|0,1:2|0:0,0:0:0:0:
256,76,21236,5,0,1:2:0:0:
296,192,21407,1,8,0:0:0:0:
256,76,21579,2,0,B|220:59|220:59|184:76,1,80,0|8,0:0|2:3,0:0:0:0:
296,192,21922,2,0,B|332:209|332:209|368:192,1,80,0|8,0:0|2:3,0:0:0:0:
256,60,22265,2,0,B|220:43|220:43|184:60,1,80,8|0,2:3|0:0,0:0:0:0:
24,192,22607,6,0,B|104:160|104:224|180:192,1,160,4|8,1:2|2:3,0:0:0:0:
68,264,23122,1,0,0:0:0:0:
141,119,23293,2,0,B|221:87|221:151|296:120,1,160,2|2,0:2|1:2,0:0:0:0:
400,72,23807,1,0,0:0:0:0:
456,172,23979,6,0,P|492:240|456:308,1,160,2|8,1:2|2:3,0:0:0:0:
295,256,24493,2,0,P|259:188|295:120,1,160,8|0,2:3|1:2,0:0:0:0:
400,72,25007,1,2,1:2:0:0:
456,172,25179,1,2,0:2:0:0:
294,120,25350,6,0,B|237:99|237:99|211:64|211:64|159:45,1,160,0|8,1:2|2:3,0:0:0:0:
28,56,25865,2,0,B|84:76|84:76|110:111|110:111|162:130,1,160,8|0,2:3|0:0,0:0:0:0:
192,264,26379,2,0,P|177:300|192:336,1,80,0|0,1:2|0:0,0:0:0:0:
320,336,26722,5,2,1:2:0:0:
192,336,26893,1,8,0:0:0:0:
319,336,27065,2,0,P|335:300|320:264,1,80,2|8,0:2|2:3,0:0:0:0:
256,156,27407,1,2,0:2:0:0:
188,48,27579,1,0,1:2:0:0:
324,48,27750,2,0,P|380:48|432:88,1,120,2|0,1:2|0:0,0:0:0:0:
460,120,28093,6,0,L|392:264,1,160,4|8,1:2|2:3,0:0:0:0:
272,316,28607,2,0,L|340:172,1,160,8|0,2:3|0:0,0:0:0:0:
384,60,29122,1,2,1:2:0:0:
384,60,29293,1,0,0:0:0:0:
272,20,29465,6,0,B|197:51|197:-12|117:19,1,160,2|8,1:2|2:3,0:0:0:0:
4,88,29979,2,0,B|78:56|78:120|158:88,1,160,8|0,2:3|1:2,0:0:0:0:
256,152,30493,1,2,1:2:0:0:
256,152,30665,1,2,0:2:0:0:
353,88,30836,6,0,B|433:120|433:56|508:88,1,160,0|8,1:2|2:3,0:0:0:0:
394,19,31350,2,0,B|314:-12|314:51|240:20,1,160,8|0,2:3|0:0,0:0:0:0:
136,92,31865,2,0,P|120:128|135:164,1,80,0|0,1:2|0:0,0:0:0:0:
192,276,32207,1,0,1:2:0:0:
320,276,32379,2,0,B|364:276|388:241|388:241|412:276|456:276,1,160,8|8,0:0|2:3,0:0:0:0:
320,203,32893,2,0,P|304:239|319:275,1,80,2|8,0:2|2:3,0:0:0:0:
456,276,33236,2,0,P|471:239|455:203,1,80,8|0,2:3|0:0,0:0:0:0:
388,104,33579,5,4,1:2:0:0:
388,104,33750,1,0,0:0:0:0:
288,48,33922,2,0,B|256:32|256:32|224:48,1,71.9999978027344,2|0,0:2|1:0,0:0:0:0:
224,164,34265,2,0,B|256:180|256:180|288:164,1,71.9999978027344,10|0,0:0|0:0,0:0:0:0:
388,104,34607,2,0,L|456:204,1,107.999996704102,2|0,0:2|0:0,0:0:0:0:
476,228,34950,6,0,B|492:260|492:260|476:292,1,71.9999978027344,0|8,1:2|0:0,0:0:0:0:
392,360,35293,2,0,B|360:376|360:376|328:360,1,71.9999978027344,2|0,0:2|1:2,0:0:0:0:
244,288,35636,2,0,B|228:256|228:256|244:224,1,71.9999978027344,10|0,0:0|1:2,0:0:0:0:
392,224,35979,2,0,L|276:224,1,107.999996704102,2|0,1:2|0:0,0:0:0:0:
244,223,36322,6,0,P|184:223|136:187,1,120,4|0,1:2|0:0,0:0:0:0:
108,152,36665,1,0,1:2:0:0:
181,31,36836,1,0,1:2:0:0:
181,31,36922,1,0,1:2:0:0:
181,31,37007,1,8,2:2:0:0:
256,152,37179,1,0,1:2:0:0:
331,31,37350,1,2,1:2:0:0:
331,31,37436,1,0,1:2:0:0:
331,31,37522,1,0,1:2:0:0:
404,152,37693,1,4,1:2:0:0:
192,336,38036,6,0,P|256:364|320:336,1,143.999995605469,2|2,0:0|0:0,0:0:0:0:
320,236,38550,2,0,P|255:207|191:235,1,143.999995605469,2|0,0:0|0:0,0:0:0:0:
320,336,39065,6,0,L|472:244,1,176.000005371094,6|8,1:2|0:0,0:0:0:0:
470,244,39579,1,0,1:2:0:0:
360,120,39750,2,0,B|400:102|400:102|440:120,1,88.000002685547,0|0,0:0|1:2,0:0:0:0:
296,200,40093,2,0,B|256:218|256:218|216:200,1,88.000002685547,10|0,0:0|0:0,0:0:0:0:
72,92,40436,6,0,L|-4:156,1,88.000002685547,2|0,1:2|0:0,0:0:0:0:
136,168,40779,2,0,L|212:104,2,88.000002685547,10|0|2,0:0|1:2|0:2,0:0:0:0:
72,92,41293,1,0,1:2:0:0:
84,248,41465,2,0,P|144:244|208:292,1,132.00000402832,10|0,0:0|0:0,0:0:0:0:
246,295,41807,6,0,L|424:256,1,176.000005371094,0|8,1:2|0:0,0:0:0:0:
352,360,42322,1,0,1:2:0:0:
360,192,42493,2,0,L|260:212,1,88.000002685547,2|0,0:0|1:2,0:0:0:0:
352,360,42836,2,0,L|438:342,1,88.000002685547,8|0,0:0|0:0,0:0:0:0:
360,192,43179,1,0,1:2:0:0:
438,341,43350,1,0,1:2:0:0:
360,192,43522,6,0,P|319:176|279:191,1,88.000002685547,10|0,0:0|1:2,0:0:0:0:
140,276,43865,2,0,P|180:291|220:276,1,88.000002685547,2|0,0:2|1:2,0:0:0:0:
92,192,44207,2,0,L|164:64,1,132.00000402832,10|0,0:0|0:0,0:0:0:0:
184,48,44550,6,0,B|228:48|256:91|256:91|284:48|328:48,1,176.000005371094,0|8,1:2|0:0,0:0:0:0:
296,176,45065,2,0,B|256:194|256:194|216:176,1,88.000002685547,0|0,1:2|0:0,0:0:0:0:
324,279,45407,1,0,1:2:0:0:
296,176,45579,1,10,0:0:0:0:
398,149,45750,1,0,0:0:0:0:
426,251,45922,6,0,P|466:266|506:251,1,88.000002685547,2|0,1:2|0:0,0:0:0:0:
398,149,46265,2,0,P|413:108|398:68,1,88.000002685547,10|0,0:0|1:2,0:0:0:0:
301,324,46607,1,2,0:2:0:0:
426,251,46779,1,0,1:2:0:0:
296,176,46950,2,0,P|240:188|200:256,1,132.00000402832,10|0,0:0|0:0,0:0:0:0:
184,280,47293,6,0,L|156:96,1,176.000005371094,0|8,1:2|0:0,0:0:0:0:
88,188,47807,2,0,L|104:284,1,88.000002685547,0|2,1:2|0:2,0:0:0:0:
244,144,48150,1,0,1:2:0:0:
72,196,48322,2,0,L|88:292,1,88.000002685547,8|0,0:0|0:0,0:0:0:0:
244,144,48665,5,2,1:2:0:0:
340,52,48836,1,0,1:2:0:0:
244,144,49007,2,0,B|284:162|284:162|324:144,1,88.000002685547,14|0,0:0|0:0,0:0:0:0:
428,232,49350,1,2,1:2:0:0:
324,143,49522,1,0,1:2:0:0:
428,232,49693,2,0,B|388:214|388:214|348:232,1,88.000002685547,14|0,0:0|0:0,0:0:0:0:
180,332,50036,6,0,B|256:288|256:288|332:332,1,176.000005371094,4|10,1:2|0:0,0:0:0:0:
332,332,50550,1,0,1:2:0:0:
316,240,50722,2,0,B|256:213|256:213|196:240,1,132.00000402832,2|0,0:2|0:0,0:0:0:0:
195,240,51065,2,0,P|180:200|195:160,1,88.000002685547,10|0,0:0|0:0,0:0:0:0:
316,64,51407,1,0,1:2:0:0:
196,64,51579,1,0,1:2:0:0:
316,159,51750,2,0,P|331:199|317:240,1,88.000002685547,10|0,0:0|1:2,0:0:0:0:
180,332,52093,2,0,B|132:332|132:332|96:312|96:312|52:312,1,132.00000402832,2|0,0:2|0:0,0:0:0:0:
53,312,52436,5,10,0:0:0:0:
0,192,52607,1,0,0:0:0:0:
53,72,52779,2,0,P|137:72|197:136,1,176.000005371094,0|8,1:2|0:0,0:0:0:0:
315,135,53293,2,0,P|373:72|459:72,1,176.000005371094,0|0,1:2|1:2,0:0:0:0:
456,228,53807,2,0,L|412:152,1,88.000002685547,8|0,0:0|0:0,0:0:0:0:
256,192,54150,2,0,B|232:252|280:252|256:320,1,132.00000402832,0|0,1:2|0:0,0:0:0:0:
192,284,54493,6,0,P|151:299|111:284,1,88.000002685547,10|0,0:0|1:2,0:0:0:0:
320,224,54836,2,0,P|360:208|400:223,1,88.000002685547,2|0,0:2|1:2,0:0:0:0:
508,360,55179,2,0,B|474:326|474:326|462:286|462:286|431:255,1,132.00000402832,10|0,0:0|0:0,0:0:0:0:
400,223,55522,2,0,P|415:182|400:142,1,88.000002685547,0|0,1:2|0:0,0:0:0:0:
197,7,55865,5,10,0:0:0:0:
256,168,56036,1,0,1:2:0:0:
303,3,56207,1,2,0:2:0:0:
168,108,56379,1,0,1:2:0:0:
339,102,56550,2,0,P|403:102|451:146,1,132.00000402832,10|0,0:0|0:0,0:0:0:0:
468,184,56893,2,0,L|424:260,1,88.000002685547,2|0,1:2|1:2,0:0:0:0:
256,312,57236,2,0,L|300:236,1,88.000002685547,10|0,0:0|1:2,0:0:0:0:
364,112,57579,5,2,0:2:0:0:
241,48,57750,1,0,1:2:0:0:
177,171,57922,1,10,0:0:0:0:
300,235,58093,1,0,0:0:0:0:
364,112,58265,2,0,B|408:112|428:84|428:84|488:84,1,132.00000402832,0|0,1:2|0:0,0:0:0:0:
487,84,58607,6,0,P|502:124|487:164,1,88.000002685547,12|0,0:0|0:0,0:0:0:0:
364,112,58950,2,0,P|349:72|364:32,1,88.000002685547,0|0,1:2|1:2,0:0:0:0:
486,164,59293,1,12,0:0:0:0:
364,252,59465,1,0,0:0:0:0:
486,337,59636,1,4,1:2:0:0:
336,252,59807,5,0,1:2:0:0:
336,252,59893,1,0,1:2:0:0:
336,252,59979,1,10,0:0:0:0:
176,252,60150,1,0,1:2:0:0:
176,252,60236,1,0,1:2:0:0:
176,252,60322,1,10,0:0:0:0:
256,120,60493,1,2,1:2:0:0:
256,120,60665,1,8,0:0:0:0:
336,252,60836,1,0,1:2:0:0:
336,252,60922,1,0,1:2:0:0:
336,252,61007,6,0,B|380:252|408:209|408:209|436:252|480:252,1,176.000005371094,6|8,1:2|0:0,0:0:0:0:
404,108,61522,1,0,1:2:0:0:
336,252,61693,2,0,B|318:212|318:212|336:172,1,88.000002685547,0|0,0:0|1:2,0:0:0:0:
480,171,62036,2,0,B|498:211|498:211|480:251,1,88.000002685547,10|0,0:0|0:0,0:0:0:0:
264,272,62379,6,0,B|237:212|237:212|264:152,1,132.00000402832,2|0,1:2|0:0,0:0:0:0:
200,116,62722,2,0,L|160:196,1,88.000002685547,10|0,0:0|1:2,0:0:0:0:
110,350,63065,1,2,0:2:0:0:
54,183,63236,1,0,1:2:0:0:
191,290,63407,2,0,P|144:264|68:284,1,132.00000402832,10|0,0:0|0:0,0:0:0:0:
110,350,63750,6,0,L|52:176,1,176.000005371094,0|8,1:2|0:0,0:0:0:0:
16,76,64265,1,0,1:2:0:0:
120,64,64436,2,0,P|160:49|200:64,1,88.000002685547,2|0,0:0|1:2,0:0:0:0:
296,160,64779,2,0,P|255:174|215:159,1,88.000002685547,8|0,0:0|0:0,0:0:0:0:
400,192,65122,6,0,B|386:277|331:244|311:339,1,176.000005371094,0|10,1:2|0:0,0:0:0:0:
200,338,65636,1,0,0:0:0:0:
200,338,65807,2,0,L|124:292,1,88.000002685547,2|0,1:2|1:2,0:0:0:0:
52,132,66150,2,0,B|28:192|76:192|52:260,1,132.00000402832,10|0,0:0|0:0,0:0:0:0:
51,260,66493,5,4,1:2:0:0:
52,132,66665,1,0,0:0:0:0:
212,92,66836,2,0,P|172:77|132:92,1,88.000002685547,8|0,0:0|1:2,0:0:0:0:
152,244,67179,2,0,L|168:156,1,88.000002685547,0|0,0:0|1:2,0:0:0:0:
300,92,67522,2,0,P|364:80|420:120,1,132.00000402832,10|0,0:0|0:0,0:0:0:0:
372,184,67865,6,0,L|512:56,1,176.000005371094,0|10,1:2|0:0,0:0:0:0:
464,224,68379,1,0,1:2:0:0:
316,292,68550,2,0,B|256:265|256:265|196:292,1,132.00000402832,2|0,0:0|0:0,0:0:0:0:
195,292,68893,2,0,P|180:252|195:212,1,88.000002685547,10|0,0:0|0:0,0:0:0:0:
315,211,69236,6,0,P|330:251|315:291,1,88.000002685547,2|0,1:2|0:0,0:0:0:0:
200,120,69579,1,8,0:0:0:0:
312,120,69750,1,0,1:2:0:0:
188,28,69922,2,0,L|108:72,1,88.000002685547,2|0,0:2|1:2,0:0:0:0:
324,28,70265,2,0,L|404:72,1,88.000002685547,8|0,0:0|0:0,0:0:0:0:
512,132,70607,5,2,1:2:0:0:
401,70,70779,1,0,1:2:0:0:
512,132,70950,2,0,P|527:172|512:212,1,88.000002685547,14|0,0:0|0:0,0:0:0:0:
401,314,71293,1,2,1:2:0:0:
512,212,71465,1,0,1:2:0:0:
401,314,71636,2,0,P|360:298|280:344,1,132.00000402832,14|0,0:0|0:0,0:0:0:0:
240,340,71979,6,0,L|212:164,1,176.000005371094,4|10,1:2|0:0,0:0:0:0:
64,88,72493,1,0,1:2:0:0:
64,88,72665,2,0,L|86:219,1,132.00000402832,2|0,0:2|0:0,0:0:0:0:
96,264,73007,2,0,P|136:279|176:264,1,88.000002685547,10|0,0:0|0:0,0:0:0:0:
296,160,73350,2,0,P|255:144|215:159,1,88.000002685547,0|0,1:2|0:0,0:0:0:0:
336,263,73693,6,0,B|416:231|416:295|508:263,1,176.000005371094,10|2,0:0|0:2,0:0:0:0:
376,332,74207,1,0,1:2:0:0:
464,192,74379,2,0,B|432:100|496:100|464:20,1,176.000005371094,10|0,0:0|1:2,0:0:0:0:
464,20,74893,1,0,0:0:0:0:
336,96,75065,2,0,B|296:114|296:114|256:96,1,88.000002685547,10|0,0:0|0:0,0:0:0:0:
124,56,75407,2,0,L|88:188,1,132.00000402832,2|0,1:2|0:0,0:0:0:0:
80,228,75750,6,0,P|37:300|80:371,1,176.000005371094,14|0,0:0|0:0,0:0:0:0:
180,300,76265,1,0,1:2:0:0:
180,300,76436,2,0,B|244:276|244:328|308:300,1,132.00000402832,8|0,0:0|0:0,0:0:0:0:
356,300,76779,1,2,1:2:0:0:
428,200,76950,1,0,1:2:0:0:
356,100,77122,2,0,P|304:100|244:52,1,132.00000402832,10|0,0:0|0:0,0:0:0:0:
216,20,77465,6,0,B|176:59|176:59|119:76|119:76|77:118,1,176.000005371094,4|8,1:2|0:0,0:0:0:0:
24,248,77979,2,0,B|63:208|63:208|120:191|120:191|162:149,1,176.000005371094,2|0,1:2|1:2,0:0:0:0:
256,224,78493,1,10,0:0:0:0:
256,224,78665,1,2,0:2:0:0:
349,149,78836,2,0,B|391:191|391:191|448:208|448:208|488:248,1,176.000005371094,4|8,1:2|0:0,0:0:0:0:
434,118,79350,2,0,B|392:76|392:76|335:59|335:59|296:20,1,176.000005371094,0|0,1:2|1:2,0:0:0:0:
160,24,79865,2,0,L|225:89,1,88.000002685547,10|2,0:0|0:2,0:0:0:0:
332,220,80207,6,0,B|332:264|375:292|375:292|332:320|332:364,1,176.000005371094,4|8,1:2|0:0,0:0:0:0:
180,364,80722,2,0,B|180:320|137:292|137:292|180:264|180:220,1,176.000005371094,2|0,0:0|1:2,0:0:0:0:
332,220,81236,1,8,0:0:0:0:
180,219,81407,1,0,0:0:0:0:
316,108,81579,6,0,B|256:81|256:81|196:108,1,132.00000402832,12|0,0:0|0:0,0:0:0:0:
195,108,81922,1,8,0:0:0:0:
344,20,82093,1,0,1:2:0:0:
344,20,82179,1,0,1:2:0:0:
344,20,82265,1,8,0:0:0:0:
256,168,82436,1,0,1:2:0:0:
168,20,82607,1,8,0:0:0:0:
344,20,82779,1,0,1:2:0:0:
256,168,82950,6,0,B|288:248|224:248|255:322,1,160,4|2,1:2|0:0,0:0:0:0:
255,322,83465,1,2,1:2:0:0:
255,322,83807,1,2,0:0:0:0:
120,272,83979,1,2,0:0:0:0:
120,272,84322,6,0,B|88:192|152:192|120:117,1,160,2|2,1:2|0:0,0:0:0:0:
120,117,84836,1,2,1:2:0:0:
120,117,85179,1,2,0:0:0:0:
256,72,85350,1,2,0:0:0:0:
256,72,85693,6,0,B|312:72|312:72|348:96|348:96|408:96,1,160,2|2,1:2|0:0,0:0:0:0:
408,96,86207,1,2,1:2:0:0:
408,96,86550,1,2,0:0:0:0:
482,227,86722,1,2,0:0:0:0:
482,227,87065,6,0,B|422:227|422:227|386:203|386:203|330:203,1,160,2|0,1:2|0:0,0:0:0:0:
329,203,87579,1,2,1:2:0:0:
219,104,87750,2,0,B|255:87|255:87|291:104,1,80,2|0,0:0|0:0,0:0:0:0:
291,20,88093,2,0,B|255:3|255:3|219:20,1,80,2|0,0:0|0:0,0:0:0:0:
185,203,88436,6,0,B|257:169|257:169|329:203,1,160,2|2,1:2|0:0,0:0:0:0:
329,203,88950,1,2,1:2:0:0:
329,203,89293,1,2,0:0:0:0:
356,96,89465,1,2,0:0:0:0:
356,96,89807,6,0,B|400:96|424:61|424:61|448:96|492:96,1,160,2|2,1:2|0:0,0:0:0:0:
492,96,90322,1,2,1:2:0:0:
492,96,90665,1,2,0:0:0:0:
418,196,90836,2,0,P|454:211|490:196,1,80,2|2,0:0|0:0,0:0:0:0:
378,277,91179,6,0,L|222:205,1,160,2|2,1:2|0:0,0:0:0:0:
232,209,91693,1,2,1:2:0:0:
232,209,92036,1,2,0:0:0:0:
205,91,92207,2,0,L|277:135,1,80,2|0,0:0|0:0,0:0:0:0:
108,124,92550,6,0,P|72:192|108:260,1,160,2|0,1:2|0:0,0:0:0:0:
188,192,93065,1,2,1:2:0:0:
108,124,93236,2,0,P|71:108|35:123,1,80,2|0,0:0|0:0,0:0:0:0:
35,259,93579,2,0,P|71:274|107:258,1,80,2|0,0:0|0:0,0:0:0:0:
188,192,93922,6,0,P|256:156|324:192,1,160,4|2,1:2|1:2,0:0:0:0:
256,280,94436,1,0,0:0:0:0:
323,191,94607,2,0,B|362:151|362:151|371:108|371:108|413:66,1,160,2|2,0:2|1:2,0:0:0:0:
414,66,95122,1,0,0:0:0:0:
288,116,95293,6,0,B|248:155|248:155|239:198|239:198|197:240,1,160,2|2,1:2|1:2,0:0:0:0:
76,288,95807,2,0,B|115:248|115:248|124:205|124:205|166:163,1,160,2|0,1:2|1:2,0:0:0:0:
244,76,96322,1,2,1:2:0:0:
244,76,96493,1,2,0:2:0:0:
356,144,96665,6,0,P|436:144|484:204,1,160,2|0,1:2|1:2,0:0:0:0:
440,336,97179,2,0,P|360:336|312:276,1,160,2|2,1:2|0:0,0:0:0:0:
256,192,97693,1,2,1:2:0:0:
256,192,97865,1,0,0:0:0:0:
112,260,98036,6,0,P|76:192|112:124,1,160,2|2,1:2|0:2,0:0:0:0:
220,48,98550,1,0,1:2:0:0:
220,48,98722,2,0,P|256:33|292:48,1,80,2|0,0:2|1:2,0:0:0:0:
292,152,99065,2,0,P|255:167|219:152,1,80,2|0,1:2|0:0,0:0:0:0:
368,20,99407,6,0,L|464:152,1,160,4|0,1:2|1:2,0:0:0:0:
386,281,99922,2,0,L|290:149,1,160,2|0,1:2|0:0,0:0:0:0:
208,44,100436,2,0,P|152:44|104:84,1,120,2|0,1:2|0:0,0:0:0:0:
88,124,100779,6,0,B|120:204|56:204|88:280,1,160,2|2,1:2|1:2,0:0:0:0:
310,240,101293,2,0,B|236:272|236:208|156:240,1,160,2|0,1:2|1:2,0:0:0:0:
272,172,101807,1,2,1:2:0:0:
196,308,101979,1,2,0:2:0:0:
272,172,102150,2,0,B|316:172|340:137|340:137|364:172|408:172,1,160,2|0,1:2|1:2,0:0:0:0:
268,92,102665,2,0,B|224:92|200:127|200:127|176:92|132:92,1,160,2|2,1:2|0:0,0:0:0:0:
28,32,103179,1,2,1:2:0:0:
28,32,103350,1,0,0:0:0:0:
28,200,103522,6,0,B|80:200|104:232|104:232|180:232,1,160,2|0,1:2|0:0,0:0:0:0:
212,32,104036,1,2,1:2:0:0:
256,168,104207,1,2,0:2:0:0:
300,32,104379,1,0,1:2:0:0:
184,116,104550,1,2,1:2:0:0:
327,116,104722,1,0,0:0:0:0:
212,32,104893,6,0,L|93:150,1,160,4|2,1:2|1:2,0:0:0:0:
0,216,105407,1,0,1:0:0:0:
80,288,105579,2,0,P|148:324|216:288,1,160,2|2,0:2|1:2,0:0:0:0:
256,184,106093,1,0,0:0:0:0:
410,184,106265,6,0,B|330:216|330:152|254:184,1,160,2|2,1:2|1:2,0:0:0:0:
100,184,106779,2,0,B|180:216|180:152|256:184,1,160,2|0,1:2|1:2,0:0:0:0:
140,112,107293,1,2,1:2:0:0:
140,112,107465,1,2,0:2:0:0:
188,296,107636,6,0,B|232:296|256:261|256:261|280:296|324:296,1,160,2|0,1:2|1:2,0:0:0:0:
464,200,108150,2,0,B|420:200|396:235|396:235|372:200|328:200,1,160,2|2,1:2|0:0,0:0:0:0:
396,104,108665,1,2,1:2:0:0:
396,104,108836,1,0,0:0:0:0:
188,52,109007,6,0,P|256:16|324:52,1,160,2|2,1:2|0:2,0:0:0:0:
256,159,109522,1,0,1:2:0:0:
188,52,109693,2,0,P|173:88|188:124,1,80,2|0,0:2|1:2,0:0:0:0:
323,124,110036,2,0,P|339:88|324:52,1,80,2|0,1:2|0:0,0:0:0:0:
256,159,110379,6,0,B|288:239|224:239|256:315,1,160,2|0,1:2|1:2,0:0:0:0:
184,348,110893,2,0,B|256:314|256:314|328:348,1,160,2|0,1:2|0:0,0:0:0:0:
316,208,111407,2,0,B|256:181|256:181|208:204,1,120,2|0,1:2|0:0,0:0:0:0:
184,136,111750,6,0,B|256:102|256:102|328:136,1,160,2|2,1:2|1:2,0:0:0:0:
188,44,112265,2,0,B|232:44|256:9|256:9|280:44|324:44,1,160,2|0,1:2|1:2,0:0:0:0:
444,64,112779,1,2,1:2:0:0:
324,44,112950,1,2,0:2:0:0:
444,64,113122,6,0,L|420:228,1,160,2|0,1:2|1:2,0:0:0:0:
300,202,113636,2,0,L|324:38,1,160,2|2,1:2|0:0,0:0:0:0:
212,112,114150,2,0,L|200:191,1,80,2|0,1:2|0:0,0:0:0:0:
36,344,114493,5,4,0:0:0:0:
124,192,114665,1,8,2:2:0:0:
196,345,114836,1,0,1:2:0:0:
40,192,115007,5,8,2:2:0:0:
120,344,115179,1,10,2:2:0:0:
200,191,115350,1,8,2:2:0:0:
284,336,115522,1,2,1:2:0:0:
284,336,115865,6,0,P|348:364|412:336,1,143.999995605469,4|2,1:2|0:0,0:0:0:0:
427,191,116550,1,2,0:0:0:0:
427,191,116893,2,0,P|363:163|299:191,1,143.999995605469,2|2,0:0|0:0,0:0:0:0:
284,336,117579,1,2,0:0:0:0:
284,336,117922,2,0,P|219:364|155:336,1,143.999995605469,2|2,0:0|0:0,0:0:0:0:
104,192,118607,5,2,1:2:0:0:
104,192,118950,1,2,1:2:0:0:
256,40,119293,1,8,2:2:0:0:
352,104,119465,1,4,0:0:0:0:
256,192,119636,1,2,1:2:0:0:
352,280,119807,1,10,2:2:0:0:
256,344,119979,1,4,1:2:0:0:
256,192,120150,5,0,1:2:0:0:
205,203,120236,1,0,1:2:0:0:
164,171,120322,1,10,0:2:0:0:
164,119,120407,1,0,1:2:0:0:
205,86,120493,1,0,1:2:0:0:
256,98,120579,1,0,1:2:0:0:
278,145,120665,6,0,L|320:136,1,40,10|0,0:2|1:2,0:0:0:0:
392,196,120836,2,0,L|350:205,1,40,2|0,1:2|1:2,0:0:0:0:
432,264,121007,2,0,L|474:255,1,40,8|0,0:2|1:2,0:0:0:0:
512,336,121179,2,0,L|472:344,1,40,0|0,1:2|1:2,0:0:0:0:
388,356,121350,6,0,B|340:356|312:328|312:328|220:328,1,176.000005371094,6|8,1:2|0:0,0:0:0:0:
88,328,121865,1,0,1:2:0:0:
88,328,122036,2,0,L|28:204,1,132.00000402832,2|0,0:0|0:0,0:0:0:0:
12,168,122379,6,0,P|41:137|84:134,1,88.000002685547,10|0,0:0|0:0,0:0:0:0:
256,168,122722,2,0,P|226:198|183:201,1,88.000002685547,2|0,1:2|0:0,0:0:0:0:
264,48,123065,2,0,P|293:17|336:14,1,88.000002685547,10|0,0:0|1:2,0:0:0:0:
428,160,123407,1,2,0:2:0:0:
476,308,123579,1,0,1:2:0:0:
349,216,123750,1,10,0:0:0:0:
506,216,123922,1,0,0:0:0:0:
379,308,124093,6,0,B|287:340|287:276|207:308,1,176.000005371094,2|8,1:2|0:0,0:0:0:0:
207,307,124607,1,0,1:2:0:0:
76,376,124779,2,0,B|168:344|168:408|248:376,1,176.000005371094,2|8,0:0|0:0,0:0:0:0:
247,376,125293,1,0,0:0:0:0:
332,240,125465,2,0,B|350:200|350:200|387:168|387:168|404:132,1,132.00000402832,2|0,1:2|0:0,0:0:0:0:
420,88,125807,5,10,0:0:0:0:
308,20,125979,1,0,1:2:0:0:
216,116,126150,2,0,P|256:130|296:115,1,88.000002685547,2|0,0:2|1:2,0:0:0:0:
204,20,126493,2,0,P|144:-4|84:20,1,132.00000402832,10|0,0:0|0:0,0:0:0:0:
48,52,126836,6,0,B|48:108|48:108|20:160|20:160|20:220,1,176.000005371094,4|8,1:2|0:0,0:0:0:0:
92,380,127350,2,0,B|91:324|91:324|120:272|120:272|120:212,1,176.000005371094,2|0,1:2|1:2,0:0:0:0:
120,72,127865,1,10,0:0:0:0:
256,24,128036,1,0,0:0:0:0:
392,72,128207,6,0,B|432:54|432:54|472:72,1,88.000002685547,2|0,1:2|0:0,0:0:0:0:
472,232,128550,2,0,B|432:250|432:250|392:232,1,88.000002685547,10|0,0:0|1:2,0:0:0:0:
392,72,128893,1,2,0:2:0:0:
472,232,129065,1,0,1:2:0:0:
392,72,129236,2,0,P|324:72|276:32,1,132.00000402832,10|0,0:0|0:0,0:0:0:0:
231,20,129579,6,0,B|171:20|171:20|119:48|119:48|63:48,1,176.000005371094,0|8,1:2|0:0,0:0:0:0:
63,48,130093,1,0,1:2:0:0:
204,100,130265,2,0,B|264:100|264:100|316:72|316:72|372:72,1,176.000005371094,2|8,0:2|0:0,0:0:0:0:
372,72,130779,1,0,0:0:0:0:
435,199,130950,6,0,P|478:271|435:343,1,176.000005371094,2|14,1:2|0:0,0:0:0:0:
436,343,131465,1,0,0:0:0:0:
280,272,131636,2,0,L|368:272,1,88.000002685547,2|0,1:2|1:2,0:0:0:0:
256,344,131979,2,0,B|212:344|212:344|176:364|176:364|128:364,1,132.00000402832,14|0,0:0|0:0,0:0:0:0:
84,364,132322,6,0,B|40:288|40:288|84:212,1,176.000005371094,4|10,1:2|0:0,0:0:0:0:
144,96,132836,1,0,1:2:0:0:
144,96,133007,2,0,L|160:184,1,88.000002685547,2|0,0:2|1:2,0:0:0:0:
196,344,133350,2,0,B|256:371|256:371|316:344,1,132.00000402832,10|0,0:0|0:0,0:0:0:0:
296,272,133693,6,0,B|256:290|256:290|216:272,1,88.000002685547,0|0,1:2|0:0,0:0:0:0:
304,192,134036,1,10,0:0:0:0:
208,192,134207,1,0,1:2:0:0:
316,40,134379,2,0,B|256:13|256:13|196:40,1,132.00000402832,2|0,0:2|0:0,0:0:0:0:
216,112,134722,2,0,B|256:94|256:94|296:112,1,88.000002685547,10|0,0:0|0:0,0:0:0:0:
475,192,135065,6,0,B|383:224|383:160|303:192,1,176.000005371094,2|8,1:2|0:0,0:0:0:0:
164,268,135579,1,2,1:2:0:0:
164,268,135750,2,0,B|256:236|256:300|336:268,1,176.000005371094,0|10,0:0|0:0,0:0:0:0:
215,352,136265,1,0,0:0:0:0:
95,151,136436,6,0,P|80:191|96:232,1,88.000002685547,2|0,1:2|0:0,0:0:0:0:
215,352,136779,2,0,P|255:367|296:352,1,88.000002685547,10|0,0:0|1:2,0:0:0:0:
416,232,137122,2,0,P|431:191|416:151,1,88.000002685547,2|0,0:2|1:2,0:0:0:0:
256,56,137465,2,0,B|232:116|280:116|256:184,1,132.00000402832,10|0,0:0|0:0,0:0:0:0:
296,248,137807,6,0,P|255:263|215:248,1,88.000002685547,4|0,1:2|0:0,0:0:0:0:
72,143,138150,1,10,0:0:0:0:
127,313,138322,1,0,1:2:0:0:
182,143,138493,1,2,0:2:0:0:
38,248,138665,1,0,1:2:0:0:
215,248,138836,2,0,B|259:248|279:220|279:220|339:220,1,132.00000402832,10|0,0:0|0:0,0:0:0:0:
338,220,139179,6,0,L|376:124,1,88.000002685547,2|0,1:2|0:0,0:0:0:0:
214,61,139522,2,0,L|176:157,1,88.000002685547,10|0,0:0|1:2,0:0:0:0:
338,220,139865,1,2,0:2:0:0:
181,142,140036,1,0,1:2:0:0:
356,228,140207,2,0,L|393:132,1,88.000002685547,10|0,0:0|0:0,0:0:0:0:
256,356,140550,5,2,1:2:0:0:
155,308,140722,2,0,P|140:268|156:228,1,88.000002685547,4|0,0:0|1:2,0:0:0:0:
256,140,141065,1,2,1:2:0:0:
356,228,141236,2,0,P|371:268|356:308,1,88.000002685547,4|0,0:0|1:2,0:0:0:0:
256,356,141579,1,10,0:0:0:0:
155,308,141750,1,4,0:0:0:0:
256,252,141922,1,10,1:2:0:0:
256,140,142093,5,0,1:2:0:0:
263,84,142179,1,0,1:2:0:0:
222,42,142265,1,10,0:0:0:0:
165,47,142350,1,0,1:2:0:0:
134,96,142436,1,0,1:2:0:0:
152,150,142522,1,0,1:2:0:0:
206,170,142607,6,0,L|189:214,1,44.0000013427735,10|0,1:2|1:2,0:0:0:0:
88,261,142779,2,0,L|108:217,1,44.0000013427735,2|0,1:2|1:2,0:0:0:0:
256,251,142950,2,0,L|238:292,1,44.0000013427735,8|0,1:2|1:2,0:0:0:0:
136,348,143122,2,0,L|155:308,1,44.0000013427735,0|0,1:2|1:2,0:0:0:0:
288,176,143293,6,0,B|368:144|368:208|460:176,1,176.000005371094,6|8,1:2|0:0,0:0:0:0:
328,248,143807,2,0,B|248:280|248:216|156:248,1,176.000005371094,0|0,1:2|1:2,0:0:0:0:
44,172,144322,1,10,0:0:0:0:
156,247,144493,1,0,0:0:0:0:
44,172,144665,6,0,B|26:132|26:132|44:92,1,88.000002685547,2|0,1:2|0:0,0:0:0:0:
176,16,145007,2,0,B|194:56|194:56|176:96,1,88.000002685547,10|0,0:0|1:2,0:0:0:0:
256,176,145350,1,2,0:2:0:0:
256,176,145522,1,0,1:2:0:0:
336,16,145693,2,0,B|309:76|309:76|336:136,1,132.00000402832,10|0,0:0|0:0,0:0:0:0:
356,176,146036,6,0,L|396:264,1,88.000002685547,2|0,1:2|0:0,0:0:0:0:
472,136,146379,2,0,L|432:48,1,88.000002685547,8|0,0:0|1:2,0:0:0:0:
236,56,146722,2,0,B|180:56|152:24|152:24|64:24,1,176.000005371094,2|8,0:0|0:0,0:0:0:0:
68,24,147236,1,0,0:0:0:0:
68,164,147407,2,0,P|44:224|68:284,1,132.00000402832,2|0,1:2|0:0,0:0:0:0:
67,283,147750,1,10,0:0:0:0:
152,164,147922,1,0,1:2:0:0:
240,280,148093,2,0,P|280:295|320:280,1,88.000002685547,2|0,1:2|1:2,0:0:0:0:
444,200,148436,2,0,B|444:156|468:136|468:136|468:72,1,132.00000402832,10|0,0:0|0:0,0:0:0:0:
436,40,148779,6,0,P|363:-2|292:40,1,176.000005371094,4|8,1:2|0:0,0:0:0:0:
184,136,149293,2,0,P|255:178|327:136,1,176.000005371094,0|0,1:2|1:2,0:0:0:0:
220,40,149807,1,10,0:0:0:0:
327,136,149979,1,0,0:0:0:0:
220,40,150150,6,0,P|179:24|139:39,1,88.000002685547,2|0,1:2|0:0,0:0:0:0:
44,152,150493,2,0,P|28:192|43:232,1,88.000002685547,10|0,0:0|1:2,0:0:0:0:
139,344,150836,2,0,P|179:359|220:344,1,88.000002685547,2|0,0:0|1:2,0:0:0:0:
256,192,151179,2,0,B|324:176|324:216|388:192,1,132.00000402832,10|0,0:0|0:0,0:0:0:0:
432,192,151522,6,0,B|476:116|476:116|432:40,1,176.000005371094,2|8,1:2|0:0,0:0:0:0:
431,39,152036,1,0,1:2:0:0:
296,40,152207,2,0,B|234:63|234:23|166:39,1,132.00000402832,2|0,0:2|0:0,0:0:0:0:
120,40,152550,2,0,P|79:24|39:39,1,88.000002685547,8|0,0:0|0:0,0:0:0:0:
40,180,152893,5,2,1:2:0:0:
39,39,153065,1,0,1:2:0:0:
40,180,153236,2,0,L|140:272,1,132.00000402832,14|0,0:0|0:0,0:0:0:0:
176,296,153579,2,0,P|191:336|176:376,1,88.000002685547,2|0,1:2|1:2,0:0:0:0:
39,260,153922,2,0,P|24:220|39:180,1,88.000002685547,14|0,0:0|0:0,0:0:0:0:
196,88,154265,6,0,P|256:64|316:88,1,132.00000402832,4|0,1:2|0:0,0:0:0:0:
315,87,154607,1,10,0:0:0:0:
256,192,154779,1,0,1:2:0:0:
196,88,154950,2,0,L|140:160,1,88.000002685547,2|0,0:2|1:2,0:0:0:0:
268,296,155293,2,0,L|349:191,1,132.00000402832,10|0,0:0|0:0,0:0:0:0:
256,192,155636,6,0,L|200:264,1,88.000002685547,0|0,1:2|0:0,0:0:0:0:
384,272,155979,1,10,0:0:0:0:
256,192,156150,1,0,1:2:0:0:
384,112,156322,2,0,P|343:96|303:111,1,88.000002685547,2|0,0:2|1:2,0:0:0:0:
175,191,156665,2,0,P|215:206|255:191,1,88.000002685547,10|0,0:0|0:0,0:0:0:0:
48,284,157007,6,0,L|44:100,1,176.000005371094,0|10,1:2|0:0,0:0:0:0:
44,108,157522,1,0,1:2:0:0:
196,56,157693,2,0,B|256:29|256:29|316:56,1,132.00000402832,2|0,1:2|0:0,0:0:0:0:
380,24,158036,2,0,L|272:164,1,176.000005371094,14|0,0:0|0:0,0:0:0:0:
196,256,158550,5,0,1:2:0:0:
324,256,158722,2,0,B|264:232|264:280|196:256,1,132.00000402832,8|0,0:0|0:0,0:0:0:0:
228,192,159065,1,2,1:2:0:0:
292,320,159236,1,0,1:2:0:0:
99,191,159407,2,0,B|159:215|159:167|227:191,1,132.00000402832,10|0,0:0|0:0,0:0:0:0:
304,192,159750,6,0,P|346:119|303:48,1,176.000005371094,4|8,1:2|0:0,0:0:0:0:
132,47,160265,2,0,B|224:15|224:79|304:47,1,176.000005371094,0|0,1:0|1:2,0:0:0:0:
176,120,160779,1,10,0:0:0:0:
176,120,160950,1,2,0:2:0:0:
304,192,161122,2,0,B|212:160|212:224|132:192,1,176.000005371094,4|8,1:2|0:0,0:0:0:0:
184,320,161636,2,0,B|228:320|256:277|256:277|284:320|328:320,1,176.000005371094,0|0,1:0|1:2,0:0:0:0:
428,192,162150,2,0,L|412:288,1,88.000002685547,10|2,0:0|0:2,0:0:0:0:
332,112,162493,6,0,B|256:68|256:68|180:112,1,176.000005371094,4|8,1:2|0:0,0:0:0:0:
180,272,163007,2,0,B|256:316|256:316|332:272,1,176.000005371094,2|0,0:0|1:2,0:0:0:0:
332,112,163522,1,8,0:0:0:0:
332,271,163693,1,2,0:0:0:0:
256,192,163865,2,0,B|316:216|316:168|384:192,1,132.00000402832,2|0,1:2|0:0,0:0:0:0:
384,192,164207,1,12,0:0:0:0:
168,257,164379,5,0,1:2:0:0:
168,257,164465,1,0,1:2:0:0:
168,257,164550,1,8,0:0:0:0:
113,87,164722,1,0,1:2:0:0:
256,192,164893,1,8,0:0:0:0:
79,192,165065,1,0,1:2:0:0:
223,87,165236,6,0,B|271:87|295:59|295:59|379:59,1,160,4|10,1:2|0:0,0:0:0:0:
375,59,165750,1,0,1:2:0:0:
480,108,165922,2,0,B|432:108|408:136|408:136|324:136,1,160,2|10,0:0|0:0,0:0:0:0:
256,224,166436,1,2,0:0:0:0:
184,136,166607,2,0,B|144:136|144:136|120:108|72:108,1,120,0|0,1:2|0:0,0:0:0:0:
28,88,166950,6,0,P|13:52|28:16,1,80,10|0,0:0|1:2,0:0:0:0:
184,63,167293,2,0,P|199:99|184:135,1,80,2|0,0:0|1:2,0:0:0:0:
80,240,167636,2,0,B|120:240|120:240|156:260|156:260|196:260,1,120,10|0,0:0|0:0,0:0:0:0:
240,260,167979,2,0,P|320:260|376:316,1,160,2|8,1:2|0:0,0:0:0:0:
288,332,168493,1,0,1:2:0:0:
288,332,168665,2,0,L|336:212,1,120,0|0,0:0|0:0,0:0:0:0:
348,176,169007,5,10,0:0:0:0:
384,64,169179,1,2,0:0:0:0:
496,96,169350,1,0,1:2:0:0:
460,208,169522,1,0,1:2:0:0:
348,176,169693,1,8,0:0:0:0:
384,64,169865,2,0,B|340:64|316:29|316:29|292:64|248:64,1,160,2|0,0:0|1:2,0:0:0:0:
124,64,170379,2,0,B|107:100|107:100|124:136,1,80,8|0,0:0|0:0,0:0:0:0:
188,248,170722,6,0,B|232:248|256:276|256:276|344:276,1,160,2|10,1:2|0:0,0:0:0:0:
339,276,171236,1,0,1:2:0:0:
188,324,171407,2,0,B|144:324|120:296|120:296|32:296,1,160,2|10,0:0|0:0,0:0:0:0:
36,296,171922,1,2,0:0:0:0:
36,168,172093,6,0,P|103:132|171:168,1,160,0|10,1:2|0:0,0:0:0:0:
256,240,172607,1,0,1:2:0:0:
341,168,172779,2,0,L|400:112,1,80,2|0,0:0|1:2,0:0:0:0:
440,224,173122,2,0,L|349:312,1,120,10|0,0:0|0:0,0:0:0:0:
316,332,173465,6,0,P|236:332|176:280,1,160,2|8,1:2|0:0,0:0:0:0:
120,192,173979,1,0,1:2:0:0:
177,101,174150,2,0,P|237:51|316:52,1,160,2|8,0:0|0:0,0:0:0:0:
315,51,174665,1,0,0:0:0:0:
308,200,174836,6,0,L|268:128,1,80,2|0,1:2|1:2,0:0:0:0:
384,240,175179,2,0,P|337:275|278:276,1,120,8|0,0:0|0:0,0:0:0:0:
236,268,175522,2,0,L|212:348,1,80,2|2,1:2|1:2,0:0:0:0:
132,224,175865,2,0,L|156:144,1,80,8|0,0:0|0:0,0:0:0:0:
256,36,176207,6,0,P|324:0|392:36,1,160,4|10,1:2|0:0,0:0:0:0:
464,128,176722,1,0,1:2:0:0:
344,112,176893,2,0,L|488:-12,1,160,2|10,0:0|0:0,0:0:0:0:
464,128,177407,1,2,0:0:0:0:
304,244,177579,6,0,P|256:244|204:296,1,120,0|0,1:2|0:0,0:0:0:0:
205,291,177922,2,0,L|108:276,1,80,10|0,0:0|1:2,0:0:0:0:
22,187,178265,1,2,0:0:0:0:
126,278,178436,1,0,1:2:0:0:
22,187,178607,2,0,L|119:202,1,80,10|2,0:0|0:0,0:0:0:0:
188,152,178950,6,0,B|232:152|256:117|256:117|280:152|324:152,2,160,0|8|0,1:2|0:0|0:0,0:0:0:0:
188,152,179807,1,0,1:2:0:0:
324,152,179979,1,10,0:0:0:0:
256,28,180150,1,2,0:0:0:0:
288,228,180322,6,0,P|252:213|216:228,1,80,0|0,1:2|1:2,0:0:0:0:
304,332,180665,1,8,0:0:0:0:
208,332,180836,1,2,0:0:0:0:
304,332,181007,2,0,L|372:276,1,80,2|0,1:2|1:2,0:0:0:0:
208,332,181350,2,0,L|140:276,1,80,10|0,0:0|0:0,0:0:0:0:
44,120,181693,6,0,B|10:192|10:192|44:264,1,160,4|8,1:2|0:0,0:0:0:0:
204,192,182207,1,2,1:2:0:0:
112,228,182379,2,0,B|95:192|95:192|112:156,1,80,0|0,1:2|1:2,0:0:0:0:
284,156,182722,2,0,B|301:192|301:192|284:228,1,80,8|0,0:0|0:0,0:0:0:0:
438,228,183065,6,0,B|363:259|363:195|283:227,1,160,2|10,1:2|0:0,0:0:0:0:
400,156,183579,1,0,0:0:0:0:
444,312,183750,2,0,L|524:268,1,80,2|0,1:2|1:2,0:0:0:0:
470,117,184093,2,0,L|390:161,1,80,10|2,0:0|0:0,0:0:0:0:
220,64,184436,6,0,B|256:47|256:47|292:64,1,80,4|0,1:2|0:0,0:0:0:0:
188,192,184779,1,0,1:2:0:0:
324,192,184950,1,0,1:2:0:0:
168,312,185122,1,0,1:2:0:0:
344,312,185293,1,0,1:2:0:0:
256,160,185465,1,0,1:2:0:0:
168,312,185636,1,0,1:2:0:0:
92,160,185807,1,8,0:0:0:0:
256,160,185979,5,0,1:2:0:0:
204,172,186065,1,0,1:2:0:0:
164,139,186150,1,8,0:0:0:0:
164,87,186236,1,0,1:2:0:0:
205,54,186322,1,0,1:2:0:0:
256,66,186407,1,0,1:2:0:0:
278,113,186493,6,0,L|336:96,1,40,8|0,0:0|1:2,0:0:0:0:
384,160,186665,2,0,L|345:171,1,40,0|0,1:2|1:2,0:0:0:0:
412,232,186836,2,0,L|450:220,1,40,10|0,0:0|1:2,0:0:0:0:
512,284,187007,2,0,L|473:295,1,40,2|0,1:2|1:2,0:0:0:0:
400,312,187179,6,0,P|363:327|327:312,1,80,6|0,1:2|0:0,0:0:0:0:
256,220,187522,1,8,0:0:0:0:
185,312,187693,2,0,B|110:280|110:344|30:312,1,160,2|0,1:2|1:2,0:0:0:0:
124,132,188207,2,0,L|76:244,1,120,8|0,0:0|0:0,0:0:0:0:
76,242,188550,1,0,1:2:0:0:
124,132,188722,1,0,1:2:0:0:
215,238,188893,6,0,L|184:311,1,80,10|0,0:0|0:0,0:0:0:0:
124,132,189236,2,0,L|154:58,1,80,2|0,0:0|1:2,0:0:0:0:
280,24,189579,2,0,P|340:24|380:64,1,120,8|0,0:0|0:0,0:0:0:0:
404,100,189922,2,0,P|419:136|404:172,1,80,2|0,1:2|0:0,0:0:0:0:
369,274,190265,1,10,0:0:0:0:
324,372,190436,2,0,B|280:372|256:337|256:337|232:372|188:372,1,160,2|0,1:2|1:2,0:0:0:0:
256,244,190950,1,10,0:0:0:0:
256,244,191122,1,0,0:0:0:0:
324,372,191293,6,0,P|339:336|324:300,1,80,2|0,1:2|1:2,0:0:0:0:
188,299,191636,2,0,P|173:335|188:372,1,80,8|0,0:0|1:2,0:0:0:0:
323,299,191979,1,2,0:0:0:0:
256,168,192150,1,0,1:2:0:0:
189,299,192322,2,0,P|133:299|85:259,1,120,8|0,0:0|0:0,0:0:0:0:
48,236,192665,6,0,L|8:308,1,80,6|0,1:2|0:0,0:0:0:0:
9,305,193007,1,8,0:0:0:0:
128,192,193179,2,0,L|206:46,1,160,2|0,1:2|1:2,0:0:0:0:
308,51,193693,2,0,B|352:51|352:51|380:67|380:67|424:67,1,120,8|0,0:0|0:0,0:0:0:0:
468,68,194036,2,0,B|485:104|485:104|468:140,1,80,0|0,1:2|1:2,0:0:0:0:
392,224,194379,1,8,0:0:0:0:
300,336,194550,6,0,B|225:367|225:303|145:335,1,160,2|0,1:2|1:2,0:0:0:0:
275,224,195065,2,0,B|331:200|331:244|391:224,1,120,10|0,0:0|0:0,0:0:0:0:
428,204,195407,2,0,L|380:48,1,160,2|8,1:2|0:0,0:0:0:0:
227,71,195922,2,0,L|275:227,1,160,2|0,1:2|1:2,0:0:0:0:
316,340,196436,1,10,0:0:0:0:
196,340,196607,1,0,0:0:0:0:
316,340,196779,6,0,P|352:324|388:339,1,80,2|0,1:2|1:2,0:0:0:0:
274,223,197122,2,0,P|237:238|201:223,1,80,8|2,0:0|0:0,0:0:0:0:
136,120,197465,1,2,1:2:0:0:
136,120,197636,1,0,1:2:0:0:
256,20,197807,1,12,0:0:0:0:
256,20,197979,1,0,0:0:0:0:
376,120,198150,6,0,B|393:156|393:156|376:192,1,80,6|0,1:2|0:0,0:0:0:0:
273,295,198493,2,0,B|256:259|256:259|273:223,1,80,8|2,0:0|1:2,0:0:0:0:
380,360,198836,1,0,0:0:0:0:
273,295,199007,1,0,1:2:0:0:
380,287,199179,2,0,B|397:323|397:323|380:359,1,80,8|0,0:0|0:0,0:0:0:0:
196,332,199522,6,0,B|162:260|162:260|196:188,1,160,2|8,1:2|0:0,0:0:0:0:
324,68,200036,2,0,B|280:68|256:33|256:33|232:68|188:68,1,160,2|0,1:2|1:2,0:0:0:0:
256,192,200550,1,10,0:0:0:0:
187,68,200722,1,0,0:0:0:0:
324,68,200893,6,0,P|339:104|324:140,1,80,6|0,1:2|0:0,0:0:0:0:
187,243,201236,2,0,P|172:279|188:316,1,80,8|2,0:0|1:2,0:0:0:0:
323,316,201579,2,0,P|339:279|324:243,1,80,0|0,0:0|1:2,0:0:0:0:
186,140,201922,2,0,P|170:103|186:67,1,80,8|0,0:0|0:0,0:0:0:0:
326,140,202265,6,0,B|382:112|382:160|442:140,1,120,2|0,1:2|0:0,0:0:0:0:
484,140,202607,1,12,0:0:0:0:
404,64,202779,2,0,B|436:144|372:144|403:218,1,160,2|0,0:0|1:2,0:0:0:0:
448,328,203293,1,14,0:0:0:0:
403,218,203465,1,0,0:0:0:0:
256,336,203636,5,6,1:2:0:0:
208,188,203807,1,0,0:0:0:0:
333,279,203979,1,8,0:0:0:0:
178,279,204150,1,2,1:2:0:0:
304,188,204322,2,0,L|320:108,1,80,0|0,0:0|1:2,0:0:0:0:
212,28,204665,2,0,L|196:108,1,80,10|0,0:0|0:0,0:0:0:0:
42,279,205007,6,0,P|110:243|178:279,1,160,4|10,1:2|0:0,0:0:0:0:
324,364,205522,2,0,B|280:364|256:329|256:329|232:364|188:364,1,160,0|0,1:2|1:2,0:0:0:0:
335,278,206036,2,0,P|350:241|335:205,1,80,10|0,0:0|0:0,0:0:0:0:
184,96,206379,6,0,B|256:62|256:62|328:96,1,160,14|0,0:0|1:2,0:0:0:0:
451,124,206893,1,0,0:0:0:0:
451,124,207065,2,0,B|451:168|416:192|416:192|451:216|451:260,1,160,0|2,1:2|1:2,0:0:0:0:
316,192,207579,1,2,0:0:0:0:
451,260,207750,6,0,L|320:356,1,160,4|2,1:2|1:2,0:0:0:0:
180,340,208265,1,0,1:2:0:0:
180,340,208350,1,0,1:2:0:0:
180,340,208436,1,10,0:0:0:0:
106,266,208607,1,2,1:2:0:0:
180,192,208779,1,2,1:2:0:0:
253,266,208950,1,0,1:2:0:0:
180,340,209122,5,2,0:0:0:0:
256,80,209636,1,2,0:0:0:0:
332,340,210150,1,2,0:0:0:0:
404,236,210493,2,0,P|468:236|508:192,1,128,2|2,0:0|0:0,0:0:0:0:
452,76,211179,2,0,P|388:76|348:120,1,128,2|2,0:0|0:0,0:0:0:0:
256,212,211865,5,2,0:0:0:0:
164,120,212207,1,0,0:0:0:0:
164,120,212379,2,0,P|122:75|60:76,1,128,2|0,0:0|0:0,0:0:0:0:
92,144,212893,2,0,L|28:260,1,128,2|2,0:0|0:0,0:0:0:0:
108,356,213579,2,0,L|172:240,1,128,2|2,0:0|0:0,0:0:0:0:
228,128,214265,1,2,0:0:0:0:
169,243,214607,6,0,B|201:243|225:267|225:267|297:267,1,128,2|0,0:0|0:0,0:0:0:0:
356,268,215122,1,2,0:0:0:0:
456,188,215465,1,0,0:0:0:0:
456,188,215636,2,0,B|456:156|480:132|480:132|480:60,1,128,2|2,0:0|0:0,0:0:0:0:
364,12,216322,2,0,B|364:44|340:68|340:68|340:140,1,128,2|2,0:0|0:0,0:0:0:0:
256,232,217007,1,2,0:0:0:0:
172,133,217350,6,0,P|116:106|60:133,1,128,2|0,0:0|0:0,0:0:0:0:
60,200,217865,2,0,P|115:226|171:200,1,128,2|0,0:0|0:0,0:0:0:0:
172,133,218379,1,2,0:0:0:0:
256,36,218722,1,2,0:0:0:0:
340,133,219065,2,0,L|376:188,1,64,2|2,0:0|0:0,0:0:0:0:
416,236,219407,1,2,0:0:0:0:
492,340,219750,1,2,0:0:0:0:
348,340,220093,6,0,P|284:368|220:340,1,143.999995605469,4|2,1:2|0:0,0:0:0:0:
120,280,220607,1,0,1:2:0:0:
120,280,220779,2,0,P|105:312|119:344,1,71.9999978027344,2|0,1:2|0:0,0:0:0:0:
204,224,221122,2,0,P|217:191|203:159,1,71.9999978027344,2|0,2:2|0:0,0:0:0:0:
192,60,221465,6,0,B|240:60|256:35|256:35|272:60|320:60,1,143.999995605469,0|2,1:2|0:0,0:0:0:0:
444,48,221979,1,0,1:2:0:0:
444,48,222150,2,0,L|400:120,1,71.9999978027344,2|0,1:2|0:0,0:0:0:0:
448,224,222493,2,0,L|492:152,1,71.9999978027344,2|0,2:2|0:0,0:0:0:0:
324,280,222836,6,0,B|256:256|256:256|188:280,1,143.999995605469,2|0,1:2|0:0,0:0:0:0:
224,180,223350,1,2,1:2:0:0:
224,180,223522,2,0,B|256:164|256:164|288:180,1,71.9999978027344,2|0,1:2|0:0,0:0:0:0:
184,100,223865,2,0,B|152:116|152:116|120:100,1,71.9999978027344,2|0,2:2|0:0,0:0:0:0:
0,136,224207,6,0,L|128:220,1,143.999995605469,2|2,1:2|0:0,0:0:0:0:
208,264,224722,1,0,1:2:0:0:
208,264,224893,2,0,P|222:296|208:328,1,71.9999978027344,2|0,1:2|0:0,0:0:0:0:
312,224,225236,2,0,P|297:191|311:159,1,71.9999978027344,2|0,2:2|0:0,0:0:0:0:
192,60,225579,6,0,B|240:60|256:35|256:35|272:60|320:60,1,143.999995605469,4|2,1:2|0:0,0:0:0:0:
200,159,226093,1,0,1:2:0:0:
200,159,226265,2,0,P|214:191|200:224,1,71.9999978027344,2|0,1:2|0:0,0:0:0:0:
303,328,226607,2,0,P|289:296|304:264,1,71.9999978027344,2|0,2:2|0:0,0:0:0:0:
484,192,226950,6,0,B|416:216|416:164|344:192,1,143.999995605469,2|2,1:2|0:0,0:0:0:0:
224,132,227465,1,0,1:2:0:0:
224,132,227636,2,0,B|256:116|256:116|288:132,1,71.9999978027344,2|0,1:2|0:0,0:0:0:0:
288,252,227979,2,0,B|256:268|256:268|224:252,1,71.9999978027344,2|0,2:2|0:0,0:0:0:0:
42,251,228322,5,12,0:0:0:0:
42,251,228493,1,2,0:0:0:0:
189,144,228665,1,0,1:2:0:0:
189,144,228836,1,0,1:2:0:0:
133,317,229007,1,0,1:2:0:0:
133,317,229179,1,0,1:2:0:0:
77,144,229350,1,0,1:2:0:0:
77,144,229522,1,0,1:2:0:0:
223,251,229693,1,14,0:0:0:0:
133,317,229865,5,0,1:2:0:0:
82,328,229950,1,0,1:2:0:0:
41,296,230036,1,10,0:0:0:0:
41,244,230122,1,0,1:2:0:0:
82,211,230207,1,0,1:2:0:0:
133,223,230293,1,0,1:2:0:0:
155,270,230379,6,0,L|196:252,1,40,10|0,0:0|1:2,0:0:0:0:
232,164,230550,2,0,L|195:180,1,40,2|0,1:2|1:2,0:0:0:0:
268,228,230722,2,0,L|304:211,1,40,8|0,0:0|1:2,0:0:0:0:
352,116,230893,2,0,L|315:132,1,40,0|0,1:2|1:2,0:0:0:0:
256,88,231065,6,0,B|224:40|160:40|160:40|96:40,1,176.000005371094,6|8,1:2|0:0,0:0:0:0:
96,176,231579,2,0,B|48:208|48:272|48:272|48:336,1,176.000005371094,0|0,1:2|1:2,0:0:0:0:
203,197,232093,1,10,0:0:0:0:
256,360,232265,1,0,0:0:0:0:
308,197,232436,1,2,1:2:0:0:
170,297,232607,1,0,0:0:0:0:
341,297,232779,6,0,P|356:337|341:377,1,88.000002685547,10|0,0:0|1:2,0:0:0:0:
203,197,233122,2,0,P|188:157|203:117,1,88.000002685547,2|0,0:2|1:2,0:0:0:0:
324,24,233465,1,10,0:0:0:0:
188,24,233636,1,0,0:0:0:0:
309,116,233807,6,0,P|352:188|309:260,1,176.000005371094,4|8,1:2|0:0,0:0:0:0:
309,259,234322,1,0,1:2:0:0:
172,196,234493,2,0,B|80:228|80:164|0:196,1,176.000005371094,2|8,0:0|0:0,0:0:0:0:
128,128,235007,1,0,0:0:0:0:
40,268,235179,6,0,B|22:308|22:308|40:348,1,88.000002685547,0|0,1:2|1:2,0:0:0:0:
128,128,235522,2,0,B|146:88|146:88|128:48,1,88.000002685547,10|0,0:0|1:2,0:0:0:0:
296,20,235865,2,0,B|256:2|256:2|216:20,1,88.000002685547,2|0,2:2|1:2,0:0:0:0:
385,47,236207,2,0,B|358:107|358:107|385:167,1,132.00000402832,10|0,0:0|0:0,0:0:0:0:
408,208,236550,6,0,B|384:258|384:258|336:294|336:294|311:348,1,176.000005371094,4|8,1:2|0:0,0:0:0:0:
200,348,237065,2,0,B|175:294|175:294|127:258|127:258|104:208,1,176.000005371094,0|0,1:2|1:2,0:0:0:0:
44,80,237579,1,10,0:0:0:0:
103,207,237750,1,0,0:0:0:0:
232,152,237922,1,2,1:2:0:0:
173,25,238093,1,0,0:0:0:0:
44,80,238265,6,0,P|108:100|160:68,1,132.00000402832,10|0,0:0|0:0,0:0:0:0:
173,25,238607,2,0,P|213:10|253:25,1,88.000002685547,2|0,0:0|1:2,0:0:0:0:
231,151,238950,2,0,P|296:167|348:133,1,132.00000402832,10|0,0:0|0:0,0:0:0:0:
328,64,239293,2,0,L|384:240,1,176.000005371094,6|8,1:2|0:0,0:0:0:0:
381,231,239807,1,0,1:2:0:0:
272,352,239979,6,0,L|216:176,1,176.000005371094,2|8,0:2|0:0,0:0:0:0:
182,58,240493,1,0,0:0:0:0:
55,94,240665,1,2,1:2:0:0:
91,221,240836,1,0,1:2:0:0:
218,184,241007,6,0,P|274:184|330:232,1,132.00000402832,14|0,0:0|0:0,0:0:0:0:
356,272,241350,2,0,L|328:356,1,88.000002685547,2|0,1:2|1:2,0:0:0:0:
218,184,241693,2,0,L|257:56,1,132.00000402832,14|0,0:0|0:0,0:0:0:0:
272,16,242036,6,0,B|316:16|344:59|344:59|372:16|416:16,1,176.000005371094,4|10,1:2|0:0,0:0:0:0:
344,148,242550,1,0,1:2:0:0:
416,15,242722,2,0,P|431:55|416:95,1,88.000002685547,2|0,0:2|1:2,0:0:0:0:
344,228,243065,2,0,P|328:187|343:147,1,88.000002685547,10|0,0:0|0:0,0:0:0:0:
412,272,243407,6,0,L|216:284,1,176.000005371094,0|10,1:2|0:0,0:0:0:0:
104,296,243922,1,0,1:2:0:0:
236,282,244093,2,0,B|254:322|254:322|236:362,1,88.000002685547,2|0,0:2|1:2,0:0:0:0:
104,296,244436,2,0,B|86:256|86:256|104:216,1,88.000002685547,14|0,0:0|0:0,0:0:0:0:
256,40,244779,5,8,2:2:0:0:
316,192,244950,1,8,2:2:0:0:
316,192,245036,1,8,2:2:0:0:
316,192,245122,2,0,P|330:151|315:111,1,88.000002685547,10|0,2:2|1:2,0:0:0:0:
196,288,245465,2,0,B|256:261|256:261|316:288,1,132.00000402832,2|0,1:2|0:0,0:0:0:0:
332,380,245807,6,0,B|256:336|256:336|180:380,1,176.000005371094,14|0,0:0|0:0,0:0:0:0:
332,380,246322,1,0,1:2:0:0:
456,288,246493,2,0,L|372:240,1,88.000002685547,8|0,0:0|0:0,0:0:0:0:
204,172,246836,2,0,B|248:172|248:172|284:192|284:192|332:192,1,132.00000402832,2|0,1:2|0:0,0:0:0:0:
379,139,247179,2,0,L|456:96,1,88.000002685547,10|0,0:0|0:0,0:0:0:0:
184,68,247522,6,0,B|228:68|256:25|256:25|284:68|328:68,2,176.000005371094,4|8|0,1:2|0:0|1:2,0:0:0:0:
256,192,248379,1,0,1:2:0:0:
184,68,248550,2,0,B|166:108|166:108|184:148,1,88.000002685547,10|2,0:0|0:0,0:0:0:0:
168,304,248893,6,0,L|88:144,1,176.000005371094,4|8,1:2|0:0,0:0:0:0:
84,336,249407,1,0,0:0:0:0:
184,148,249579,2,0,L|228:228,1,88.000002685547,0|0,1:0|1:2,0:0:0:0:
84,336,249922,2,0,L|40:256,1,88.000002685547,10|2,0:0|0:0,0:0:0:0:
184,351,250265,6,0,P|255:309|327:351,1,176.000005371094,4|8,1:2|0:0,0:0:0:0:
480,276,250779,1,0,0:0:0:0:
327,351,250950,1,0,1:2:0:0:
408,200,251122,1,0,1:2:0:0:
431,369,251293,2,0,P|414:306|358:273,1,132.00000402832,10|0,0:0|0:0,0:0:0:0:
408,200,251636,6,0,L|240:272,1,176.000005371094,6|10,1:2|0:0,0:0:0:0:
96,324,252150,1,0,1:2:0:0:
96,324,252236,1,0,1:2:0:0:
96,324,252322,1,2,1:2:0:0:
116,168,252493,1,0,1:2:0:0:
246,269,252665,1,10,0:0:0:0:
276,112,252836,1,0,1:2:0:0:
408,200,253007,6,0,L|240:272,1,176.000005371094,4|10,1:2|0:0,0:0:0:0:
246,269,253522,1,0,0:0:0:0:
115,248,253693,2,0,P|100:207|115:167,1,88.000002685547,2|0,1:2|1:2,0:0:0:0:
204,68,254036,2,0,B|248:68|248:68|288:84|288:84|336:84,1,132.00000402832,10|0,0:0|0:0,0:0:0:0:
380,84,254379,6,0,P|420:69|460:84,1,88.000002685547,2|0,1:2|0:0,0:0:0:0:
420,208,254722,1,10,0:0:0:0:
371,356,254893,1,0,0:0:0:0:
498,264,255065,1,2,1:2:0:0:
341,264,255236,1,0,1:2:0:0:
468,356,255407,6,0,L|336:360,1,132.00000402832,10|0,0:0|0:0,0:0:0:0:
292,356,255750,2,0,P|251:371|211:356,1,88.000002685547,12|0,0:0|0:0,0:0:0:0:
136,232,256093,2,0,P|120:191|135:151,1,88.000002685547,14|0,0:0|0:0,0:0:0:0:
211,27,256436,2,0,P|251:12|292:28,1,88.000002685547,14|0,0:0|0:0,0:0:0:0:
377,151,256779,6,0,B|411:200|411:200|418:258|418:258|450:304,1,176.000005371094,6|0,1:2|0:0,0:0:0:0:
450,305,257293,1,0,0:0:0:0:
336,224,257465,2,0,L|257:115,1,132.00000402832,8|0,0:0|0:0,0:0:0:0:
232,80,257807,1,2,1:2:0:0:
112,20,257979,1,0,1:2:0:0:
72,148,258150,2,0,P|56:188|71:228,1,88.000002685547,10|0,0:0|0:0,0:0:0:0:
216,324,258493,6,0,B|272:324|272:324|324:352|324:352|384:352,1,176.000005371094,4|8,1:2|0:0,0:0:0:0:
488,260,259007,1,0,0:0:0:0:
488,124,259179,2,0,P|447:108|407:123,1,88.000002685547,0|0,1:0|1:2,0:0:0:0:
407,260,259522,2,0,P|447:275|488:260,1,88.000002685547,10|2,0:0|0:0,0:0:0:0:
308,192,259865,6,0,B|216:224|216:160|136:192,1,176.000005371094,4|8,1:2|0:0,0:0:0:0:
256,120,260379,1,0,0:0:0:0:
180,264,260550,2,0,P|194:304|179:344,1,88.000002685547,0|0,1:0|1:2,0:0:0:0:
60,232,260893,2,0,P|45:191|60:151,1,88.000002685547,10|2,0:0|0:0,0:0:0:0:
179,40,261236,6,0,B|220:40|244:64|244:64|304:64,1,132.00000402832,4|0,1:2|0:0,0:0:0:0:
352,64,261579,1,0,1:2:0:0:
352,64,261750,1,2,0:0:0:0:
464,128,261922,1,0,1:2:0:0:
464,128,262093,1,0,0:0:0:0:
464,256,262265,1,0,1:2:0:0:
464,256,262436,1,2,0:0:0:0:
352,320,262607,6,0,P|300:320|240:268,1,132.00000402832,2|0,1:2|0:0,0:0:0:0:
216,232,262950,1,8,2:2:0:0:
144,100,263122,1,0,1:2:0:0:
144,100,263207,1,0,1:2:0:0:
144,100,263293,1,8,0:0:0:0:
283,44,263465,1,0,1:2:0:0:
355,176,263636,1,8,2:2:0:0:
216,232,263807,1,0,1:2:0:0:
124,264,263979,6,0,P|60:264|12:220,1,128,2|0,0:0|0:0,0:0:0:0:
36,132,264493,2,0,P|98:131|146:172,1,128,2|0,0:0|0:0,0:0:0:0:
216,232,265007,1,2,0:0:0:0:
216,232,265350,6,0,B|280:212|280:252|344:232,1,128,2|0,0:0|0:0,0:0:0:0:
440,160,265865,2,0,B|376:180|376:140|312:160,1,128,2|0,0:0|0:0,0:0:0:0:
314,159,266379,1,2,0:0:0:0:
314,159,266722,6,0,P|341:103|314:47,1,128,2|0,0:0|0:0,0:0:0:0:
220,48,267236,2,0,P|164:21|108:48,1,128,2|0,0:0|0:0,0:0:0:0:
56,128,267750,1,2,0:0:0:0:
56,128,268093,6,0,L|96:252,1,128,2|0,0:0|0:0,0:0:0:0:
164,184,268607,2,0,L|204:308,1,128,2|0,0:0|0:0,0:0:0:0:
284,360,269122,1,2,0:0:0:0:
256,192,269207,12,0,271522,0:0:0:0:
