osu file format v14

[General]
AudioFilename: audio.mp3
AudioLeadIn: 0
PreviewTime: 15562
Countdown: 0
SampleSet: Normal
StackLeniency: 0.7
Mode: 3
LetterboxInBreaks: 0
SpecialStyle: 0
WidescreenStoryboard: 1

[Editor]
DistanceSpacing: 0.8
BeatDivisor: 2
GridSize: 32
TimelineZoom: 2.1

[Metadata]
Title:Triumphal Return
TitleUnicode:Triumphal Return
Artist:TamaDo
ArtistUnicode:TamaDo
Creator:Sebaex
Version:Roxas' 7K Normal
Source:A-1 ClimaX 7th -Break Through!-
Tags:bms epilogue instrumental electronic speedcore dee2 digital emergency exit 2 event tamago-dofu piano video game [-roxas-] blocko 第14回自称無名bms作家が物申す!highspeed speedstream chordstream chordjack stamina double stair high speed stream chord trill jack cj bracket symmetrical rice 2017
BeatmapID:4089436
BeatmapSetID:1265691

[Difficulty]
HPDrainRate:7
CircleSize:7
OverallDifficulty:7
ApproachRate:5
SliderMultiplier:1.4
SliderTickRate:1

[Events]
//Background and Video events
0,0,"bg.jpg",0,0
//Break Periods
//Storyboard Layer 0 (Background)
//Storyboard Layer 1 (Fail)
//Storyboard Layer 2 (Pass)
//Storyboard Layer 3 (Foreground)
//Storyboard Layer 4 (Overlay)
//Storyboard Sound Samples

[TimingPoints]
909,230.769231,4,1,1,15,1,0
15678,-100,4,1,1,50,0,1
30447,-100,4,1,1,50,0,0
104524,-100,4,1,1,50,0,1
131985,-100,4,1,1,50,0,0

[HitObjects]
109,192,909,5,0,0:0:0:0:
402,192,909,1,0,0:0:0:0:
36,192,1255,1,0,0:0:0:0:
329,192,1370,1,0,0:0:0:0:
475,192,1601,1,0,0:0:0:0:
256,192,1832,1,0,0:0:0:0:
182,192,2178,1,0,0:0:0:0:
402,192,2293,1,0,0:0:0:0:
109,192,2524,1,0,0:0:0:0:
475,192,2755,1,0,0:0:0:0:
329,192,3101,1,0,0:0:0:0:
256,192,3216,1,0,0:0:0:0:
36,192,3447,1,0,0:0:0:0:
475,192,3678,1,0,0:0:0:0:
475,192,4024,1,0,0:0:0:0:
182,192,4139,1,0,0:0:0:0:
256,192,4255,1,0,0:0:0:0:
329,192,4370,1,0,0:0:0:0:
402,192,4485,1,0,0:0:0:0:
36,192,4601,1,0,0:0:0:0:
182,192,4947,1,0,0:0:0:0:
475,192,5062,1,0,0:0:0:0:
109,192,5293,1,0,0:0:0:0:
402,192,5524,1,0,0:0:0:0:
329,192,5870,1,0,0:0:0:0:
182,192,5985,1,0,0:0:0:0:
256,192,6216,1,0,0:0:0:0:
475,192,6447,1,0,0:0:0:0:
109,192,6793,1,0,0:0:0:0:
402,192,6909,1,0,0:0:0:0:
182,192,7139,1,0,0:0:0:0:
475,192,7370,1,0,0:0:0:0:
475,192,7601,1,0,0:0:0:0:
329,192,7832,1,0,0:0:0:0:
256,192,7947,1,0,0:0:0:0:
182,192,8062,1,0,0:0:0:0:
109,192,8178,1,0,0:0:0:0:
36,192,8293,1,0,0:0:0:0:
402,192,8293,1,0,0:0:0:0:
256,192,8639,1,0,0:0:0:0:
402,192,8755,1,0,0:0:0:0:
329,192,8985,1,0,0:0:0:0:
109,192,9216,1,0,0:0:0:0:
402,192,9562,1,0,0:0:0:0:
36,192,9678,1,0,0:0:0:0:
329,192,9909,1,0,0:0:0:0:
475,192,10139,1,0,0:0:0:0:
182,192,10485,1,0,0:0:0:0:
402,192,10601,1,0,0:0:0:0:
109,192,10832,1,0,0:0:0:0:
475,192,11062,1,0,0:0:0:0:
402,192,11409,1,0,0:0:0:0:
182,192,11524,1,0,0:0:0:0:
256,192,11639,1,0,0:0:0:0:
329,192,11755,1,0,0:0:0:0:
402,192,11870,1,0,0:0:0:0:
475,192,11985,1,0,0:0:0:0:
36,192,12332,1,0,0:0:0:0:
329,192,12447,1,0,0:0:0:0:
256,192,12678,1,0,0:0:0:0:
109,192,12909,1,0,0:0:0:0:
475,192,13255,1,0,0:0:0:0:
182,192,13370,1,0,0:0:0:0:
256,192,13601,1,0,0:0:0:0:
36,192,13832,1,0,0:0:0:0:
402,192,14178,1,0,0:0:0:0:
109,192,14293,1,0,0:0:0:0:
329,192,14524,1,0,0:0:0:0:
36,192,14755,128,0,14870:0:0:0:0:
475,192,14755,128,0,14870:0:0:0:0:
182,192,15216,1,0,0:0:0:0:
329,192,15332,1,0,0:0:0:0:
182,192,15447,1,0,0:0:0:0:
329,192,15562,1,0,0:0:0:0:
109,192,15678,1,0,0:0:0:0:
475,192,15678,1,0,0:0:0:0:
329,192,15909,1,0,0:0:0:0:
36,192,16024,1,0,0:0:0:0:
36,192,16255,1,0,0:0:0:0:
402,192,16370,1,0,0:0:0:0:
109,192,16485,1,0,0:0:0:0:
329,192,16601,1,0,0:0:0:0:
182,192,16716,1,0,0:0:0:0:
475,192,16832,1,0,0:0:0:0:
329,192,17062,1,0,0:0:0:0:
256,192,17178,1,0,0:0:0:0:
182,192,17293,1,0,0:0:0:0:
36,192,17524,1,0,0:0:0:0:
402,192,17524,1,0,0:0:0:0:
182,192,17755,1,0,0:0:0:0:
329,192,17870,1,0,0:0:0:0:
256,192,18101,1,0,0:0:0:0:
402,192,18216,1,0,0:0:0:0:
36,192,18332,1,0,0:0:0:0:
182,192,18447,1,0,0:0:0:0:
475,192,18678,1,0,0:0:0:0:
329,192,18909,1,0,0:0:0:0:
182,192,19024,1,0,0:0:0:0:
402,192,19139,1,0,0:0:0:0:
329,192,19255,1,0,0:0:0:0:
256,192,19370,1,0,0:0:0:0:
36,192,19370,1,0,0:0:0:0:
109,192,19601,1,0,0:0:0:0:
329,192,19716,1,0,0:0:0:0:
329,192,19947,1,0,0:0:0:0:
182,192,20062,1,0,0:0:0:0:
402,192,20178,1,0,0:0:0:0:
109,192,20293,1,0,0:0:0:0:
402,192,20409,1,0,0:0:0:0:
256,192,20524,1,0,0:0:0:0:
475,192,20755,1,0,0:0:0:0:
109,192,20870,1,0,0:0:0:0:
182,192,20985,1,0,0:0:0:0:
329,192,21101,1,0,0:0:0:0:
475,192,21216,1,0,0:0:0:0:
36,192,21216,1,0,0:0:0:0:
256,192,21447,1,0,0:0:0:0:
402,192,21793,1,0,0:0:0:0:
329,192,21909,1,0,0:0:0:0:
109,192,22139,1,0,0:0:0:0:
182,192,22139,1,0,0:0:0:0:
109,192,22370,1,0,0:0:0:0:
182,192,22370,1,0,0:0:0:0:
402,192,22601,1,0,0:0:0:0:
329,192,22716,1,0,0:0:0:0:
256,192,22832,1,0,0:0:0:0:
182,192,22947,1,0,0:0:0:0:
36,192,23062,1,0,0:0:0:0:
475,192,23062,1,0,0:0:0:0:
109,192,23293,1,0,0:0:0:0:
402,192,23409,1,0,0:0:0:0:
402,192,23639,1,0,0:0:0:0:
256,192,23755,1,0,0:0:0:0:
109,192,23870,1,0,0:0:0:0:
402,192,23985,1,0,0:0:0:0:
182,192,24101,1,0,0:0:0:0:
256,192,24216,1,0,0:0:0:0:
402,192,24447,1,0,0:0:0:0:
36,192,24562,1,0,0:0:0:0:
475,192,24678,1,0,0:0:0:0:
256,192,24909,1,0,0:0:0:0:
36,192,24909,1,0,0:0:0:0:
402,192,25139,1,0,0:0:0:0:
109,192,25255,1,0,0:0:0:0:
329,192,25485,1,0,0:0:0:0:
475,192,25601,1,0,0:0:0:0:
256,192,25716,1,0,0:0:0:0:
182,192,25832,1,0,0:0:0:0:
109,192,26062,1,0,0:0:0:0:
475,192,26293,1,0,0:0:0:0:
402,192,26409,1,0,0:0:0:0:
329,192,26524,1,0,0:0:0:0:
256,192,26639,1,0,0:0:0:0:
109,192,26755,1,0,0:0:0:0:
182,192,26755,1,0,0:0:0:0:
475,192,26985,1,0,0:0:0:0:
182,192,27101,1,0,0:0:0:0:
109,192,27332,1,0,0:0:0:0:
329,192,27447,1,0,0:0:0:0:
36,192,27562,1,0,0:0:0:0:
402,192,27678,1,0,0:0:0:0:
109,192,27793,1,0,0:0:0:0:
475,192,27909,1,0,0:0:0:0:
182,192,28024,1,0,0:0:0:0:
36,192,28255,1,0,0:0:0:0:
182,192,28370,1,0,0:0:0:0:
329,192,28485,1,0,0:0:0:0:
475,192,28601,1,0,0:0:0:0:
402,192,28601,1,0,0:0:0:0:
256,192,28832,1,0,0:0:0:0:
109,192,29178,1,0,0:0:0:0:
402,192,29293,1,0,0:0:0:0:
256,192,29524,1,0,0:0:0:0:
36,192,29524,1,0,0:0:0:0:
256,192,29755,1,0,0:0:0:0:
36,192,29755,1,0,0:0:0:0:
402,192,29985,1,0,0:0:0:0:
182,192,30101,1,0,0:0:0:0:
402,192,30216,1,0,0:0:0:0:
182,192,30332,1,0,0:0:0:0:
475,192,30447,1,0,0:0:0:0:
109,192,30447,1,0,0:0:0:0:
329,192,30678,1,0,0:0:0:0:
36,192,30793,1,0,0:0:0:0:
36,192,31024,1,0,0:0:0:0:
402,192,31139,1,0,0:0:0:0:
256,192,31255,1,0,0:0:0:0:
329,192,31370,1,0,0:0:0:0:
109,192,31485,1,0,0:0:0:0:
475,192,31601,1,0,0:0:0:0:
182,192,31832,1,0,0:0:0:0:
256,192,31947,1,0,0:0:0:0:
329,192,32062,1,0,0:0:0:0:
36,192,32293,1,0,0:0:0:0:
402,192,32293,1,0,0:0:0:0:
182,192,32524,1,0,0:0:0:0:
475,192,32639,1,0,0:0:0:0:
402,192,32870,1,0,0:0:0:0:
109,192,32985,1,0,0:0:0:0:
329,192,33101,1,0,0:0:0:0:
256,192,33216,1,0,0:0:0:0:
36,192,33447,1,0,0:0:0:0:
182,192,33678,1,0,0:0:0:0:
256,192,33793,1,0,0:0:0:0:
329,192,33909,1,0,0:0:0:0:
402,192,34024,1,0,0:0:0:0:
182,192,34139,1,0,0:0:0:0:
109,192,34139,1,0,0:0:0:0:
329,192,34370,1,0,0:0:0:0:
475,192,34485,1,0,0:0:0:0:
475,192,34716,1,0,0:0:0:0:
109,192,34832,1,0,0:0:0:0:
329,192,34947,1,0,0:0:0:0:
36,192,35062,1,0,0:0:0:0:
402,192,35178,1,0,0:0:0:0:
329,192,35293,1,0,0:0:0:0:
109,192,35524,1,0,0:0:0:0:
402,192,35639,1,0,0:0:0:0:
329,192,35755,1,0,0:0:0:0:
182,192,35870,1,0,0:0:0:0:
475,192,35985,1,0,0:0:0:0:
36,192,35985,1,0,0:0:0:0:
256,192,36216,1,0,0:0:0:0:
402,192,36562,1,0,0:0:0:0:
109,192,36678,1,0,0:0:0:0:
182,192,36909,1,0,0:0:0:0:
329,192,36909,1,0,0:0:0:0:
182,192,37139,1,0,0:0:0:0:
329,192,37139,1,0,0:0:0:0:
256,192,37370,1,0,0:0:0:0:
329,192,37485,1,0,0:0:0:0:
182,192,37601,1,0,0:0:0:0:
256,192,37716,1,0,0:0:0:0:
109,192,37832,1,0,0:0:0:0:
36,192,37832,1,0,0:0:0:0:
475,192,38062,1,0,0:0:0:0:
36,192,38178,1,0,0:0:0:0:
36,192,38409,1,0,0:0:0:0:
402,192,38524,1,0,0:0:0:0:
329,192,38639,1,0,0:0:0:0:
109,192,38755,1,0,0:0:0:0:
36,192,38870,1,0,0:0:0:0:
256,192,38985,1,0,0:0:0:0:
475,192,39216,1,0,0:0:0:0:
402,192,39332,1,0,0:0:0:0:
329,192,39447,1,0,0:0:0:0:
182,192,39678,1,0,0:0:0:0:
402,192,39678,1,0,0:0:0:0:
475,192,39909,1,0,0:0:0:0:
36,192,40024,1,0,0:0:0:0:
329,192,40255,1,0,0:0:0:0:
256,192,40370,1,0,0:0:0:0:
182,192,40485,1,0,0:0:0:0:
109,192,40601,1,0,0:0:0:0:
402,192,40832,1,0,0:0:0:0:
36,192,41062,1,0,0:0:0:0:
182,192,41178,1,0,0:0:0:0:
329,192,41293,1,0,0:0:0:0:
475,192,41409,1,0,0:0:0:0:
256,192,41524,1,0,0:0:0:0:
109,192,41524,1,0,0:0:0:0:
402,192,41755,1,0,0:0:0:0:
329,192,41870,1,0,0:0:0:0:
329,192,42101,1,0,0:0:0:0:
36,192,42216,1,0,0:0:0:0:
182,192,42332,1,0,0:0:0:0:
256,192,42447,1,0,0:0:0:0:
475,192,42562,1,0,0:0:0:0:
109,192,42678,1,0,0:0:0:0:
109,192,42909,1,0,0:0:0:0:
402,192,43024,1,0,0:0:0:0:
256,192,43139,1,0,0:0:0:0:
36,192,43255,1,0,0:0:0:0:
329,192,43370,1,0,0:0:0:0:
475,192,43370,1,0,0:0:0:0:
109,192,43601,1,0,0:0:0:0:
182,192,43716,1,0,0:0:0:0:
256,192,43832,1,0,0:0:0:0:
329,192,43947,1,0,0:0:0:0:
402,192,44062,1,0,0:0:0:0:
475,192,44178,1,0,0:0:0:0:
109,192,44293,1,0,0:0:0:0:
36,192,44293,1,0,0:0:0:0:
402,192,44409,1,0,0:0:0:0:
329,192,44409,1,0,0:0:0:0:
329,192,44639,1,0,0:0:0:0:
402,192,44639,1,0,0:0:0:0:
475,192,44870,1,0,0:0:0:0:
36,192,44985,1,0,0:0:0:0:
109,192,44985,1,0,0:0:0:0:
329,192,45101,1,0,0:0:0:0:
402,192,45101,1,0,0:0:0:0:
109,192,45216,1,0,0:0:0:0:
36,192,45216,1,0,0:0:0:0:
109,192,45678,1,0,0:0:0:0:
36,192,45678,1,0,0:0:0:0:
256,192,46139,1,0,0:0:0:0:
329,192,46139,1,0,0:0:0:0:
256,192,46485,1,0,0:0:0:0:
329,192,46485,1,0,0:0:0:0:
109,192,46832,1,0,0:0:0:0:
402,192,46832,1,0,0:0:0:0:
182,192,46947,1,0,0:0:0:0:
36,192,47062,1,0,0:0:0:0:
475,192,47062,1,0,0:0:0:0:
475,192,47524,1,0,0:0:0:0:
402,192,47524,1,0,0:0:0:0:
182,192,47985,1,0,0:0:0:0:
329,192,47985,1,0,0:0:0:0:
36,192,48332,1,0,0:0:0:0:
475,192,48332,1,0,0:0:0:0:
256,192,48678,1,0,0:0:0:0:
329,192,48678,1,0,0:0:0:0:
109,192,48909,1,0,0:0:0:0:
182,192,48909,1,0,0:0:0:0:
36,192,49370,1,0,0:0:0:0:
475,192,49370,1,0,0:0:0:0:
329,192,49832,1,0,0:0:0:0:
256,192,49832,1,0,0:0:0:0:
475,192,50178,1,0,0:0:0:0:
402,192,50178,1,0,0:0:0:0:
109,192,50293,1,0,0:0:0:0:
36,192,50524,1,0,0:0:0:0:
182,192,50524,1,0,0:0:0:0:
329,192,50755,1,0,0:0:0:0:
475,192,50755,1,0,0:0:0:0:
256,192,51216,1,0,0:0:0:0:
182,192,51216,1,0,0:0:0:0:
402,192,51447,1,0,0:0:0:0:
36,192,51678,1,0,0:0:0:0:
402,192,51678,1,0,0:0:0:0:
182,192,52024,1,0,0:0:0:0:
329,192,52024,1,0,0:0:0:0:
329,192,52370,1,0,0:0:0:0:
36,192,52370,1,0,0:0:0:0:
182,192,52485,1,0,0:0:0:0:
256,192,52601,1,0,0:0:0:0:
475,192,52601,1,0,0:0:0:0:
402,192,52947,1,0,0:0:0:0:
109,192,53062,1,0,0:0:0:0:
329,192,53062,1,0,0:0:0:0:
256,192,53524,1,0,0:0:0:0:
402,192,53755,1,0,0:0:0:0:
109,192,53870,1,0,0:0:0:0:
182,192,53985,1,0,0:0:0:0:
475,192,53985,1,0,0:0:0:0:
329,192,54216,1,0,0:0:0:0:
36,192,54447,1,0,0:0:0:0:
329,192,54447,1,0,0:0:0:0:
256,192,54793,1,0,0:0:0:0:
109,192,54909,1,0,0:0:0:0:
475,192,54909,1,0,0:0:0:0:
329,192,55370,1,0,0:0:0:0:
182,192,55601,1,0,0:0:0:0:
256,192,55832,1,0,0:0:0:0:
475,192,55832,1,0,0:0:0:0:
402,192,56062,1,0,0:0:0:0:
109,192,56293,1,0,0:0:0:0:
36,192,56293,1,0,0:0:0:0:
329,192,56639,1,0,0:0:0:0:
182,192,56755,1,0,0:0:0:0:
402,192,56755,1,0,0:0:0:0:
109,192,57216,1,0,0:0:0:0:
329,192,57447,1,0,0:0:0:0:
256,192,57678,1,0,0:0:0:0:
182,192,57678,1,0,0:0:0:0:
182,192,57909,1,0,0:0:0:0:
36,192,58139,1,0,0:0:0:0:
475,192,58139,1,0,0:0:0:0:
182,192,58485,1,0,0:0:0:0:
329,192,58601,1,0,0:0:0:0:
109,192,58601,1,0,0:0:0:0:
256,192,59062,1,0,0:0:0:0:
402,192,59293,1,0,0:0:0:0:
36,192,59524,1,0,0:0:0:0:
182,192,59524,1,0,0:0:0:0:
329,192,59755,1,0,0:0:0:0:
109,192,59870,1,0,0:0:0:0:
402,192,59985,1,0,0:0:0:0:
475,192,59985,1,0,0:0:0:0:
256,192,60216,1,0,0:0:0:0:
36,192,60447,1,0,0:0:0:0:
402,192,60562,1,0,0:0:0:0:
256,192,60678,1,0,0:0:0:0:
109,192,60909,1,0,0:0:0:0:
475,192,60909,1,0,0:0:0:0:
256,192,61139,1,0,0:0:0:0:
402,192,61370,1,0,0:0:0:0:
36,192,61485,1,0,0:0:0:0:
256,192,61601,1,0,0:0:0:0:
475,192,61832,1,0,0:0:0:0:
182,192,61832,1,0,0:0:0:0:
256,192,62062,1,0,0:0:0:0:
109,192,62178,1,0,0:0:0:0:
402,192,62409,1,0,0:0:0:0:
256,192,62524,1,0,0:0:0:0:
36,192,62755,1,0,0:0:0:0:
475,192,62755,1,0,0:0:0:0:
256,192,62985,1,0,0:0:0:0:
402,192,63332,1,0,0:0:0:0:
256,192,63447,1,0,0:0:0:0:
36,192,63562,1,0,0:0:0:0:
329,192,63678,1,0,0:0:0:0:
109,192,63678,1,0,0:0:0:0:
256,192,63909,1,0,0:0:0:0:
475,192,64024,1,0,0:0:0:0:
109,192,64255,1,0,0:0:0:0:
256,192,64370,1,0,0:0:0:0:
402,192,64601,1,0,0:0:0:0:
329,192,64601,1,0,0:0:0:0:
256,192,64832,1,0,0:0:0:0:
182,192,64947,1,0,0:0:0:0:
329,192,65178,1,0,0:0:0:0:
256,192,65293,1,0,0:0:0:0:
475,192,65524,1,0,0:0:0:0:
109,192,65524,1,0,0:0:0:0:
256,192,65755,1,0,0:0:0:0:
36,192,65870,1,0,0:0:0:0:
182,192,66101,1,0,0:0:0:0:
256,192,66216,1,0,0:0:0:0:
475,192,66447,1,0,0:0:0:0:
402,192,66447,1,0,0:0:0:0:
256,192,66678,1,0,0:0:0:0:
109,192,66909,1,0,0:0:0:0:
402,192,67024,1,0,0:0:0:0:
329,192,67139,1,0,0:0:0:0:
256,192,67255,1,0,0:0:0:0:
182,192,67370,1,0,0:0:0:0:
475,192,67370,1,0,0:0:0:0:
256,192,67601,1,0,0:0:0:0:
402,192,67832,1,0,0:0:0:0:
36,192,67947,1,0,0:0:0:0:
256,192,68062,1,0,0:0:0:0:
475,192,68293,1,0,0:0:0:0:
182,192,68293,1,0,0:0:0:0:
256,192,68524,1,0,0:0:0:0:
109,192,68755,1,0,0:0:0:0:
329,192,68870,1,0,0:0:0:0:
256,192,68985,1,0,0:0:0:0:
475,192,69216,1,0,0:0:0:0:
109,192,69216,1,0,0:0:0:0:
256,192,69447,1,0,0:0:0:0:
36,192,69562,1,0,0:0:0:0:
182,192,69793,1,0,0:0:0:0:
256,192,69909,1,0,0:0:0:0:
402,192,70139,1,0,0:0:0:0:
475,192,70139,1,0,0:0:0:0:
256,192,70370,1,0,0:0:0:0:
109,192,70716,1,0,0:0:0:0:
256,192,70832,1,0,0:0:0:0:
402,192,70947,1,0,0:0:0:0:
475,192,71062,1,0,0:0:0:0:
182,192,71062,1,0,0:0:0:0:
256,192,71293,1,0,0:0:0:0:
36,192,71409,1,0,0:0:0:0:
329,192,71639,1,0,0:0:0:0:
256,192,71755,1,0,0:0:0:0:
109,192,71985,1,0,0:0:0:0:
475,192,71985,1,0,0:0:0:0:
256,192,72216,1,0,0:0:0:0:
402,192,72332,1,0,0:0:0:0:
36,192,72562,1,0,0:0:0:0:
256,192,72678,1,0,0:0:0:0:
402,192,72909,1,0,0:0:0:0:
182,192,72909,1,0,0:0:0:0:
329,192,73024,1,0,0:0:0:0:
256,192,73139,1,0,0:0:0:0:
109,192,73485,1,0,0:0:0:0:
256,192,73601,1,0,0:0:0:0:
256,192,73832,1,0,0:0:0:0:
402,192,73832,1,0,0:0:0:0:
256,192,74062,1,0,0:0:0:0:
402,192,74062,1,0,0:0:0:0:
109,192,74293,1,0,0:0:0:0:
182,192,74293,1,0,0:0:0:0:
475,192,74409,1,0,0:0:0:0:
402,192,74409,1,0,0:0:0:0:
182,192,74524,1,0,0:0:0:0:
109,192,74524,1,0,0:0:0:0:
402,192,74639,1,0,0:0:0:0:
475,192,74639,1,0,0:0:0:0:
36,192,74755,1,0,0:0:0:0:
256,192,74755,1,0,0:0:0:0:
402,192,74985,1,0,0:0:0:0:
109,192,75216,1,0,0:0:0:0:
475,192,75332,1,0,0:0:0:0:
182,192,75447,1,0,0:0:0:0:
256,192,75562,1,0,0:0:0:0:
475,192,75678,1,0,0:0:0:0:
109,192,75793,1,0,0:0:0:0:
329,192,75909,1,0,0:0:0:0:
182,192,76139,1,0,0:0:0:0:
36,192,76255,1,0,0:0:0:0:
256,192,76370,1,0,0:0:0:0:
329,192,76601,1,0,0:0:0:0:
475,192,76601,1,0,0:0:0:0:
109,192,76832,1,0,0:0:0:0:
402,192,77062,1,0,0:0:0:0:
256,192,77178,1,0,0:0:0:0:
36,192,77293,1,0,0:0:0:0:
182,192,77409,1,0,0:0:0:0:
475,192,77524,1,0,0:0:0:0:
109,192,77755,1,0,0:0:0:0:
256,192,77870,1,0,0:0:0:0:
109,192,77985,1,0,0:0:0:0:
256,192,78101,1,0,0:0:0:0:
329,192,78216,1,0,0:0:0:0:
475,192,78332,1,0,0:0:0:0:
182,192,78447,1,0,0:0:0:0:
256,192,78447,1,0,0:0:0:0:
402,192,78678,1,0,0:0:0:0:
109,192,78909,1,0,0:0:0:0:
402,192,79024,1,0,0:0:0:0:
36,192,79139,1,0,0:0:0:0:
182,192,79255,1,0,0:0:0:0:
402,192,79370,1,0,0:0:0:0:
109,192,79485,1,0,0:0:0:0:
329,192,79601,1,0,0:0:0:0:
182,192,79832,1,0,0:0:0:0:
256,192,79947,1,0,0:0:0:0:
402,192,80062,1,0,0:0:0:0:
256,192,80293,1,0,0:0:0:0:
36,192,80293,1,0,0:0:0:0:
109,192,80524,1,0,0:0:0:0:
402,192,80870,1,0,0:0:0:0:
256,192,80985,1,0,0:0:0:0:
109,192,81216,1,0,0:0:0:0:
329,192,81447,1,0,0:0:0:0:
182,192,81678,1,0,0:0:0:0:
256,192,81793,1,0,0:0:0:0:
402,192,81909,1,0,0:0:0:0:
329,192,82024,1,0,0:0:0:0:
109,192,82139,1,0,0:0:0:0:
36,192,82139,1,0,0:0:0:0:
182,192,82370,1,0,0:0:0:0:
475,192,82485,1,0,0:0:0:0:
329,192,82716,1,0,0:0:0:0:
256,192,82832,1,0,0:0:0:0:
109,192,83062,1,0,0:0:0:0:
402,192,83293,1,0,0:0:0:0:
36,192,83409,1,0,0:0:0:0:
475,192,83639,1,0,0:0:0:0:
256,192,83755,1,0,0:0:0:0:
109,192,83985,1,0,0:0:0:0:
329,192,83985,1,0,0:0:0:0:
402,192,84216,1,0,0:0:0:0:
36,192,84447,1,0,0:0:0:0:
329,192,84562,1,0,0:0:0:0:
256,192,84678,1,0,0:0:0:0:
475,192,84909,1,0,0:0:0:0:
109,192,84909,1,0,0:0:0:0:
329,192,85139,1,0,0:0:0:0:
182,192,85255,1,0,0:0:0:0:
256,192,85485,1,0,0:0:0:0:
475,192,85601,1,0,0:0:0:0:
402,192,85716,1,0,0:0:0:0:
36,192,85832,1,0,0:0:0:0:
109,192,85832,1,0,0:0:0:0:
329,192,86062,1,0,0:0:0:0:
182,192,86178,1,0,0:0:0:0:
402,192,86409,1,0,0:0:0:0:
256,192,86524,1,0,0:0:0:0:
36,192,86755,1,0,0:0:0:0:
182,192,86985,1,0,0:0:0:0:
329,192,87216,1,0,0:0:0:0:
402,192,87332,1,0,0:0:0:0:
475,192,87447,1,0,0:0:0:0:
109,192,87562,1,0,0:0:0:0:
182,192,87678,1,0,0:0:0:0:
256,192,87678,1,0,0:0:0:0:
329,192,87909,1,0,0:0:0:0:
36,192,87909,1,0,0:0:0:0:
256,192,88139,1,0,0:0:0:0:
182,192,88370,1,0,0:0:0:0:
475,192,88370,1,0,0:0:0:0:
402,192,88601,1,0,0:0:0:0:
329,192,88601,1,0,0:0:0:0:
109,192,88716,1,0,0:0:0:0:
256,192,88832,1,0,0:0:0:0:
36,192,88947,1,0,0:0:0:0:
475,192,89062,1,0,0:0:0:0:
182,192,89178,1,0,0:0:0:0:
329,192,89293,1,0,0:0:0:0:
256,192,89409,1,0,0:0:0:0:
36,192,89524,1,0,0:0:0:0:
475,192,89524,1,0,0:0:0:0:
36,192,89985,1,0,0:0:0:0:
36,192,90447,1,0,0:0:0:0:
36,192,90909,1,0,0:0:0:0:
475,192,91370,1,0,0:0:0:0:
475,192,91832,1,0,0:0:0:0:
475,192,92293,1,0,0:0:0:0:
475,192,92755,1,0,0:0:0:0:
109,192,93216,1,0,0:0:0:0:
109,192,93678,1,0,0:0:0:0:
109,192,94139,1,0,0:0:0:0:
109,192,94601,1,0,0:0:0:0:
402,192,95062,1,0,0:0:0:0:
402,192,95524,1,0,0:0:0:0:
402,192,95985,1,0,0:0:0:0:
402,192,96447,1,0,0:0:0:0:
182,192,96909,1,0,0:0:0:0:
256,192,96909,1,0,0:0:0:0:
182,192,97370,1,0,0:0:0:0:
256,192,97370,1,0,0:0:0:0:
182,192,97832,1,0,0:0:0:0:
256,192,97832,1,0,0:0:0:0:
329,192,98178,1,0,0:0:0:0:
256,192,98293,1,0,0:0:0:0:
182,192,98293,1,0,0:0:0:0:
182,192,98524,1,0,0:0:0:0:
329,192,98755,1,0,0:0:0:0:
256,192,98755,1,0,0:0:0:0:
329,192,99216,1,0,0:0:0:0:
256,192,99216,1,0,0:0:0:0:
329,192,99678,1,0,0:0:0:0:
256,192,99678,1,0,0:0:0:0:
182,192,100024,1,0,0:0:0:0:
256,192,100139,1,0,0:0:0:0:
329,192,100139,1,0,0:0:0:0:
329,192,100370,1,0,0:0:0:0:
36,192,100601,1,0,0:0:0:0:
109,192,100601,1,0,0:0:0:0:
402,192,100832,1,0,0:0:0:0:
475,192,100832,1,0,0:0:0:0:
109,192,101062,1,0,0:0:0:0:
36,192,101062,1,0,0:0:0:0:
402,192,101293,1,0,0:0:0:0:
475,192,101293,1,0,0:0:0:0:
109,192,101524,1,0,0:0:0:0:
36,192,101524,1,0,0:0:0:0:
402,192,101755,1,0,0:0:0:0:
475,192,101755,1,0,0:0:0:0:
109,192,101985,1,0,0:0:0:0:
36,192,101985,1,0,0:0:0:0:
402,192,102216,1,0,0:0:0:0:
475,192,102216,1,0,0:0:0:0:
109,192,102447,1,0,0:0:0:0:
329,192,102562,1,0,0:0:0:0:
182,192,102678,1,0,0:0:0:0:
402,192,102793,1,0,0:0:0:0:
256,192,102909,1,0,0:0:0:0:
475,192,103024,1,0,0:0:0:0:
329,192,103139,1,0,0:0:0:0:
36,192,103255,1,0,0:0:0:0:
256,192,103370,1,0,0:0:0:0:
182,192,103370,1,0,0:0:0:0:
402,192,103485,1,0,0:0:0:0:
109,192,103601,1,0,0:0:0:0:
402,192,103716,1,0,0:0:0:0:
109,192,103832,1,0,0:0:0:0:
182,192,103947,1,0,0:0:0:0:
256,192,104062,1,0,0:0:0:0:
329,192,104178,1,0,0:0:0:0:
109,192,104524,1,0,0:0:0:0:
402,192,104524,1,0,0:0:0:0:
256,192,104755,1,0,0:0:0:0:
182,192,104870,1,0,0:0:0:0:
109,192,104985,1,0,0:0:0:0:
402,192,105101,1,0,0:0:0:0:
182,192,105216,1,0,0:0:0:0:
402,192,105332,1,0,0:0:0:0:
182,192,105447,1,0,0:0:0:0:
36,192,105678,1,0,0:0:0:0:
182,192,105793,1,0,0:0:0:0:
329,192,105909,1,0,0:0:0:0:
256,192,106139,1,0,0:0:0:0:
475,192,106139,1,0,0:0:0:0:
402,192,106370,1,0,0:0:0:0:
329,192,106485,1,0,0:0:0:0:
182,192,106716,1,0,0:0:0:0:
256,192,106832,1,0,0:0:0:0:
402,192,106947,1,0,0:0:0:0:
182,192,107062,1,0,0:0:0:0:
329,192,107293,1,0,0:0:0:0:
109,192,107524,1,0,0:0:0:0:
182,192,107639,1,0,0:0:0:0:
256,192,107755,1,0,0:0:0:0:
329,192,107870,1,0,0:0:0:0:
475,192,107985,1,0,0:0:0:0:
402,192,107985,1,0,0:0:0:0:
256,192,108216,1,0,0:0:0:0:
36,192,108332,1,0,0:0:0:0:
36,192,108562,1,0,0:0:0:0:
402,192,108678,1,0,0:0:0:0:
256,192,108793,1,0,0:0:0:0:
109,192,108909,1,0,0:0:0:0:
402,192,109024,1,0,0:0:0:0:
475,192,109139,1,0,0:0:0:0:
256,192,109370,1,0,0:0:0:0:
329,192,109485,1,0,0:0:0:0:
402,192,109601,1,0,0:0:0:0:
109,192,109716,1,0,0:0:0:0:
182,192,109832,1,0,0:0:0:0:
475,192,109832,1,0,0:0:0:0:
256,192,110062,1,0,0:0:0:0:
36,192,110409,1,0,0:0:0:0:
256,192,110524,1,0,0:0:0:0:
182,192,110755,1,0,0:0:0:0:
402,192,110755,1,0,0:0:0:0:
182,192,110985,1,0,0:0:0:0:
402,192,110985,1,0,0:0:0:0:
475,192,111216,1,0,0:0:0:0:
329,192,111332,1,0,0:0:0:0:
182,192,111447,1,0,0:0:0:0:
36,192,111562,1,0,0:0:0:0:
109,192,111678,1,0,0:0:0:0:
256,192,111678,1,0,0:0:0:0:
402,192,111909,1,0,0:0:0:0:
329,192,112024,1,0,0:0:0:0:
329,192,112255,1,0,0:0:0:0:
256,192,112370,1,0,0:0:0:0:
182,192,112485,1,0,0:0:0:0:
402,192,112601,1,0,0:0:0:0:
329,192,112716,1,0,0:0:0:0:
256,192,112832,1,0,0:0:0:0:
475,192,112947,1,0,0:0:0:0:
36,192,113062,1,0,0:0:0:0:
109,192,113178,1,0,0:0:0:0:
329,192,113293,1,0,0:0:0:0:
256,192,113524,1,0,0:0:0:0:
36,192,113524,1,0,0:0:0:0:
475,192,113755,1,0,0:0:0:0:
182,192,113870,1,0,0:0:0:0:
36,192,114101,1,0,0:0:0:0:
329,192,114216,1,0,0:0:0:0:
402,192,114332,1,0,0:0:0:0:
109,192,114447,1,0,0:0:0:0:
256,192,114678,1,0,0:0:0:0:
475,192,114909,1,0,0:0:0:0:
402,192,115024,1,0,0:0:0:0:
329,192,115139,1,0,0:0:0:0:
256,192,115255,1,0,0:0:0:0:
109,192,115370,1,0,0:0:0:0:
36,192,115370,1,0,0:0:0:0:
402,192,115601,1,0,0:0:0:0:
109,192,115716,1,0,0:0:0:0:
475,192,115832,1,0,0:0:0:0:
182,192,115947,1,0,0:0:0:0:
256,192,116062,1,0,0:0:0:0:
329,192,116178,1,0,0:0:0:0:
475,192,116293,1,0,0:0:0:0:
36,192,116293,1,0,0:0:0:0:
402,192,116409,1,0,0:0:0:0:
329,192,116524,1,0,0:0:0:0:
256,192,116639,1,0,0:0:0:0:
182,192,116755,1,0,0:0:0:0:
109,192,116870,1,0,0:0:0:0:
475,192,116985,1,0,0:0:0:0:
109,192,117216,1,0,0:0:0:0:
402,192,117216,1,0,0:0:0:0:
256,192,117447,1,0,0:0:0:0:
329,192,117562,1,0,0:0:0:0:
329,192,117793,1,0,0:0:0:0:
36,192,117909,1,0,0:0:0:0:
109,192,118024,1,0,0:0:0:0:
475,192,118139,1,0,0:0:0:0:
109,192,118255,1,0,0:0:0:0:
256,192,118370,1,0,0:0:0:0:
109,192,118601,1,0,0:0:0:0:
182,192,118716,1,0,0:0:0:0:
256,192,118832,1,0,0:0:0:0:
475,192,119062,1,0,0:0:0:0:
36,192,119062,1,0,0:0:0:0:
256,192,119293,1,0,0:0:0:0:
402,192,119409,1,0,0:0:0:0:
182,192,119639,1,0,0:0:0:0:
329,192,119755,1,0,0:0:0:0:
109,192,119870,1,0,0:0:0:0:
36,192,119985,1,0,0:0:0:0:
256,192,120216,1,0,0:0:0:0:
475,192,120447,1,0,0:0:0:0:
109,192,120562,1,0,0:0:0:0:
329,192,120678,1,0,0:0:0:0:
256,192,120793,1,0,0:0:0:0:
182,192,120909,1,0,0:0:0:0:
36,192,120909,1,0,0:0:0:0:
329,192,121139,1,0,0:0:0:0:
475,192,121255,1,0,0:0:0:0:
475,192,121485,1,0,0:0:0:0:
402,192,121601,1,0,0:0:0:0:
36,192,121716,1,0,0:0:0:0:
256,192,121832,1,0,0:0:0:0:
109,192,121947,1,0,0:0:0:0:
329,192,122062,1,0,0:0:0:0:
36,192,122293,1,0,0:0:0:0:
256,192,122409,1,0,0:0:0:0:
182,192,122524,1,0,0:0:0:0:
402,192,122639,1,0,0:0:0:0:
329,192,122755,1,0,0:0:0:0:
475,192,122755,1,0,0:0:0:0:
256,192,122985,1,0,0:0:0:0:
36,192,123332,1,0,0:0:0:0:
329,192,123447,1,0,0:0:0:0:
182,192,123678,1,0,0:0:0:0:
256,192,123678,1,0,0:0:0:0:
182,192,123909,1,0,0:0:0:0:
256,192,123909,1,0,0:0:0:0:
475,192,124139,1,0,0:0:0:0:
329,192,124255,1,0,0:0:0:0:
182,192,124370,1,0,0:0:0:0:
36,192,124485,1,0,0:0:0:0:
256,192,124601,1,0,0:0:0:0:
475,192,124601,1,0,0:0:0:0:
109,192,124832,1,0,0:0:0:0:
402,192,124947,1,0,0:0:0:0:
402,192,125178,1,0,0:0:0:0:
36,192,125293,1,0,0:0:0:0:
329,192,125409,1,0,0:0:0:0:
182,192,125524,1,0,0:0:0:0:
402,192,125639,1,0,0:0:0:0:
329,192,125755,1,0,0:0:0:0:
329,192,125985,1,0,0:0:0:0:
109,192,126101,1,0,0:0:0:0:
256,192,126216,1,0,0:0:0:0:
475,192,126447,1,0,0:0:0:0:
36,192,126447,1,0,0:0:0:0:
329,192,126678,1,0,0:0:0:0:
109,192,126793,1,0,0:0:0:0:
402,192,127024,1,0,0:0:0:0:
256,192,127139,1,0,0:0:0:0:
329,192,127255,1,0,0:0:0:0:
475,192,127370,1,0,0:0:0:0:
36,192,127601,1,0,0:0:0:0:
402,192,127832,1,0,0:0:0:0:
329,192,127947,1,0,0:0:0:0:
256,192,128062,1,0,0:0:0:0:
182,192,128178,1,0,0:0:0:0:
109,192,128293,1,0,0:0:0:0:
36,192,128293,1,0,0:0:0:0:
402,192,128524,1,0,0:0:0:0:
182,192,128639,1,0,0:0:0:0:
182,192,128870,1,0,0:0:0:0:
475,192,128985,1,0,0:0:0:0:
36,192,129101,1,0,0:0:0:0:
109,192,129216,1,0,0:0:0:0:
256,192,129332,1,0,0:0:0:0:
329,192,129447,1,0,0:0:0:0:
475,192,129562,1,0,0:0:0:0:
256,192,129793,1,0,0:0:0:0:
182,192,129909,1,0,0:0:0:0:
402,192,130024,1,0,0:0:0:0:
109,192,130139,1,0,0:0:0:0:
36,192,130139,1,0,0:0:0:0:
475,192,130370,1,0,0:0:0:0:
402,192,130370,1,0,0:0:0:0:
475,192,130601,1,0,0:0:0:0:
402,192,130601,1,0,0:0:0:0:
182,192,130832,1,0,0:0:0:0:
109,192,130832,1,0,0:0:0:0:
256,192,131062,1,0,0:0:0:0:
329,192,131178,1,0,0:0:0:0:
182,192,131293,1,0,0:0:0:0:
402,192,131409,1,0,0:0:0:0:
256,192,131524,1,0,0:0:0:0:
475,192,131639,1,0,0:0:0:0:
329,192,131755,1,0,0:0:0:0:
36,192,131870,1,0,0:0:0:0:
182,192,131985,1,0,0:0:0:0:
402,192,131985,1,0,0:0:0:0:
182,192,132332,1,0,0:0:0:0:
182,192,132678,1,0,0:0:0:0:
329,192,132909,1,0,0:0:0:0:
329,192,133255,1,0,0:0:0:0:
329,192,133601,1,0,0:0:0:0:
256,192,133832,1,0,0:0:0:0:
256,192,134178,1,0,0:0:0:0:
256,192,134524,1,0,0:0:0:0:
109,192,134755,1,0,0:0:0:0:
109,192,135101,1,0,0:0:0:0:
109,192,135447,1,0,0:0:0:0:
402,192,135678,1,0,0:0:0:0:
402,192,136024,1,0,0:0:0:0:
402,192,136370,1,0,0:0:0:0:
36,192,136601,1,0,0:0:0:0:
36,192,136947,1,0,0:0:0:0:
36,192,137293,1,0,0:0:0:0:
475,192,137524,1,0,0:0:0:0:
475,192,137870,1,0,0:0:0:0:
475,192,138216,1,0,0:0:0:0:
256,192,138447,1,0,0:0:0:0:
256,192,138793,1,0,0:0:0:0:
36,192,138909,1,0,0:0:0:0:
475,192,139024,1,0,0:0:0:0:
36,192,139139,1,0,0:0:0:0:
402,192,139255,1,0,0:0:0:0:
329,192,139255,1,0,0:0:0:0:
