osu file format v14

[General]
AudioFilename: audio.mp3
AudioLeadIn: 0
PreviewTime: 15562
Countdown: 0
SampleSet: Normal
StackLeniency: 0.7
Mode: 3
LetterboxInBreaks: 0
SpecialStyle: 0
WidescreenStoryboard: 1

[Editor]
DistanceSpacing: 0.8
BeatDivisor: 4
GridSize: 32
TimelineZoom: 3

[Metadata]
Title:Triumphal Return
TitleUnicode:Triumphal Return
Artist:TamaDo
ArtistUnicode:TamaDo
Creator:Sebaex
Version:4K Insane
Source:A-1 ClimaX 7th -Break Through!-
Tags:bms epilogue instrumental electronic speedcore dee2 digital emergency exit 2 event tamago-dofu piano video game [-roxas-] blocko 第14回自称無名bms作家が物申す!highspeed speedstream chordstream chordjack stamina double stair high speed stream chord trill jack cj bracket symmetrical rice 2017
BeatmapID:4315292
BeatmapSetID:1265691

[Difficulty]
HPDrainRate:8.2
CircleSize:4
OverallDifficulty:8.2
ApproachRate:5
SliderMultiplier:1.4
SliderTickRate:1

[Events]
//Background and Video events
0,0,"bg.jpg",0,0
//Break Periods
//Storyboard Layer 0 (Background)
//Storyboard Layer 1 (Fail)
//Storyboard Layer 2 (Pass)
//Storyboard Layer 3 (Foreground)
//Storyboard Layer 4 (Overlay)
//Storyboard Sound Samples

[TimingPoints]
909,230.769231,4,1,1,15,1,0
15678,-100,4,1,1,40,0,1
30447,-100,4,1,1,40,0,0
104524,-100,4,1,1,40,0,1
131985,-100,4,1,1,40,0,0

[HitObjects]
320,0,909,5,0,0:0:0:0:
448,0,909,1,0,0:0:0:0:
192,0,1255,1,0,0:0:0:0:
320,0,1370,5,0,0:0:0:0:
448,0,1370,1,0,0:0:0:0:
64,0,1485,1,0,0:0:0:0:
320,0,1716,1,0,0:0:0:0:
64,0,1832,1,0,0:0:0:0:
448,0,1832,1,0,0:0:0:0:
192,0,1947,1,0,0:0:0:0:
192,0,2062,1,0,0:0:0:0:
320,0,2293,1,0,0:0:0:0:
448,0,2293,1,0,0:0:0:0:
192,0,2524,1,0,0:0:0:0:
64,0,2755,1,0,0:0:0:0:
320,0,2755,1,0,0:0:0:0:
320,0,3101,1,0,0:0:0:0:
192,0,3216,1,0,0:0:0:0:
448,0,3216,1,0,0:0:0:0:
64,0,3332,1,0,0:0:0:0:
448,0,3562,1,0,0:0:0:0:
64,0,3678,1,0,0:0:0:0:
192,0,3678,1,0,0:0:0:0:
320,0,3909,1,0,0:0:0:0:
64,0,4139,1,0,0:0:0:0:
448,0,4139,1,0,0:0:0:0:
192,0,4255,1,0,0:0:0:0:
320,0,4370,1,0,0:0:0:0:
448,0,4485,1,0,0:0:0:0:
64,0,4601,1,0,0:0:0:0:
192,0,4601,1,0,0:0:0:0:
192,0,4947,1,0,0:0:0:0:
320,0,5062,1,0,0:0:0:0:
448,0,5062,1,0,0:0:0:0:
64,0,5178,1,0,0:0:0:0:
448,0,5409,1,0,0:0:0:0:
64,0,5524,1,0,0:0:0:0:
192,0,5524,1,0,0:0:0:0:
320,0,5639,1,0,0:0:0:0:
320,0,5755,1,0,0:0:0:0:
192,0,5985,1,0,0:0:0:0:
448,0,5985,1,0,0:0:0:0:
320,0,6332,1,0,0:0:0:0:
64,0,6447,1,0,0:0:0:0:
192,0,6447,1,0,0:0:0:0:
320,0,6793,1,0,0:0:0:0:
64,0,6909,1,0,0:0:0:0:
448,0,6909,1,0,0:0:0:0:
192,0,7024,1,0,0:0:0:0:
320,0,7139,1,0,0:0:0:0:
64,0,7370,1,0,0:0:0:0:
448,0,7370,1,0,0:0:0:0:
448,0,7601,1,0,0:0:0:0:
320,0,7803,1,0,0:0:0:0:
64,0,7832,1,0,0:0:0:0:
448,0,7832,1,0,0:0:0:0:
320,0,7947,1,0,0:0:0:0:
192,0,8062,1,0,0:0:0:0:
64,0,8178,1,0,0:0:0:0:
192,0,8293,1,0,0:0:0:0:
320,0,8293,1,0,0:0:0:0:
448,0,8293,1,0,0:0:0:0:
192,0,8639,1,0,0:0:0:0:
320,0,8755,1,0,0:0:0:0:
448,0,8755,1,0,0:0:0:0:
64,0,8870,1,0,0:0:0:0:
320,0,9101,1,0,0:0:0:0:
64,0,9216,1,0,0:0:0:0:
448,0,9216,1,0,0:0:0:0:
192,0,9332,1,0,0:0:0:0:
192,0,9447,1,0,0:0:0:0:
320,0,9678,1,0,0:0:0:0:
448,0,9678,1,0,0:0:0:0:
192,0,9909,1,0,0:0:0:0:
64,0,10139,1,0,0:0:0:0:
320,0,10139,1,0,0:0:0:0:
320,0,10485,1,0,0:0:0:0:
64,0,10601,1,0,0:0:0:0:
448,0,10601,1,0,0:0:0:0:
192,0,10716,1,0,0:0:0:0:
448,0,10947,1,0,0:0:0:0:
64,0,11062,1,0,0:0:0:0:
192,0,11062,1,0,0:0:0:0:
320,0,11293,1,0,0:0:0:0:
64,0,11524,1,0,0:0:0:0:
448,0,11524,1,0,0:0:0:0:
192,0,11639,1,0,0:0:0:0:
320,0,11755,1,0,0:0:0:0:
448,0,11870,1,0,0:0:0:0:
64,0,11985,1,0,0:0:0:0:
192,0,11985,1,0,0:0:0:0:
320,0,12332,1,0,0:0:0:0:
64,0,12447,1,0,0:0:0:0:
448,0,12447,1,0,0:0:0:0:
192,0,12562,1,0,0:0:0:0:
448,0,12793,1,0,0:0:0:0:
64,0,12909,1,0,0:0:0:0:
192,0,12909,1,0,0:0:0:0:
320,0,13024,1,0,0:0:0:0:
320,0,13139,1,0,0:0:0:0:
64,0,13370,1,0,0:0:0:0:
320,0,13370,1,0,0:0:0:0:
448,0,13601,1,0,0:0:0:0:
320,0,13716,1,0,0:0:0:0:
64,0,13832,1,0,0:0:0:0:
192,0,13832,1,0,0:0:0:0:
448,0,14062,1,0,0:0:0:0:
192,0,14178,1,0,0:0:0:0:
448,0,14409,1,0,0:0:0:0:
192,0,14524,1,0,0:0:0:0:
64,0,14755,1,0,0:0:0:0:
192,0,14755,1,0,0:0:0:0:
320,0,14769,1,0,0:0:0:0:
448,0,14784,1,0,0:0:0:0:
448,0,15216,1,0,0:0:0:0:
192,0,15274,1,0,0:0:0:0:
64,0,15332,1,0,0:0:0:0:
320,0,15447,1,0,0:0:0:0:
192,0,15562,1,0,0:0:0:0:
64,0,15678,1,0,0:0:0:0:
448,0,15678,1,0,0:0:0:0:
192,0,15735,1,0,0:0:0:0:
320,0,15793,1,0,0:0:0:0:
64,0,15851,1,0,0:0:0:0:
192,0,15909,1,0,0:0:0:0:
448,0,15966,1,0,0:0:0:0:
64,0,16024,1,0,0:0:0:0:
320,0,16024,1,0,0:0:0:0:
192,0,16139,1,0,0:0:0:0:
320,0,16255,1,0,0:0:0:0:
448,0,16255,1,0,0:0:0:0:
64,0,16370,1,0,0:0:0:0:
192,0,16485,1,0,0:0:0:0:
320,0,16485,1,0,0:0:0:0:
448,0,16543,1,0,0:0:0:0:
64,0,16601,1,0,0:0:0:0:
320,0,16659,1,0,0:0:0:0:
192,0,16716,1,0,0:0:0:0:
64,0,16774,1,0,0:0:0:0:
320,0,16832,1,0,0:0:0:0:
448,0,16832,1,0,0:0:0:0:
192,0,16947,1,0,0:0:0:0:
64,0,17062,1,0,0:0:0:0:
448,0,17062,1,0,0:0:0:0:
320,0,17178,1,0,0:0:0:0:
64,0,17293,1,0,0:0:0:0:
192,0,17293,1,0,0:0:0:0:
448,0,17409,1,0,0:0:0:0:
192,0,17524,1,0,0:0:0:0:
320,0,17524,1,0,0:0:0:0:
448,0,17582,1,0,0:0:0:0:
64,0,17639,1,0,0:0:0:0:
320,0,17697,1,0,0:0:0:0:
192,0,17755,1,0,0:0:0:0:
448,0,17812,1,0,0:0:0:0:
64,0,17870,1,0,0:0:0:0:
192,0,17870,1,0,0:0:0:0:
320,0,17985,1,0,0:0:0:0:
192,0,18101,1,0,0:0:0:0:
448,0,18101,1,0,0:0:0:0:
64,0,18216,1,0,0:0:0:0:
320,0,18332,1,0,0:0:0:0:
448,0,18332,1,0,0:0:0:0:
192,0,18389,1,0,0:0:0:0:
64,0,18447,1,0,0:0:0:0:
448,0,18505,1,0,0:0:0:0:
320,0,18562,1,0,0:0:0:0:
64,0,18620,1,0,0:0:0:0:
448,0,18678,1,0,0:0:0:0:
320,0,18735,1,0,0:0:0:0:
64,0,18793,1,0,0:0:0:0:
192,0,18851,1,0,0:0:0:0:
320,0,18909,1,0,0:0:0:0:
448,0,18909,1,0,0:0:0:0:
64,0,19024,1,0,0:0:0:0:
192,0,19139,1,0,0:0:0:0:
320,0,19255,1,0,0:0:0:0:
64,0,19370,1,0,0:0:0:0:
448,0,19370,1,0,0:0:0:0:
192,0,19428,1,0,0:0:0:0:
320,0,19485,1,0,0:0:0:0:
64,0,19543,1,0,0:0:0:0:
448,0,19601,1,0,0:0:0:0:
320,0,19659,1,0,0:0:0:0:
64,0,19716,1,0,0:0:0:0:
192,0,19716,1,0,0:0:0:0:
320,0,19832,1,0,0:0:0:0:
192,0,19947,1,0,0:0:0:0:
448,0,19947,1,0,0:0:0:0:
64,0,20062,1,0,0:0:0:0:
320,0,20178,1,0,0:0:0:0:
448,0,20178,1,0,0:0:0:0:
64,0,20235,1,0,0:0:0:0:
192,0,20293,1,0,0:0:0:0:
448,0,20351,1,0,0:0:0:0:
64,0,20409,1,0,0:0:0:0:
320,0,20466,1,0,0:0:0:0:
448,0,20524,1,0,0:0:0:0:
192,0,20524,1,0,0:0:0:0:
64,0,20639,1,0,0:0:0:0:
192,0,20755,1,0,0:0:0:0:
320,0,20755,1,0,0:0:0:0:
448,0,20870,1,0,0:0:0:0:
64,0,20985,1,0,0:0:0:0:
192,0,21101,1,0,0:0:0:0:
320,0,21101,1,0,0:0:0:0:
64,0,21216,1,0,0:0:0:0:
448,0,21216,1,0,0:0:0:0:
192,0,21274,1,0,0:0:0:0:
320,0,21332,1,0,0:0:0:0:
448,0,21389,1,0,0:0:0:0:
192,0,21447,1,0,0:0:0:0:
320,0,21505,1,0,0:0:0:0:
448,0,21562,1,0,0:0:0:0:
64,0,21620,1,0,0:0:0:0:
192,0,21678,1,0,0:0:0:0:
448,0,21735,1,0,0:0:0:0:
320,0,21793,1,0,0:0:0:0:
64,0,21851,1,0,0:0:0:0:
448,0,21909,1,0,0:0:0:0:
192,0,21966,1,0,0:0:0:0:
64,0,22024,1,0,0:0:0:0:
448,0,22082,1,0,0:0:0:0:
192,0,22139,1,0,0:0:0:0:
320,0,22139,1,0,0:0:0:0:
192,0,22370,1,0,0:0:0:0:
320,0,22370,1,0,0:0:0:0:
320,0,22601,1,0,0:0:0:0:
448,0,22601,1,0,0:0:0:0:
192,0,22659,1,0,0:0:0:0:
64,0,22716,1,0,0:0:0:0:
448,0,22774,1,0,0:0:0:0:
192,0,22832,1,0,0:0:0:0:
320,0,22832,1,0,0:0:0:0:
64,0,22947,1,0,0:0:0:0:
192,0,23062,1,0,0:0:0:0:
320,0,23062,1,0,0:0:0:0:
448,0,23120,1,0,0:0:0:0:
64,0,23178,1,0,0:0:0:0:
192,0,23235,1,0,0:0:0:0:
448,0,23293,1,0,0:0:0:0:
320,0,23351,1,0,0:0:0:0:
64,0,23409,1,0,0:0:0:0:
192,0,23409,1,0,0:0:0:0:
320,0,23524,1,0,0:0:0:0:
64,0,23639,1,0,0:0:0:0:
448,0,23639,1,0,0:0:0:0:
320,0,23755,1,0,0:0:0:0:
64,0,23870,1,0,0:0:0:0:
192,0,23870,1,0,0:0:0:0:
320,0,23928,1,0,0:0:0:0:
448,0,23985,1,0,0:0:0:0:
64,0,24043,1,0,0:0:0:0:
320,0,24101,1,0,0:0:0:0:
192,0,24159,1,0,0:0:0:0:
64,0,24216,1,0,0:0:0:0:
448,0,24216,1,0,0:0:0:0:
320,0,24332,1,0,0:0:0:0:
64,0,24447,1,0,0:0:0:0:
192,0,24447,1,0,0:0:0:0:
320,0,24562,1,0,0:0:0:0:
64,0,24678,1,0,0:0:0:0:
448,0,24678,1,0,0:0:0:0:
192,0,24793,1,0,0:0:0:0:
320,0,24909,1,0,0:0:0:0:
448,0,24909,1,0,0:0:0:0:
64,0,24966,1,0,0:0:0:0:
192,0,25024,1,0,0:0:0:0:
320,0,25082,1,0,0:0:0:0:
448,0,25139,1,0,0:0:0:0:
64,0,25197,1,0,0:0:0:0:
192,0,25255,1,0,0:0:0:0:
320,0,25255,1,0,0:0:0:0:
448,0,25370,1,0,0:0:0:0:
64,0,25485,1,0,0:0:0:0:
192,0,25485,1,0,0:0:0:0:
448,0,25601,1,0,0:0:0:0:
192,0,25716,1,0,0:0:0:0:
320,0,25716,1,0,0:0:0:0:
64,0,25774,1,0,0:0:0:0:
448,0,25832,1,0,0:0:0:0:
320,0,25889,1,0,0:0:0:0:
64,0,25947,1,0,0:0:0:0:
448,0,26005,1,0,0:0:0:0:
192,0,26062,1,0,0:0:0:0:
64,0,26120,1,0,0:0:0:0:
448,0,26178,1,0,0:0:0:0:
320,0,26235,1,0,0:0:0:0:
64,0,26293,1,0,0:0:0:0:
192,0,26293,1,0,0:0:0:0:
320,0,26409,1,0,0:0:0:0:
448,0,26524,1,0,0:0:0:0:
64,0,26639,1,0,0:0:0:0:
320,0,26755,1,0,0:0:0:0:
192,0,26755,1,0,0:0:0:0:
448,0,26812,1,0,0:0:0:0:
64,0,26870,1,0,0:0:0:0:
192,0,26928,1,0,0:0:0:0:
320,0,26985,1,0,0:0:0:0:
64,0,27043,1,0,0:0:0:0:
320,0,27101,1,0,0:0:0:0:
448,0,27101,1,0,0:0:0:0:
192,0,27216,1,0,0:0:0:0:
64,0,27332,1,0,0:0:0:0:
448,0,27332,1,0,0:0:0:0:
320,0,27447,1,0,0:0:0:0:
64,0,27562,1,0,0:0:0:0:
192,0,27562,1,0,0:0:0:0:
320,0,27678,1,0,0:0:0:0:
64,0,27793,1,0,0:0:0:0:
448,0,27793,1,0,0:0:0:0:
192,0,27909,1,0,0:0:0:0:
320,0,28024,1,0,0:0:0:0:
448,0,28024,1,0,0:0:0:0:
64,0,28139,1,0,0:0:0:0:
192,0,28255,1,0,0:0:0:0:
448,0,28255,1,0,0:0:0:0:
320,0,28370,1,0,0:0:0:0:
192,0,28485,1,0,0:0:0:0:
64,0,28601,1,0,0:0:0:0:
448,0,28601,1,0,0:0:0:0:
192,0,28659,1,0,0:0:0:0:
320,0,28716,1,0,0:0:0:0:
448,0,28774,1,0,0:0:0:0:
64,0,28832,1,0,0:0:0:0:
192,0,28889,1,0,0:0:0:0:
448,0,28947,1,0,0:0:0:0:
64,0,29005,1,0,0:0:0:0:
320,0,29062,1,0,0:0:0:0:
448,0,29120,1,0,0:0:0:0:
192,0,29178,1,0,0:0:0:0:
64,0,29235,1,0,0:0:0:0:
448,0,29293,1,0,0:0:0:0:
320,0,29351,1,0,0:0:0:0:
192,0,29409,1,0,0:0:0:0:
448,0,29466,1,0,0:0:0:0:
320,0,29524,1,0,0:0:0:0:
64,0,29582,1,0,0:0:0:0:
192,0,29639,1,0,0:0:0:0:
320,0,29697,1,0,0:0:0:0:
448,0,29755,1,0,0:0:0:0:
64,0,29812,1,0,0:0:0:0:
320,0,29870,1,0,0:0:0:0:
448,0,29928,1,0,0:0:0:0:
64,0,29985,1,0,0:0:0:0:
192,0,30014,1,0,0:0:0:0:
320,0,30043,1,0,0:0:0:0:
448,0,30101,1,0,0:0:0:0:
64,0,30216,1,0,0:0:0:0:
448,0,30332,1,0,0:0:0:0:
192,0,30447,1,0,0:0:0:0:
320,0,30447,1,0,0:0:0:0:
64,0,30505,1,0,0:0:0:0:
448,0,30562,1,0,0:0:0:0:
320,0,30620,1,0,0:0:0:0:
64,0,30678,1,0,0:0:0:0:
192,0,30678,1,0,0:0:0:0:
320,0,30793,1,0,0:0:0:0:
448,0,30909,1,0,0:0:0:0:
320,0,31024,1,0,0:0:0:0:
192,0,31024,1,0,0:0:0:0:
64,0,31139,1,0,0:0:0:0:
448,0,31139,1,0,0:0:0:0:
192,0,31197,1,0,0:0:0:0:
320,0,31255,1,0,0:0:0:0:
448,0,31312,1,0,0:0:0:0:
192,0,31370,1,0,0:0:0:0:
64,0,31370,1,0,0:0:0:0:
320,0,31485,1,0,0:0:0:0:
192,0,31601,1,0,0:0:0:0:
448,0,31601,1,0,0:0:0:0:
64,0,31716,1,0,0:0:0:0:
320,0,31832,1,0,0:0:0:0:
448,0,31889,1,0,0:0:0:0:
64,0,31947,1,0,0:0:0:0:
192,0,32005,1,0,0:0:0:0:
320,0,32062,1,0,0:0:0:0:
448,0,32062,1,0,0:0:0:0:
192,0,32178,1,0,0:0:0:0:
448,0,32293,1,0,0:0:0:0:
64,0,32293,1,0,0:0:0:0:
320,0,32409,1,0,0:0:0:0:
64,0,32524,1,0,0:0:0:0:
192,0,32524,1,0,0:0:0:0:
448,0,32639,1,0,0:0:0:0:
320,0,32697,1,0,0:0:0:0:
192,0,32755,1,0,0:0:0:0:
64,0,32812,1,0,0:0:0:0:
448,0,32870,1,0,0:0:0:0:
320,0,32870,1,0,0:0:0:0:
192,0,32985,1,0,0:0:0:0:
64,0,32985,1,0,0:0:0:0:
320,0,33101,1,0,0:0:0:0:
448,0,33216,1,0,0:0:0:0:
192,0,33216,1,0,0:0:0:0:
64,0,33332,1,0,0:0:0:0:
192,0,33447,1,0,0:0:0:0:
320,0,33447,1,0,0:0:0:0:
448,0,33562,1,0,0:0:0:0:
192,0,33678,1,0,0:0:0:0:
320,0,33735,1,0,0:0:0:0:
448,0,33793,1,0,0:0:0:0:
64,0,33793,1,0,0:0:0:0:
192,0,33909,1,0,0:0:0:0:
320,0,33909,1,0,0:0:0:0:
64,0,34024,1,0,0:0:0:0:
192,0,34139,1,0,0:0:0:0:
320,0,34139,1,0,0:0:0:0:
448,0,34197,1,0,0:0:0:0:
64,0,34255,1,0,0:0:0:0:
192,0,34312,1,0,0:0:0:0:
448,0,34370,1,0,0:0:0:0:
320,0,34370,1,0,0:0:0:0:
64,0,34485,1,0,0:0:0:0:
320,0,34601,1,0,0:0:0:0:
192,0,34716,1,0,0:0:0:0:
448,0,34716,1,0,0:0:0:0:
64,0,34832,1,0,0:0:0:0:
320,0,34832,1,0,0:0:0:0:
192,0,34889,1,0,0:0:0:0:
448,0,34947,1,0,0:0:0:0:
320,0,35005,1,0,0:0:0:0:
64,0,35062,1,0,0:0:0:0:
192,0,35062,1,0,0:0:0:0:
448,0,35178,1,0,0:0:0:0:
192,0,35293,1,0,0:0:0:0:
320,0,35293,1,0,0:0:0:0:
64,0,35409,1,0,0:0:0:0:
320,0,35524,1,0,0:0:0:0:
448,0,35524,1,0,0:0:0:0:
192,0,35582,1,0,0:0:0:0:
64,0,35639,1,0,0:0:0:0:
448,0,35697,1,0,0:0:0:0:
320,0,35755,1,0,0:0:0:0:
192,0,35755,1,0,0:0:0:0:
64,0,35870,1,0,0:0:0:0:
320,0,35985,1,0,0:0:0:0:
448,0,35985,1,0,0:0:0:0:
192,0,36101,1,0,0:0:0:0:
64,0,36216,1,0,0:0:0:0:
448,0,36216,1,0,0:0:0:0:
320,0,36332,1,0,0:0:0:0:
192,0,36389,1,0,0:0:0:0:
64,0,36447,1,0,0:0:0:0:
448,0,36505,1,0,0:0:0:0:
192,0,36562,1,0,0:0:0:0:
320,0,36562,1,0,0:0:0:0:
64,0,36678,1,0,0:0:0:0:
448,0,36678,1,0,0:0:0:0:
320,0,36793,1,0,0:0:0:0:
448,0,36909,1,0,0:0:0:0:
192,0,36909,1,0,0:0:0:0:
448,0,37139,1,0,0:0:0:0:
192,0,37139,1,0,0:0:0:0:
320,0,37370,1,0,0:0:0:0:
448,0,37370,1,0,0:0:0:0:
192,0,37428,1,0,0:0:0:0:
64,0,37485,1,0,0:0:0:0:
448,0,37485,1,0,0:0:0:0:
320,0,37543,1,0,0:0:0:0:
64,0,37601,1,0,0:0:0:0:
192,0,37601,1,0,0:0:0:0:
448,0,37716,1,0,0:0:0:0:
320,0,37716,1,0,0:0:0:0:
192,0,37832,1,0,0:0:0:0:
64,0,37832,1,0,0:0:0:0:
320,0,37889,1,0,0:0:0:0:
448,0,37947,1,0,0:0:0:0:
64,0,38005,1,0,0:0:0:0:
192,0,38062,1,0,0:0:0:0:
320,0,38062,1,0,0:0:0:0:
448,0,38178,1,0,0:0:0:0:
64,0,38293,1,0,0:0:0:0:
320,0,38409,1,0,0:0:0:0:
192,0,38409,1,0,0:0:0:0:
64,0,38524,1,0,0:0:0:0:
448,0,38524,1,0,0:0:0:0:
192,0,38582,1,0,0:0:0:0:
320,0,38639,1,0,0:0:0:0:
64,0,38697,1,0,0:0:0:0:
192,0,38755,1,0,0:0:0:0:
448,0,38755,1,0,0:0:0:0:
320,0,38870,1,0,0:0:0:0:
64,0,38985,1,0,0:0:0:0:
192,0,38985,1,0,0:0:0:0:
448,0,39101,1,0,0:0:0:0:
320,0,39216,1,0,0:0:0:0:
192,0,39274,1,0,0:0:0:0:
64,0,39332,1,0,0:0:0:0:
448,0,39389,1,0,0:0:0:0:
320,0,39447,1,0,0:0:0:0:
192,0,39447,1,0,0:0:0:0:
64,0,39562,1,0,0:0:0:0:
320,0,39678,1,0,0:0:0:0:
448,0,39678,1,0,0:0:0:0:
192,0,39793,1,0,0:0:0:0:
64,0,39909,1,0,0:0:0:0:
448,0,39909,1,0,0:0:0:0:
192,0,40024,1,0,0:0:0:0:
320,0,40082,1,0,0:0:0:0:
64,0,40139,1,0,0:0:0:0:
192,0,40197,1,0,0:0:0:0:
448,0,40255,1,0,0:0:0:0:
320,0,40255,1,0,0:0:0:0:
192,0,40370,1,0,0:0:0:0:
64,0,40370,1,0,0:0:0:0:
320,0,40485,1,0,0:0:0:0:
64,0,40601,1,0,0:0:0:0:
448,0,40601,1,0,0:0:0:0:
320,0,40716,1,0,0:0:0:0:
64,0,40832,1,0,0:0:0:0:
192,0,40832,1,0,0:0:0:0:
448,0,40947,1,0,0:0:0:0:
320,0,41062,1,0,0:0:0:0:
192,0,41120,1,0,0:0:0:0:
64,0,41178,1,0,0:0:0:0:
448,0,41178,1,0,0:0:0:0:
320,0,41293,1,0,0:0:0:0:
192,0,41293,1,0,0:0:0:0:
64,0,41409,1,0,0:0:0:0:
320,0,41524,1,0,0:0:0:0:
192,0,41524,1,0,0:0:0:0:
448,0,41582,1,0,0:0:0:0:
64,0,41639,1,0,0:0:0:0:
192,0,41697,1,0,0:0:0:0:
320,0,41755,1,0,0:0:0:0:
448,0,41755,1,0,0:0:0:0:
192,0,41870,1,0,0:0:0:0:
448,0,41985,1,0,0:0:0:0:
64,0,42101,1,0,0:0:0:0:
320,0,42101,1,0,0:0:0:0:
192,0,42216,1,0,0:0:0:0:
448,0,42216,1,0,0:0:0:0:
64,0,42274,1,0,0:0:0:0:
320,0,42332,1,0,0:0:0:0:
192,0,42389,1,0,0:0:0:0:
448,0,42447,1,0,0:0:0:0:
64,0,42447,1,0,0:0:0:0:
320,0,42562,1,0,0:0:0:0:
64,0,42678,1,0,0:0:0:0:
192,0,42678,1,0,0:0:0:0:
448,0,42793,1,0,0:0:0:0:
192,0,42909,1,0,0:0:0:0:
64,0,42909,1,0,0:0:0:0:
320,0,42966,1,0,0:0:0:0:
448,0,43024,1,0,0:0:0:0:
192,0,43082,1,0,0:0:0:0:
320,0,43139,1,0,0:0:0:0:
448,0,43139,1,0,0:0:0:0:
64,0,43255,1,0,0:0:0:0:
448,0,43370,1,0,0:0:0:0:
192,0,43370,1,0,0:0:0:0:
320,0,43485,1,0,0:0:0:0:
64,0,43601,1,0,0:0:0:0:
192,0,43601,1,0,0:0:0:0:
320,0,43716,1,0,0:0:0:0:
448,0,43716,1,0,0:0:0:0:
64,0,43774,1,0,0:0:0:0:
192,0,43774,1,0,0:0:0:0:
320,0,43832,1,0,0:0:0:0:
448,0,43832,1,0,0:0:0:0:
64,0,43947,1,0,0:0:0:0:
192,0,43947,1,0,0:0:0:0:
448,0,44062,1,0,0:0:0:0:
192,0,44178,1,0,0:0:0:0:
320,0,44178,1,0,0:0:0:0:
64,0,44293,1,0,0:0:0:0:
448,0,44293,1,0,0:0:0:0:
64,0,44409,1,0,0:0:0:0:
448,0,44409,1,0,0:0:0:0:
64,0,44639,128,0,44870:0:0:0:0:
448,0,44639,128,0,44870:0:0:0:0:
64,0,44985,1,0,0:0:0:0:
448,0,44985,1,0,0:0:0:0:
192,0,45101,1,0,0:0:0:0:
320,0,45101,1,0,0:0:0:0:
64,0,45216,1,0,0:0:0:0:
192,0,45216,1,0,0:0:0:0:
448,0,45216,1,0,0:0:0:0:
192,0,45447,1,0,0:0:0:0:
64,0,45562,1,0,0:0:0:0:
320,0,45678,1,0,0:0:0:0:
448,0,45678,1,0,0:0:0:0:
192,0,45793,1,0,0:0:0:0:
64,0,45909,1,0,0:0:0:0:
192,0,45966,1,0,0:0:0:0:
320,0,46024,1,0,0:0:0:0:
448,0,46082,1,0,0:0:0:0:
192,0,46139,1,0,0:0:0:0:
64,0,46139,1,0,0:0:0:0:
64,0,46370,1,0,0:0:0:0:
192,0,46485,1,0,0:0:0:0:
448,0,46485,1,0,0:0:0:0:
64,0,46716,1,0,0:0:0:0:
320,0,46832,1,0,0:0:0:0:
448,192,46832,1,0,0:0:0:0:
192,192,46947,1,0,0:0:0:0:
64,192,46947,1,0,0:0:0:0:
320,192,47062,1,0,0:0:0:0:
448,192,47062,1,0,0:0:0:0:
192,192,47293,1,0,0:0:0:0:
320,192,47409,1,0,0:0:0:0:
64,0,47524,1,0,0:0:0:0:
448,192,47524,1,0,0:0:0:0:
192,192,47639,1,0,0:0:0:0:
448,0,47755,1,0,0:0:0:0:
320,192,47812,1,0,0:0:0:0:
192,192,47870,1,0,0:0:0:0:
448,0,47985,1,0,0:0:0:0:
64,192,47985,1,0,0:0:0:0:
64,192,48216,1,0,0:0:0:0:
448,0,48332,1,0,0:0:0:0:
192,192,48332,1,0,0:0:0:0:
320,0,48562,1,0,0:0:0:0:
192,0,48678,1,0,0:0:0:0:
448,0,48678,1,0,0:0:0:0:
64,0,48793,1,0,0:0:0:0:
192,0,48909,1,0,0:0:0:0:
320,0,48909,1,0,0:0:0:0:
64,0,49139,1,0,0:0:0:0:
320,0,49255,1,0,0:0:0:0:
192,0,49370,1,0,0:0:0:0:
448,0,49370,1,0,0:0:0:0:
320,0,49485,1,0,0:0:0:0:
64,0,49601,1,0,0:0:0:0:
448,0,49716,1,0,0:0:0:0:
64,0,49832,1,0,0:0:0:0:
192,0,49832,1,0,0:0:0:0:
448,0,50062,1,0,0:0:0:0:
64,0,50178,1,0,0:0:0:0:
320,0,50178,1,0,0:0:0:0:
192,0,50293,1,0,0:0:0:0:
320,0,50409,1,0,0:0:0:0:
448,0,50524,1,0,0:0:0:0:
64,0,50524,1,0,0:0:0:0:
192,0,50601,1,0,0:0:0:0:
320,0,50678,1,0,0:0:0:0:
448,0,50755,1,0,0:0:0:0:
192,0,50755,1,0,0:0:0:0:
64,0,50985,1,0,0:0:0:0:
320,0,51101,1,0,0:0:0:0:
448,0,51216,1,0,0:0:0:0:
192,0,51216,1,0,0:0:0:0:
64,0,51332,1,0,0:0:0:0:
320,0,51447,1,0,0:0:0:0:
448,192,51447,1,0,0:0:0:0:
192,0,51562,1,0,0:0:0:0:
448,0,51678,1,0,0:0:0:0:
64,192,51678,1,0,0:0:0:0:
320,192,51909,1,0,0:0:0:0:
192,0,52024,1,0,0:0:0:0:
64,0,52024,1,0,0:0:0:0:
64,0,52255,1,0,0:0:0:0:
320,0,52370,1,0,0:0:0:0:
448,0,52370,1,0,0:0:0:0:
192,0,52485,1,0,0:0:0:0:
64,0,52601,1,0,0:0:0:0:
320,0,52601,1,0,0:0:0:0:
448,0,52601,1,0,0:0:0:0:
192,0,52716,1,0,0:0:0:0:
448,0,52832,1,0,0:0:0:0:
192,0,52947,1,0,0:0:0:0:
64,0,52947,1,0,0:0:0:0:
320,0,53062,1,0,0:0:0:0:
448,0,53062,1,0,0:0:0:0:
64,0,53178,1,0,0:0:0:0:
192,0,53293,1,0,0:0:0:0:
320,0,53409,1,0,0:0:0:0:
448,0,53409,1,0,0:0:0:0:
192,0,53524,1,0,0:0:0:0:
64,0,53639,1,0,0:0:0:0:
320,0,53755,1,0,0:0:0:0:
448,0,53755,1,0,0:0:0:0:
192,0,53870,1,0,0:0:0:0:
64,0,53985,1,0,0:0:0:0:
320,0,53985,1,0,0:0:0:0:
448,0,54101,1,0,0:0:0:0:
192,0,54216,1,0,0:0:0:0:
320,0,54216,1,0,0:0:0:0:
64,0,54332,1,0,0:0:0:0:
192,0,54447,1,0,0:0:0:0:
448,0,54447,1,0,0:0:0:0:
320,0,54562,1,0,0:0:0:0:
64,0,54678,1,0,0:0:0:0:
192,0,54793,1,0,0:0:0:0:
320,0,54793,1,0,0:0:0:0:
64,0,54909,1,0,0:0:0:0:
448,0,54909,1,0,0:0:0:0:
192,0,55024,1,0,0:0:0:0:
320,0,55139,1,0,0:0:0:0:
64,0,55255,1,0,0:0:0:0:
448,0,55255,1,0,0:0:0:0:
192,0,55370,1,0,0:0:0:0:
320,0,55485,1,0,0:0:0:0:
192,0,55601,1,0,0:0:0:0:
448,0,55601,1,0,0:0:0:0:
64,0,55716,1,0,0:0:0:0:
320,0,55832,1,0,0:0:0:0:
192,0,55832,1,0,0:0:0:0:
448,0,55947,1,0,0:0:0:0:
64,0,56062,1,0,0:0:0:0:
192,0,56062,1,0,0:0:0:0:
448,0,56178,1,0,0:0:0:0:
320,0,56178,1,0,0:0:0:0:
64,0,56293,1,0,0:0:0:0:
192,0,56293,1,0,0:0:0:0:
320,0,56409,1,0,0:0:0:0:
448,0,56524,1,0,0:0:0:0:
192,0,56639,1,0,0:0:0:0:
64,0,56639,1,0,0:0:0:0:
320,0,56755,1,0,0:0:0:0:
448,0,56755,1,0,0:0:0:0:
192,0,56870,1,0,0:0:0:0:
320,0,56985,1,0,0:0:0:0:
64,0,57101,1,0,0:0:0:0:
448,0,57101,1,0,0:0:0:0:
192,0,57216,1,0,0:0:0:0:
320,192,57216,1,0,0:0:0:0:
448,192,57332,1,0,0:0:0:0:
192,0,57447,1,0,0:0:0:0:
64,192,57447,1,0,0:0:0:0:
320,192,57562,1,0,0:0:0:0:
448,0,57678,1,0,0:0:0:0:
192,192,57678,1,0,0:0:0:0:
64,192,57793,1,0,0:0:0:0:
320,0,57909,1,0,0:0:0:0:
448,192,57909,1,0,0:0:0:0:
192,192,58024,1,0,0:0:0:0:
64,0,58139,1,0,0:0:0:0:
448,192,58139,1,0,0:0:0:0:
320,0,58255,1,0,0:0:0:0:
192,0,58370,1,0,0:0:0:0:
448,0,58485,1,0,0:0:0:0:
320,0,58485,1,0,0:0:0:0:
192,0,58601,1,0,0:0:0:0:
64,0,58601,1,0,0:0:0:0:
448,0,58716,1,0,0:0:0:0:
320,0,58832,1,0,0:0:0:0:
64,0,58947,1,0,0:0:0:0:
192,0,58947,1,0,0:0:0:0:
320,0,59062,1,0,0:0:0:0:
448,192,59062,1,0,0:0:0:0:
64,192,59178,1,0,0:0:0:0:
192,0,59293,1,0,0:0:0:0:
320,0,59293,1,0,0:0:0:0:
64,0,59409,1,0,0:0:0:0:
320,0,59524,1,0,0:0:0:0:
448,0,59524,1,0,0:0:0:0:
192,0,59639,1,0,0:0:0:0:
320,0,59755,1,0,0:0:0:0:
448,0,59755,1,0,0:0:0:0:
64,0,59870,1,0,0:0:0:0:
192,0,59870,1,0,0:0:0:0:
64,0,59985,1,0,0:0:0:0:
448,0,59985,1,0,0:0:0:0:
320,0,60101,1,0,0:0:0:0:
192,0,60216,1,0,0:0:0:0:
448,0,60216,1,0,0:0:0:0:
64,0,60332,1,0,0:0:0:0:
320,0,60447,1,0,0:0:0:0:
192,0,60447,1,0,0:0:0:0:
64,0,60562,1,0,0:0:0:0:
448,0,60562,1,0,0:0:0:0:
192,0,60678,1,0,0:0:0:0:
448,0,60678,1,0,0:0:0:0:
320,0,60793,1,0,0:0:0:0:
64,0,60909,1,0,0:0:0:0:
448,0,60909,1,0,0:0:0:0:
192,0,61024,1,0,0:0:0:0:
64,0,61139,1,0,0:0:0:0:
320,0,61139,1,0,0:0:0:0:
448,0,61255,1,0,0:0:0:0:
320,0,61370,1,0,0:0:0:0:
192,0,61370,1,0,0:0:0:0:
448,0,61485,1,0,0:0:0:0:
64,192,61485,1,0,0:0:0:0:
320,0,61601,1,0,0:0:0:0:
64,0,61601,1,0,0:0:0:0:
448,0,61716,1,0,0:0:0:0:
320,0,61832,1,0,0:0:0:0:
192,0,61832,1,0,0:0:0:0:
64,0,61947,1,0,0:0:0:0:
448,0,62062,1,0,0:0:0:0:
320,0,62062,1,0,0:0:0:0:
192,0,62178,1,0,0:0:0:0:
64,0,62178,1,0,0:0:0:0:
320,0,62293,1,0,0:0:0:0:
448,0,62409,1,0,0:0:0:0:
64,192,62409,1,0,0:0:0:0:
64,0,62524,1,0,0:0:0:0:
192,0,62524,1,0,0:0:0:0:
448,0,62639,1,0,0:0:0:0:
192,0,62755,1,0,0:0:0:0:
320,0,62755,1,0,0:0:0:0:
64,0,62870,1,0,0:0:0:0:
320,0,62985,1,0,0:0:0:0:
448,0,62985,1,0,0:0:0:0:
64,192,63101,1,0,0:0:0:0:
320,192,63216,1,0,0:0:0:0:
448,192,63332,1,0,0:0:0:0:
192,192,63332,1,0,0:0:0:0:
64,0,63447,1,0,0:0:0:0:
192,192,63447,1,0,0:0:0:0:
448,0,63562,1,0,0:0:0:0:
320,192,63562,1,0,0:0:0:0:
64,0,63678,1,0,0:0:0:0:
192,192,63678,1,0,0:0:0:0:
320,192,63793,1,0,0:0:0:0:
192,0,63909,1,0,0:0:0:0:
448,0,63909,1,0,0:0:0:0:
64,0,64024,1,0,0:0:0:0:
320,0,64024,1,0,0:0:0:0:
448,0,64139,1,0,0:0:0:0:
64,0,64255,1,0,0:0:0:0:
192,0,64255,1,0,0:0:0:0:
448,0,64370,1,0,0:0:0:0:
192,192,64370,1,0,0:0:0:0:
320,192,64485,1,0,0:0:0:0:
64,192,64601,1,0,0:0:0:0:
448,192,64601,1,0,0:0:0:0:
192,192,64716,1,0,0:0:0:0:
448,192,64832,1,0,0:0:0:0:
320,192,64832,1,0,0:0:0:0:
64,192,64947,1,0,0:0:0:0:
192,192,64947,1,0,0:0:0:0:
320,192,65062,1,0,0:0:0:0:
64,0,65178,1,0,0:0:0:0:
448,0,65178,1,0,0:0:0:0:
192,0,65293,1,0,0:0:0:0:
448,192,65293,1,0,0:0:0:0:
64,0,65409,1,0,0:0:0:0:
448,0,65524,1,0,0:0:0:0:
320,192,65524,1,0,0:0:0:0:
192,192,65639,1,0,0:0:0:0:
64,0,65755,1,0,0:0:0:0:
320,192,65755,1,0,0:0:0:0:
448,0,65870,1,0,0:0:0:0:
192,192,65870,1,0,0:0:0:0:
320,192,65985,1,0,0:0:0:0:
64,0,66101,1,0,0:0:0:0:
192,192,66101,1,0,0:0:0:0:
448,192,66216,1,0,0:0:0:0:
192,192,66216,1,0,0:0:0:0:
320,192,66332,1,0,0:0:0:0:
64,0,66447,1,0,0:0:0:0:
448,192,66447,1,0,0:0:0:0:
192,192,66562,1,0,0:0:0:0:
448,0,66678,1,0,0:0:0:0:
320,192,66678,1,0,0:0:0:0:
192,0,66793,1,0,0:0:0:0:
64,0,66909,1,0,0:0:0:0:
448,192,66909,1,0,0:0:0:0:
192,192,66966,1,0,0:0:0:0:
320,192,67024,1,0,0:0:0:0:
448,192,67082,1,0,0:0:0:0:
192,0,67139,1,0,0:0:0:0:
64,192,67139,1,0,0:0:0:0:
448,0,67255,1,0,0:0:0:0:
64,0,67255,1,0,0:0:0:0:
320,0,67370,1,0,0:0:0:0:
192,0,67370,1,0,0:0:0:0:
448,0,67485,1,0,0:0:0:0:
64,0,67601,1,0,0:0:0:0:
192,0,67601,1,0,0:0:0:0:
320,0,67716,1,0,0:0:0:0:
448,0,67832,1,0,0:0:0:0:
192,0,67832,1,0,0:0:0:0:
320,0,67947,1,0,0:0:0:0:
64,0,67947,1,0,0:0:0:0:
448,0,68062,1,0,0:0:0:0:
64,192,68062,1,0,0:0:0:0:
320,192,68178,1,0,0:0:0:0:
192,192,68293,1,0,0:0:0:0:
64,192,68293,1,0,0:0:0:0:
448,192,68409,1,0,0:0:0:0:
192,0,68524,1,0,0:0:0:0:
320,0,68524,1,0,0:0:0:0:
64,192,68639,1,0,0:0:0:0:
448,192,68755,1,0,0:0:0:0:
320,192,68755,1,0,0:0:0:0:
192,0,68870,1,0,0:0:0:0:
448,192,68870,1,0,0:0:0:0:
320,0,68985,1,0,0:0:0:0:
64,192,68985,1,0,0:0:0:0:
448,192,69101,1,0,0:0:0:0:
192,0,69216,1,0,0:0:0:0:
64,192,69216,1,0,0:0:0:0:
320,192,69332,1,0,0:0:0:0:
64,0,69447,1,0,0:0:0:0:
448,192,69447,1,0,0:0:0:0:
320,0,69562,1,0,0:0:0:0:
192,192,69562,1,0,0:0:0:0:
448,192,69678,1,0,0:0:0:0:
320,0,69793,1,0,0:0:0:0:
64,192,69793,1,0,0:0:0:0:
64,0,69909,1,0,0:0:0:0:
192,0,69909,1,0,0:0:0:0:
320,0,70024,1,0,0:0:0:0:
64,0,70139,1,0,0:0:0:0:
448,0,70139,1,0,0:0:0:0:
192,0,70255,1,0,0:0:0:0:
320,0,70370,1,0,0:0:0:0:
448,0,70370,1,0,0:0:0:0:
64,0,70485,1,0,0:0:0:0:
192,0,70601,1,0,0:0:0:0:
64,0,70716,1,0,0:0:0:0:
448,192,70716,1,0,0:0:0:0:
448,0,70832,1,0,0:0:0:0:
320,192,70832,1,0,0:0:0:0:
64,0,70947,1,0,0:0:0:0:
192,192,70947,1,0,0:0:0:0:
448,0,71062,1,0,0:0:0:0:
320,192,71062,1,0,0:0:0:0:
192,192,71178,1,0,0:0:0:0:
64,0,71293,1,0,0:0:0:0:
448,0,71293,1,0,0:0:0:0:
192,0,71409,1,0,0:0:0:0:
320,0,71409,1,0,0:0:0:0:
64,0,71524,1,0,0:0:0:0:
448,0,71639,1,0,0:0:0:0:
320,0,71639,1,0,0:0:0:0:
64,0,71755,1,0,0:0:0:0:
320,192,71755,1,0,0:0:0:0:
192,192,71870,1,0,0:0:0:0:
448,0,71985,1,0,0:0:0:0:
320,192,71985,1,0,0:0:0:0:
64,192,72101,1,0,0:0:0:0:
320,0,72216,1,0,0:0:0:0:
192,192,72216,1,0,0:0:0:0:
448,0,72332,1,0,0:0:0:0:
64,192,72332,1,0,0:0:0:0:
320,0,72447,1,0,0:0:0:0:
64,0,72562,1,0,0:0:0:0:
192,0,72562,1,0,0:0:0:0:
448,0,72678,1,0,0:0:0:0:
192,192,72678,1,0,0:0:0:0:
320,192,72793,1,0,0:0:0:0:
64,192,72909,1,0,0:0:0:0:
192,192,72909,1,0,0:0:0:0:
320,192,73024,1,0,0:0:0:0:
448,192,73024,1,0,0:0:0:0:
64,192,73139,1,0,0:0:0:0:
192,192,73139,1,0,0:0:0:0:
448,192,73255,1,0,0:0:0:0:
320,0,73370,1,0,0:0:0:0:
448,0,73485,1,0,0:0:0:0:
192,0,73485,1,0,0:0:0:0:
64,0,73601,1,0,0:0:0:0:
448,192,73601,1,0,0:0:0:0:
192,0,73716,1,0,0:0:0:0:
320,0,73832,1,0,0:0:0:0:
448,0,73832,1,0,0:0:0:0:
192,0,73889,1,0,0:0:0:0:
64,0,73947,1,0,0:0:0:0:
448,0,74005,1,0,0:0:0:0:
192,0,74062,1,0,0:0:0:0:
320,0,74062,1,0,0:0:0:0:
64,0,74120,1,0,0:0:0:0:
448,0,74178,1,0,0:0:0:0:
320,0,74235,1,0,0:0:0:0:
192,0,74293,1,0,0:0:0:0:
64,0,74293,1,0,0:0:0:0:
64,0,74409,1,0,0:0:0:0:
192,192,74409,1,0,0:0:0:0:
320,0,74524,1,0,0:0:0:0:
448,0,74524,1,0,0:0:0:0:
320,192,74639,1,0,0:0:0:0:
448,192,74639,1,0,0:0:0:0:
64,0,74755,1,0,0:0:0:0:
448,0,74755,1,0,0:0:0:0:
192,0,74870,1,0,0:0:0:0:
64,0,74985,1,0,0:0:0:0:
320,0,74985,1,0,0:0:0:0:
448,0,75043,1,0,0:0:0:0:
192,0,75101,1,0,0:0:0:0:
64,0,75159,1,0,0:0:0:0:
320,0,75216,1,0,0:0:0:0:
448,0,75274,1,0,0:0:0:0:
64,0,75332,1,0,0:0:0:0:
192,0,75332,1,0,0:0:0:0:
320,0,75447,1,0,0:0:0:0:
192,0,75562,1,0,0:0:0:0:
448,0,75562,1,0,0:0:0:0:
64,0,75620,1,0,0:0:0:0:
320,0,75678,1,0,0:0:0:0:
192,0,75735,1,0,0:0:0:0:
448,0,75793,1,0,0:0:0:0:
320,0,75851,1,0,0:0:0:0:
64,0,75909,1,0,0:0:0:0:
192,0,75909,1,0,0:0:0:0:
320,0,76024,1,0,0:0:0:0:
64,0,76139,1,0,0:0:0:0:
448,0,76139,1,0,0:0:0:0:
192,0,76255,1,0,0:0:0:0:
320,0,76370,1,0,0:0:0:0:
448,0,76370,1,0,0:0:0:0:
64,0,76485,1,0,0:0:0:0:
192,0,76601,1,0,0:0:0:0:
320,0,76601,1,0,0:0:0:0:
448,0,76716,1,0,0:0:0:0:
64,0,76832,1,0,0:0:0:0:
320,0,76832,1,0,0:0:0:0:
192,0,76947,1,0,0:0:0:0:
320,0,77062,1,0,0:0:0:0:
448,0,77062,1,0,0:0:0:0:
64,0,77178,1,0,0:0:0:0:
192,0,77178,1,0,0:0:0:0:
320,0,77293,1,0,0:0:0:0:
192,0,77409,1,0,0:0:0:0:
448,0,77409,1,0,0:0:0:0:
64,0,77524,1,0,0:0:0:0:
320,0,77639,1,0,0:0:0:0:
448,0,77639,1,0,0:0:0:0:
64,0,77755,1,0,0:0:0:0:
192,0,77755,1,0,0:0:0:0:
320,0,77812,1,0,0:0:0:0:
448,0,77812,1,0,0:0:0:0:
64,0,77870,1,0,0:0:0:0:
192,0,77870,1,0,0:0:0:0:
320,0,77928,1,0,0:0:0:0:
448,0,77928,1,0,0:0:0:0:
64,0,77985,1,0,0:0:0:0:
192,0,77985,1,0,0:0:0:0:
320,0,78101,1,0,0:0:0:0:
192,0,78216,1,0,0:0:0:0:
448,192,78332,1,0,0:0:0:0:
320,0,78447,1,0,0:0:0:0:
64,192,78447,1,0,0:0:0:0:
192,192,78562,1,0,0:0:0:0:
320,0,78678,1,0,0:0:0:0:
448,0,78678,1,0,0:0:0:0:
192,0,78735,1,0,0:0:0:0:
64,0,78793,1,0,0:0:0:0:
448,0,78851,1,0,0:0:0:0:
320,0,78909,1,0,0:0:0:0:
64,0,78966,1,0,0:0:0:0:
192,0,79024,1,0,0:0:0:0:
320,0,79024,1,0,0:0:0:0:
448,0,79139,1,0,0:0:0:0:
64,0,79255,1,0,0:0:0:0:
192,0,79255,1,0,0:0:0:0:
320,0,79312,1,0,0:0:0:0:
448,0,79370,1,0,0:0:0:0:
64,0,79428,1,0,0:0:0:0:
192,0,79485,1,0,0:0:0:0:
320,0,79543,1,0,0:0:0:0:
64,0,79601,1,0,0:0:0:0:
448,0,79601,1,0,0:0:0:0:
320,0,79716,1,0,0:0:0:0:
64,0,79832,1,0,0:0:0:0:
192,0,79832,1,0,0:0:0:0:
448,0,79947,1,0,0:0:0:0:
320,0,80062,1,0,0:0:0:0:
192,0,80062,1,0,0:0:0:0:
64,0,80178,1,0,0:0:0:0:
320,0,80293,1,0,0:0:0:0:
448,0,80293,1,0,0:0:0:0:
192,0,80351,1,0,0:0:0:0:
64,0,80409,1,0,0:0:0:0:
320,0,80466,1,0,0:0:0:0:
448,0,80524,1,0,0:0:0:0:
192,0,80582,1,0,0:0:0:0:
320,0,80639,1,0,0:0:0:0:
64,0,80697,1,0,0:0:0:0:
192,0,80755,1,0,0:0:0:0:
448,0,80870,1,0,0:0:0:0:
192,0,80985,1,0,0:0:0:0:
320,192,80985,1,0,0:0:0:0:
64,0,81101,1,0,0:0:0:0:
192,0,81216,1,0,0:0:0:0:
448,0,81216,1,0,0:0:0:0:
64,0,81274,1,0,0:0:0:0:
448,0,81332,1,0,0:0:0:0:
320,0,81389,1,0,0:0:0:0:
64,0,81447,1,0,0:0:0:0:
192,0,81447,1,0,0:0:0:0:
320,0,81562,1,0,0:0:0:0:
448,0,81562,1,0,0:0:0:0:
64,0,81620,1,0,0:0:0:0:
192,0,81678,1,0,0:0:0:0:
320,0,81735,1,0,0:0:0:0:
448,0,81793,1,0,0:0:0:0:
64,0,81851,1,0,0:0:0:0:
192,0,81909,1,0,0:0:0:0:
320,0,81909,1,0,0:0:0:0:
448,0,82024,1,0,0:0:0:0:
64,0,82139,1,0,0:0:0:0:
192,0,82139,1,0,0:0:0:0:
320,0,82197,1,0,0:0:0:0:
448,0,82255,1,0,0:0:0:0:
192,0,82312,1,0,0:0:0:0:
64,0,82370,1,0,0:0:0:0:
448,0,82428,1,0,0:0:0:0:
192,0,82485,1,0,0:0:0:0:
320,0,82485,1,0,0:0:0:0:
64,0,82601,1,0,0:0:0:0:
448,0,82716,1,0,0:0:0:0:
64,0,82832,1,0,0:0:0:0:
192,0,82832,1,0,0:0:0:0:
320,0,82947,1,0,0:0:0:0:
192,0,83062,1,0,0:0:0:0:
448,0,83062,1,0,0:0:0:0:
64,0,83120,1,0,0:0:0:0:
448,0,83178,1,0,0:0:0:0:
320,0,83235,1,0,0:0:0:0:
64,0,83293,1,0,0:0:0:0:
192,0,83351,1,0,0:0:0:0:
320,0,83409,1,0,0:0:0:0:
448,0,83409,1,0,0:0:0:0:
64,0,83524,1,0,0:0:0:0:
320,0,83639,1,0,0:0:0:0:
192,0,83755,1,0,0:0:0:0:
448,0,83755,1,0,0:0:0:0:
64,0,83870,1,0,0:0:0:0:
320,0,83985,1,0,0:0:0:0:
448,0,83985,1,0,0:0:0:0:
64,0,84043,1,0,0:0:0:0:
192,0,84101,1,0,0:0:0:0:
320,192,84159,1,0,0:0:0:0:
448,0,84216,1,0,0:0:0:0:
64,192,84216,1,0,0:0:0:0:
192,0,84332,1,0,0:0:0:0:
320,0,84447,1,0,0:0:0:0:
448,0,84447,1,0,0:0:0:0:
192,0,84505,1,0,0:0:0:0:
64,0,84562,1,0,0:0:0:0:
448,0,84620,1,0,0:0:0:0:
320,0,84678,1,0,0:0:0:0:
192,0,84678,1,0,0:0:0:0:
64,0,84793,1,0,0:0:0:0:
192,0,84851,1,0,0:0:0:0:
320,0,84909,1,0,0:0:0:0:
448,0,84909,1,0,0:0:0:0:
64,0,85024,1,0,0:0:0:0:
192,0,85082,1,0,0:0:0:0:
320,0,85139,1,0,0:0:0:0:
64,0,85255,1,0,0:0:0:0:
192,0,85255,1,0,0:0:0:0:
448,0,85370,1,0,0:0:0:0:
320,0,85428,1,0,0:0:0:0:
192,0,85485,1,0,0:0:0:0:
64,0,85601,1,0,0:0:0:0:
320,0,85601,1,0,0:0:0:0:
192,0,85716,1,0,0:0:0:0:
320,0,85832,1,0,0:0:0:0:
448,0,85832,1,0,0:0:0:0:
64,0,85889,1,0,0:0:0:0:
192,0,85947,1,0,0:0:0:0:
448,0,86005,1,0,0:0:0:0:
64,0,86062,1,0,0:0:0:0:
192,0,86120,1,0,0:0:0:0:
448,0,86178,1,0,0:0:0:0:
320,0,86178,1,0,0:0:0:0:
192,0,86293,1,0,0:0:0:0:
320,0,86409,1,0,0:0:0:0:
448,0,86524,1,0,0:0:0:0:
64,0,86524,1,0,0:0:0:0:
192,0,86639,1,0,0:0:0:0:
448,0,86755,1,0,0:0:0:0:
320,0,86755,1,0,0:0:0:0:
64,0,86812,1,0,0:0:0:0:
192,0,86870,1,0,0:0:0:0:
448,0,86928,1,0,0:0:0:0:
64,0,86985,1,0,0:0:0:0:
320,0,86985,1,0,0:0:0:0:
192,0,87101,1,0,0:0:0:0:
320,0,87216,1,0,0:0:0:0:
448,0,87216,1,0,0:0:0:0:
192,0,87274,1,0,0:0:0:0:
64,0,87332,1,0,0:0:0:0:
448,0,87389,1,0,0:0:0:0:
320,0,87447,1,0,0:0:0:0:
192,0,87447,1,0,0:0:0:0:
64,0,87562,1,0,0:0:0:0:
448,0,87562,1,0,0:0:0:0:
320,0,87678,1,0,0:0:0:0:
192,0,87678,1,0,0:0:0:0:
64,0,87793,1,0,0:0:0:0:
320,0,87909,1,0,0:0:0:0:
448,0,87909,1,0,0:0:0:0:
64,0,88024,1,0,0:0:0:0:
192,0,88139,1,0,0:0:0:0:
320,0,88139,1,0,0:0:0:0:
448,0,88255,1,0,0:0:0:0:
64,0,88370,1,0,0:0:0:0:
320,0,88370,1,0,0:0:0:0:
192,0,88485,1,0,0:0:0:0:
320,0,88601,1,0,0:0:0:0:
448,0,88601,1,0,0:0:0:0:
192,0,88659,1,0,0:0:0:0:
64,192,88659,1,0,0:0:0:0:
320,192,88716,1,0,0:0:0:0:
448,192,88716,1,0,0:0:0:0:
192,192,88774,1,0,0:0:0:0:
64,192,88774,1,0,0:0:0:0:
320,0,88832,1,0,0:0:0:0:
448,192,88832,1,0,0:0:0:0:
64,0,88947,1,0,0:0:0:0:
192,192,88947,1,0,0:0:0:0:
320,192,89005,1,0,0:0:0:0:
448,192,89005,1,0,0:0:0:0:
64,192,89062,1,0,0:0:0:0:
192,192,89062,1,0,0:0:0:0:
448,0,89178,1,0,0:0:0:0:
320,0,89178,1,0,0:0:0:0:
192,0,89293,1,0,0:0:0:0:
64,0,89293,1,0,0:0:0:0:
320,0,89409,1,0,0:0:0:0:
448,0,89409,1,0,0:0:0:0:
64,0,89524,1,0,0:0:0:0:
448,0,89524,1,0,0:0:0:0:
320,0,89870,1,0,0:0:0:0:
448,0,89870,1,0,0:0:0:0:
192,192,89985,1,0,0:0:0:0:
320,0,90101,1,0,0:0:0:0:
448,0,90101,1,0,0:0:0:0:
64,0,90332,1,0,0:0:0:0:
192,0,90332,1,0,0:0:0:0:
448,0,90447,1,0,0:0:0:0:
64,0,90562,1,0,0:0:0:0:
192,0,90562,1,0,0:0:0:0:
64,0,90678,1,0,0:0:0:0:
192,0,90678,1,0,0:0:0:0:
320,0,90793,1,0,0:0:0:0:
64,0,90909,1,0,0:0:0:0:
448,0,90909,1,0,0:0:0:0:
192,0,91139,1,0,0:0:0:0:
320,0,91139,1,0,0:0:0:0:
64,0,91370,1,0,0:0:0:0:
448,0,91370,1,0,0:0:0:0:
320,0,91716,1,0,0:0:0:0:
448,0,91716,1,0,0:0:0:0:
192,0,91832,1,0,0:0:0:0:
64,0,91947,1,0,0:0:0:0:
448,0,91947,1,0,0:0:0:0:
64,0,92178,1,0,0:0:0:0:
192,0,92178,1,0,0:0:0:0:
448,0,92293,1,0,0:0:0:0:
192,0,92524,1,0,0:0:0:0:
448,0,92639,1,0,0:0:0:0:
64,0,92755,1,0,0:0:0:0:
320,0,92755,1,0,0:0:0:0:
192,0,92870,1,0,0:0:0:0:
320,0,92985,1,0,0:0:0:0:
448,0,93101,1,0,0:0:0:0:
64,0,93216,1,0,0:0:0:0:
192,0,93216,1,0,0:0:0:0:
64,0,93562,1,0,0:0:0:0:
192,0,93562,1,0,0:0:0:0:
320,0,93678,1,0,0:0:0:0:
192,0,93793,1,0,0:0:0:0:
64,0,93793,1,0,0:0:0:0:
320,0,94024,1,0,0:0:0:0:
448,0,94024,1,0,0:0:0:0:
192,0,94139,1,0,0:0:0:0:
320,0,94255,1,0,0:0:0:0:
448,0,94255,1,0,0:0:0:0:
320,0,94370,1,0,0:0:0:0:
448,0,94370,1,0,0:0:0:0:
192,0,94485,1,0,0:0:0:0:
64,0,94601,1,0,0:0:0:0:
448,0,94601,1,0,0:0:0:0:
192,0,94947,1,0,0:0:0:0:
320,0,94947,1,0,0:0:0:0:
64,0,95062,1,0,0:0:0:0:
320,0,95293,1,0,0:0:0:0:
448,0,95409,1,0,0:0:0:0:
192,0,95524,1,0,0:0:0:0:
320,0,95524,1,0,0:0:0:0:
64,0,95639,1,0,0:0:0:0:
448,0,95755,1,0,0:0:0:0:
320,0,95870,1,0,0:0:0:0:
192,0,95985,1,0,0:0:0:0:
64,0,95985,1,0,0:0:0:0:
192,0,96216,1,0,0:0:0:0:
64,0,96216,1,0,0:0:0:0:
320,0,96418,1,0,0:0:0:0:
192,0,96447,1,0,0:0:0:0:
448,0,96447,1,0,0:0:0:0:
64,0,96562,1,0,0:0:0:0:
320,0,96678,1,0,0:0:0:0:
192,0,96793,1,0,0:0:0:0:
64,0,96909,1,0,0:0:0:0:
448,0,96909,1,0,0:0:0:0:
64,0,97255,1,0,0:0:0:0:
448,0,97255,1,0,0:0:0:0:
320,0,97370,1,0,0:0:0:0:
64,0,97485,1,0,0:0:0:0:
192,0,97485,1,0,0:0:0:0:
320,0,97716,1,0,0:0:0:0:
448,0,97716,1,0,0:0:0:0:
192,0,97832,1,0,0:0:0:0:
320,0,97947,1,0,0:0:0:0:
448,0,97947,1,0,0:0:0:0:
320,0,98062,1,0,0:0:0:0:
448,0,98062,1,0,0:0:0:0:
64,0,98178,1,0,0:0:0:0:
320,0,98293,1,0,0:0:0:0:
448,0,98293,1,0,0:0:0:0:
64,0,98524,1,0,0:0:0:0:
448,0,98524,1,0,0:0:0:0:
64,0,98755,1,0,0:0:0:0:
192,0,98755,1,0,0:0:0:0:
64,0,99101,1,0,0:0:0:0:
192,0,99101,1,0,0:0:0:0:
448,0,99216,1,0,0:0:0:0:
192,0,99332,1,0,0:0:0:0:
320,0,99332,1,0,0:0:0:0:
64,0,99447,1,0,0:0:0:0:
320,0,99562,1,0,0:0:0:0:
448,0,99562,1,0,0:0:0:0:
192,192,99678,1,0,0:0:0:0:
320,0,99909,1,0,0:0:0:0:
448,0,100024,1,0,0:0:0:0:
64,0,100139,1,0,0:0:0:0:
320,0,100139,1,0,0:0:0:0:
192,0,100255,1,0,0:0:0:0:
320,0,100370,1,0,0:0:0:0:
448,0,100485,1,0,0:0:0:0:
64,0,100601,1,0,0:0:0:0:
192,0,100601,1,0,0:0:0:0:
64,0,100832,1,0,0:0:0:0:
320,0,100832,1,0,0:0:0:0:
448,0,100947,1,0,0:0:0:0:
192,0,100947,1,0,0:0:0:0:
320,192,101062,1,0,0:0:0:0:
64,0,101178,1,0,0:0:0:0:
192,192,101178,1,0,0:0:0:0:
320,192,101293,1,0,0:0:0:0:
448,0,101409,1,0,0:0:0:0:
64,192,101409,1,0,0:0:0:0:
192,0,101524,1,0,0:0:0:0:
448,0,101639,1,0,0:0:0:0:
320,192,101639,1,0,0:0:0:0:
64,192,101755,1,0,0:0:0:0:
448,0,101870,1,0,0:0:0:0:
192,192,101870,1,0,0:0:0:0:
320,0,101985,1,0,0:0:0:0:
64,0,102101,1,0,0:0:0:0:
192,192,102101,1,0,0:0:0:0:
448,192,102216,1,0,0:0:0:0:
320,192,102332,1,0,0:0:0:0:
64,0,102447,1,0,0:0:0:0:
192,0,102447,1,0,0:0:0:0:
320,0,102562,1,0,0:0:0:0:
448,0,102562,1,0,0:0:0:0:
64,0,102678,1,0,0:0:0:0:
192,0,102678,1,0,0:0:0:0:
320,0,102793,1,0,0:0:0:0:
448,0,102793,1,0,0:0:0:0:
64,0,102909,1,0,0:0:0:0:
192,0,102909,1,0,0:0:0:0:
320,0,103024,1,0,0:0:0:0:
448,0,103024,1,0,0:0:0:0:
64,0,103139,1,0,0:0:0:0:
192,0,103139,1,0,0:0:0:0:
320,0,103255,1,0,0:0:0:0:
448,0,103255,1,0,0:0:0:0:
64,0,103370,1,0,0:0:0:0:
192,0,103428,1,0,0:0:0:0:
320,0,103485,1,0,0:0:0:0:
448,0,103543,1,0,0:0:0:0:
64,0,103601,1,0,0:0:0:0:
192,0,103659,1,0,0:0:0:0:
320,0,103716,1,0,0:0:0:0:
448,0,103774,1,0,0:0:0:0:
64,0,103832,1,0,0:0:0:0:
192,0,103889,1,0,0:0:0:0:
448,0,103947,1,0,0:0:0:0:
320,0,104005,1,0,0:0:0:0:
64,0,104062,128,0,104293:0:0:0:0:
448,0,104293,1,0,0:0:0:0:
192,0,104524,1,0,0:0:0:0:
320,0,104524,1,0,0:0:0:0:
448,0,104582,1,0,0:0:0:0:
64,0,104639,1,0,0:0:0:0:
192,0,104697,1,0,0:0:0:0:
320,0,104755,1,0,0:0:0:0:
64,0,104812,1,0,0:0:0:0:
192,0,104870,1,0,0:0:0:0:
448,0,104870,1,0,0:0:0:0:
320,0,104985,1,0,0:0:0:0:
64,0,105101,1,0,0:0:0:0:
192,0,105101,1,0,0:0:0:0:
448,0,105159,1,0,0:0:0:0:
320,0,105216,1,0,0:0:0:0:
192,0,105274,1,0,0:0:0:0:
64,0,105332,1,0,0:0:0:0:
448,0,105389,1,0,0:0:0:0:
192,0,105447,1,0,0:0:0:0:
320,0,105447,1,0,0:0:0:0:
64,0,105562,1,0,0:0:0:0:
192,0,105678,1,0,0:0:0:0:
448,0,105678,1,0,0:0:0:0:
320,0,105793,1,0,0:0:0:0:
64,0,105909,1,0,0:0:0:0:
192,0,105909,1,0,0:0:0:0:
320,0,106024,1,0,0:0:0:0:
64,0,106139,1,0,0:0:0:0:
448,0,106139,1,0,0:0:0:0:
192,0,106197,1,0,0:0:0:0:
320,0,106255,1,0,0:0:0:0:
448,0,106312,1,0,0:0:0:0:
64,0,106370,1,0,0:0:0:0:
192,0,106428,1,0,0:0:0:0:
448,0,106485,1,0,0:0:0:0:
320,0,106485,1,0,0:0:0:0:
192,0,106601,1,0,0:0:0:0:
64,0,106716,1,0,0:0:0:0:
448,0,106716,1,0,0:0:0:0:
192,0,106832,1,0,0:0:0:0:
320,0,106947,1,0,0:0:0:0:
448,0,106947,1,0,0:0:0:0:
64,0,107005,1,0,0:0:0:0:
192,0,107062,1,0,0:0:0:0:
448,0,107120,1,0,0:0:0:0:
320,0,107178,1,0,0:0:0:0:
64,0,107235,1,0,0:0:0:0:
448,0,107293,1,0,0:0:0:0:
192,0,107351,1,0,0:0:0:0:
64,0,107409,1,0,0:0:0:0:
448,0,107466,1,0,0:0:0:0:
192,0,107524,1,0,0:0:0:0:
320,0,107524,1,0,0:0:0:0:
64,0,107639,1,0,0:0:0:0:
192,0,107755,1,0,0:0:0:0:
320,0,107870,1,0,0:0:0:0:
64,0,107985,1,0,0:0:0:0:
448,0,107985,1,0,0:0:0:0:
192,0,108043,1,0,0:0:0:0:
320,0,108101,1,0,0:0:0:0:
64,0,108159,1,0,0:0:0:0:
448,0,108216,1,0,0:0:0:0:
320,0,108274,1,0,0:0:0:0:
64,0,108332,1,0,0:0:0:0:
192,0,108332,1,0,0:0:0:0:
320,0,108447,1,0,0:0:0:0:
192,0,108562,1,0,0:0:0:0:
448,0,108562,1,0,0:0:0:0:
64,0,108678,1,0,0:0:0:0:
320,0,108793,1,0,0:0:0:0:
448,0,108793,1,0,0:0:0:0:
192,0,108851,1,0,0:0:0:0:
64,0,108909,1,0,0:0:0:0:
448,0,108966,1,0,0:0:0:0:
192,0,109024,1,0,0:0:0:0:
64,0,109082,1,0,0:0:0:0:
320,0,109139,1,0,0:0:0:0:
448,0,109139,1,0,0:0:0:0:
192,0,109255,1,0,0:0:0:0:
64,0,109370,1,0,0:0:0:0:
320,0,109370,1,0,0:0:0:0:
448,0,109485,1,0,0:0:0:0:
64,0,109601,1,0,0:0:0:0:
192,0,109716,1,0,0:0:0:0:
320,0,109716,1,0,0:0:0:0:
64,0,109832,1,0,0:0:0:0:
448,0,109832,1,0,0:0:0:0:
192,0,109889,1,0,0:0:0:0:
320,0,109947,1,0,0:0:0:0:
448,0,110005,1,0,0:0:0:0:
64,0,110062,1,0,0:0:0:0:
192,0,110120,1,0,0:0:0:0:
448,0,110178,1,0,0:0:0:0:
64,0,110235,1,0,0:0:0:0:
320,0,110293,1,0,0:0:0:0:
192,0,110351,1,0,0:0:0:0:
64,0,110409,1,0,0:0:0:0:
448,0,110466,1,0,0:0:0:0:
320,0,110524,1,0,0:0:0:0:
192,0,110582,1,0,0:0:0:0:
64,0,110639,1,0,0:0:0:0:
320,0,110697,1,0,0:0:0:0:
192,0,110755,1,0,0:0:0:0:
448,0,110755,1,0,0:0:0:0:
192,0,110985,1,0,0:0:0:0:
448,0,110985,1,0,0:0:0:0:
64,0,111216,1,0,0:0:0:0:
448,0,111216,1,0,0:0:0:0:
320,0,111274,1,0,0:0:0:0:
192,0,111332,1,0,0:0:0:0:
64,0,111389,1,0,0:0:0:0:
320,0,111447,1,0,0:0:0:0:
448,0,111447,1,0,0:0:0:0:
192,0,111562,1,0,0:0:0:0:
64,0,111678,1,0,0:0:0:0:
448,0,111678,1,0,0:0:0:0:
192,0,111735,1,0,0:0:0:0:
320,0,111793,1,0,0:0:0:0:
64,0,111851,1,0,0:0:0:0:
448,0,111909,1,0,0:0:0:0:
320,0,111966,1,0,0:0:0:0:
64,0,112024,1,0,0:0:0:0:
192,0,112024,1,0,0:0:0:0:
320,0,112139,1,0,0:0:0:0:
64,0,112255,1,0,0:0:0:0:
448,0,112255,1,0,0:0:0:0:
192,0,112370,1,0,0:0:0:0:
320,0,112485,1,0,0:0:0:0:
448,0,112485,1,0,0:0:0:0:
192,0,112543,1,0,0:0:0:0:
64,0,112601,1,0,0:0:0:0:
448,0,112659,1,0,0:0:0:0:
320,0,112716,1,0,0:0:0:0:
192,0,112774,1,0,0:0:0:0:
64,0,112832,1,0,0:0:0:0:
448,0,112832,1,0,0:0:0:0:
320,0,112947,1,0,0:0:0:0:
64,0,113062,1,0,0:0:0:0:
192,0,113062,1,0,0:0:0:0:
320,0,113178,1,0,0:0:0:0:
192,0,113293,1,0,0:0:0:0:
448,0,113293,1,0,0:0:0:0:
64,0,113409,1,0,0:0:0:0:
192,0,113524,1,0,0:0:0:0:
320,0,113524,1,0,0:0:0:0:
448,0,113582,1,0,0:0:0:0:
64,0,113639,1,0,0:0:0:0:
192,0,113697,1,0,0:0:0:0:
320,0,113755,1,0,0:0:0:0:
64,0,113812,1,0,0:0:0:0:
192,0,113870,1,0,0:0:0:0:
448,0,113870,1,0,0:0:0:0:
320,0,113985,1,0,0:0:0:0:
64,0,114101,1,0,0:0:0:0:
192,0,114101,1,0,0:0:0:0:
448,0,114216,1,0,0:0:0:0:
192,0,114332,1,0,0:0:0:0:
320,0,114332,1,0,0:0:0:0:
64,0,114389,1,0,0:0:0:0:
448,0,114447,1,0,0:0:0:0:
320,0,114505,1,0,0:0:0:0:
192,0,114562,1,0,0:0:0:0:
448,0,114620,1,0,0:0:0:0:
320,0,114678,1,0,0:0:0:0:
64,0,114735,1,0,0:0:0:0:
192,0,114793,1,0,0:0:0:0:
320,0,114851,1,0,0:0:0:0:
64,0,114909,1,0,0:0:0:0:
448,0,114909,1,0,0:0:0:0:
192,0,115024,1,0,0:0:0:0:
320,0,115139,1,0,0:0:0:0:
448,0,115255,1,0,0:0:0:0:
64,0,115370,1,0,0:0:0:0:
192,0,115370,1,0,0:0:0:0:
448,0,115428,1,0,0:0:0:0:
320,0,115485,1,0,0:0:0:0:
192,0,115543,1,0,0:0:0:0:
64,0,115601,1,0,0:0:0:0:
448,0,115601,1,0,0:0:0:0:
192,0,115716,1,0,0:0:0:0:
320,0,115716,1,0,0:0:0:0:
64,0,115832,1,0,0:0:0:0:
320,0,115947,1,0,0:0:0:0:
448,0,115947,1,0,0:0:0:0:
64,0,116062,1,0,0:0:0:0:
192,0,116178,1,0,0:0:0:0:
320,0,116178,1,0,0:0:0:0:
64,0,116293,1,0,0:0:0:0:
448,0,116293,1,0,0:0:0:0:
192,0,116351,1,0,0:0:0:0:
320,0,116409,1,0,0:0:0:0:
64,0,116466,1,0,0:0:0:0:
448,0,116524,1,0,0:0:0:0:
192,0,116582,1,0,0:0:0:0:
320,0,116639,1,0,0:0:0:0:
448,0,116697,1,0,0:0:0:0:
192,0,116755,1,0,0:0:0:0:
64,0,116812,1,0,0:0:0:0:
448,0,116870,1,0,0:0:0:0:
320,0,116928,1,0,0:0:0:0:
192,0,116985,1,0,0:0:0:0:
64,0,117043,1,0,0:0:0:0:
448,0,117101,1,0,0:0:0:0:
320,0,117159,1,0,0:0:0:0:
64,0,117216,1,0,0:0:0:0:
192,0,117216,1,0,0:0:0:0:
448,0,117216,1,0,0:0:0:0:
320,0,117274,1,0,0:0:0:0:
192,0,117332,1,0,0:0:0:0:
64,0,117389,1,0,0:0:0:0:
320,0,117447,1,0,0:0:0:0:
448,0,117505,1,0,0:0:0:0:
64,0,117562,1,0,0:0:0:0:
192,0,117562,1,0,0:0:0:0:
448,0,117678,1,0,0:0:0:0:
192,0,117793,1,0,0:0:0:0:
320,0,117793,1,0,0:0:0:0:
64,0,117909,1,0,0:0:0:0:
320,0,118024,1,0,0:0:0:0:
448,0,118024,1,0,0:0:0:0:
64,0,118082,1,0,0:0:0:0:
192,0,118139,1,0,0:0:0:0:
448,0,118197,1,0,0:0:0:0:
64,0,118255,1,0,0:0:0:0:
192,0,118312,1,0,0:0:0:0:
320,0,118370,1,0,0:0:0:0:
448,0,118370,1,0,0:0:0:0:
192,0,118485,1,0,0:0:0:0:
64,0,118601,1,0,0:0:0:0:
448,0,118601,1,0,0:0:0:0:
320,0,118716,1,0,0:0:0:0:
64,0,118832,1,0,0:0:0:0:
192,0,118832,1,0,0:0:0:0:
448,0,118947,1,0,0:0:0:0:
64,0,119062,1,0,0:0:0:0:
320,0,119062,1,0,0:0:0:0:
192,0,119120,1,0,0:0:0:0:
448,0,119178,1,0,0:0:0:0:
320,0,119235,1,0,0:0:0:0:
64,0,119293,1,0,0:0:0:0:
448,0,119351,1,0,0:0:0:0:
192,0,119409,1,0,0:0:0:0:
320,0,119409,1,0,0:0:0:0:
64,0,119524,1,0,0:0:0:0:
192,0,119639,1,0,0:0:0:0:
448,0,119639,1,0,0:0:0:0:
320,0,119755,1,0,0:0:0:0:
64,0,119870,1,0,0:0:0:0:
192,0,119870,1,0,0:0:0:0:
320,0,119928,1,0,0:0:0:0:
448,0,119985,1,0,0:0:0:0:
192,0,120043,1,0,0:0:0:0:
320,0,120101,1,0,0:0:0:0:
64,0,120159,1,0,0:0:0:0:
448,0,120216,1,0,0:0:0:0:
192,0,120274,1,0,0:0:0:0:
64,0,120332,1,0,0:0:0:0:
320,0,120389,1,0,0:0:0:0:
192,0,120447,1,0,0:0:0:0:
448,0,120447,1,0,0:0:0:0:
64,0,120562,1,0,0:0:0:0:
192,0,120678,1,0,0:0:0:0:
320,0,120793,1,0,0:0:0:0:
64,0,120909,1,0,0:0:0:0:
448,0,120909,1,0,0:0:0:0:
192,0,120966,1,0,0:0:0:0:
320,0,121024,1,0,0:0:0:0:
64,0,121082,1,0,0:0:0:0:
448,0,121139,1,0,0:0:0:0:
320,0,121197,1,0,0:0:0:0:
64,0,121255,1,0,0:0:0:0:
192,0,121255,1,0,0:0:0:0:
320,0,121370,1,0,0:0:0:0:
192,0,121485,1,0,0:0:0:0:
448,0,121485,1,0,0:0:0:0:
64,0,121601,1,0,0:0:0:0:
192,0,121716,1,0,0:0:0:0:
320,0,121716,1,0,0:0:0:0:
448,0,121774,1,0,0:0:0:0:
64,0,121832,1,0,0:0:0:0:
192,0,121889,1,0,0:0:0:0:
320,0,121947,1,0,0:0:0:0:
448,0,122005,1,0,0:0:0:0:
64,0,122062,1,0,0:0:0:0:
192,0,122062,1,0,0:0:0:0:
320,0,122178,1,0,0:0:0:0:
192,0,122293,1,0,0:0:0:0:
448,0,122293,1,0,0:0:0:0:
64,0,122409,1,0,0:0:0:0:
192,0,122524,1,0,0:0:0:0:
320,0,122524,1,0,0:0:0:0:
64,0,122639,1,0,0:0:0:0:
448,0,122639,1,0,0:0:0:0:
192,0,122755,1,0,0:0:0:0:
320,0,122755,1,0,0:0:0:0:
448,0,122812,1,0,0:0:0:0:
64,0,122870,1,0,0:0:0:0:
192,0,122928,1,0,0:0:0:0:
320,0,122985,1,0,0:0:0:0:
64,0,123043,1,0,0:0:0:0:
192,0,123101,1,0,0:0:0:0:
448,0,123159,1,0,0:0:0:0:
320,0,123216,1,0,0:0:0:0:
64,0,123274,1,0,0:0:0:0:
448,0,123332,1,0,0:0:0:0:
192,0,123389,1,0,0:0:0:0:
64,0,123447,1,0,0:0:0:0:
448,0,123505,1,0,0:0:0:0:
320,0,123562,1,0,0:0:0:0:
192,0,123620,1,0,0:0:0:0:
64,0,123678,1,0,0:0:0:0:
448,0,123678,1,0,0:0:0:0:
64,0,123909,1,0,0:0:0:0:
448,0,123909,1,0,0:0:0:0:
320,0,124139,1,0,0:0:0:0:
448,0,124139,1,0,0:0:0:0:
192,0,124197,1,0,0:0:0:0:
64,0,124255,1,0,0:0:0:0:
448,0,124312,1,0,0:0:0:0:
192,0,124370,1,0,0:0:0:0:
320,0,124370,1,0,0:0:0:0:
64,0,124485,1,0,0:0:0:0:
320,0,124601,1,0,0:0:0:0:
448,0,124601,1,0,0:0:0:0:
192,0,124659,1,0,0:0:0:0:
64,0,124716,1,0,0:0:0:0:
320,0,124774,1,0,0:0:0:0:
192,0,124832,1,0,0:0:0:0:
448,0,124889,1,0,0:0:0:0:
64,0,124947,1,0,0:0:0:0:
320,0,124947,1,0,0:0:0:0:
192,0,125062,1,0,0:0:0:0:
320,0,125178,1,0,0:0:0:0:
448,0,125178,1,0,0:0:0:0:
64,0,125293,1,0,0:0:0:0:
192,0,125409,1,0,0:0:0:0:
320,0,125409,1,0,0:0:0:0:
448,0,125466,1,0,0:0:0:0:
64,0,125524,1,0,0:0:0:0:
192,0,125582,1,0,0:0:0:0:
320,0,125639,1,0,0:0:0:0:
448,0,125697,1,0,0:0:0:0:
64,0,125755,1,0,0:0:0:0:
192,0,125755,1,0,0:0:0:0:
320,0,125870,1,0,0:0:0:0:
64,0,125985,1,0,0:0:0:0:
448,0,125985,1,0,0:0:0:0:
192,0,126101,1,0,0:0:0:0:
320,0,126216,1,0,0:0:0:0:
448,0,126216,1,0,0:0:0:0:
192,0,126332,1,0,0:0:0:0:
64,0,126447,1,0,0:0:0:0:
448,0,126447,1,0,0:0:0:0:
320,0,126505,1,0,0:0:0:0:
192,0,126562,1,0,0:0:0:0:
448,0,126620,1,0,0:0:0:0:
64,0,126678,1,0,0:0:0:0:
320,0,126735,1,0,0:0:0:0:
192,0,126793,1,0,0:0:0:0:
448,0,126793,1,0,0:0:0:0:
64,0,126909,1,0,0:0:0:0:
192,0,127024,1,0,0:0:0:0:
320,0,127024,1,0,0:0:0:0:
448,0,127139,1,0,0:0:0:0:
64,0,127255,1,0,0:0:0:0:
192,0,127255,1,0,0:0:0:0:
320,0,127312,1,0,0:0:0:0:
448,0,127370,1,0,0:0:0:0:
64,0,127428,1,0,0:0:0:0:
192,0,127485,1,0,0:0:0:0:
320,0,127543,1,0,0:0:0:0:
64,0,127601,1,0,0:0:0:0:
448,0,127601,1,0,0:0:0:0:
192,0,127659,1,0,0:0:0:0:
320,0,127716,1,0,0:0:0:0:
448,0,127774,1,0,0:0:0:0:
64,0,127832,1,0,0:0:0:0:
192,0,127832,1,0,0:0:0:0:
320,0,127947,1,0,0:0:0:0:
448,0,128062,1,0,0:0:0:0:
64,0,128178,1,0,0:0:0:0:
192,0,128293,1,0,0:0:0:0:
320,0,128293,1,0,0:0:0:0:
448,0,128351,1,0,0:0:0:0:
192,0,128409,1,0,0:0:0:0:
64,0,128466,1,0,0:0:0:0:
320,0,128524,1,0,0:0:0:0:
448,0,128524,1,0,0:0:0:0:
64,0,128639,1,0,0:0:0:0:
192,0,128639,1,0,0:0:0:0:
320,0,128755,1,0,0:0:0:0:
64,0,128870,1,0,0:0:0:0:
448,0,128870,1,0,0:0:0:0:
192,0,128985,1,0,0:0:0:0:
320,0,129101,1,0,0:0:0:0:
448,0,129101,1,0,0:0:0:0:
192,0,129216,1,0,0:0:0:0:
64,0,129332,1,0,0:0:0:0:
448,0,129332,1,0,0:0:0:0:
320,0,129447,1,0,0:0:0:0:
64,0,129562,1,0,0:0:0:0:
192,0,129562,1,0,0:0:0:0:
320,0,129678,1,0,0:0:0:0:
64,0,129793,1,0,0:0:0:0:
448,0,129793,1,0,0:0:0:0:
64,0,129909,1,0,0:0:0:0:
192,0,129909,1,0,0:0:0:0:
320,0,130024,1,0,0:0:0:0:
448,0,130024,1,0,0:0:0:0:
64,0,130139,1,0,0:0:0:0:
448,0,130139,1,0,0:0:0:0:
192,0,130255,1,0,0:0:0:0:
320,0,130370,1,0,0:0:0:0:
448,0,130370,1,0,0:0:0:0:
64,0,130485,1,0,0:0:0:0:
192,0,130601,1,0,0:0:0:0:
320,0,130601,1,0,0:0:0:0:
448,0,130716,1,0,0:0:0:0:
64,0,130832,1,0,0:0:0:0:
192,0,130832,1,0,0:0:0:0:
320,0,130947,1,0,0:0:0:0:
64,0,131062,1,0,0:0:0:0:
192,0,131062,1,0,0:0:0:0:
320,0,131120,1,0,0:0:0:0:
448,0,131120,1,0,0:0:0:0:
64,0,131178,1,0,0:0:0:0:
192,0,131178,1,0,0:0:0:0:
320,0,131235,1,0,0:0:0:0:
448,0,131235,1,0,0:0:0:0:
64,0,131293,1,0,0:0:0:0:
192,0,131293,1,0,0:0:0:0:
320,0,131409,1,0,0:0:0:0:
448,0,131409,1,0,0:0:0:0:
64,0,131466,1,0,0:0:0:0:
192,0,131466,1,0,0:0:0:0:
320,0,131524,1,0,0:0:0:0:
448,0,131524,1,0,0:0:0:0:
64,0,131582,1,0,0:0:0:0:
192,0,131582,1,0,0:0:0:0:
320,0,131639,1,0,0:0:0:0:
448,0,131639,1,0,0:0:0:0:
64,0,131755,1,0,0:0:0:0:
192,0,131755,1,0,0:0:0:0:
320,0,131870,1,0,0:0:0:0:
448,0,131870,1,0,0:0:0:0:
64,0,131985,1,0,0:0:0:0:
448,0,131985,1,0,0:0:0:0:
192,0,132043,1,0,0:0:0:0:
320,0,132101,1,0,0:0:0:0:
448,0,132159,1,0,0:0:0:0:
64,0,132216,1,0,0:0:0:0:
320,0,132274,1,0,0:0:0:0:
448,0,132332,1,0,0:0:0:0:
192,0,132389,1,0,0:0:0:0:
320,0,132447,1,0,0:0:0:0:
64,0,132505,1,0,0:0:0:0:
448,0,132562,1,0,0:0:0:0:
320,0,132620,1,0,0:0:0:0:
192,0,132678,1,0,0:0:0:0:
64,0,132735,1,0,0:0:0:0:
320,0,132793,1,0,0:0:0:0:
448,0,132851,1,0,0:0:0:0:
192,0,132909,1,0,0:0:0:0:
64,0,133024,1,0,0:0:0:0:
192,0,133139,1,0,0:0:0:0:
448,0,133255,1,0,0:0:0:0:
64,0,133370,1,0,0:0:0:0:
192,0,133428,1,0,0:0:0:0:
320,0,133485,1,0,0:0:0:0:
448,0,133601,1,0,0:0:0:0:
320,0,133716,1,0,0:0:0:0:
64,0,133832,1,0,0:0:0:0:
192,0,133889,1,0,0:0:0:0:
320,0,133947,1,0,0:0:0:0:
448,0,134005,1,0,0:0:0:0:
64,0,134062,1,0,0:0:0:0:
320,0,134120,1,0,0:0:0:0:
448,0,134178,1,0,0:0:0:0:
192,0,134235,1,0,0:0:0:0:
320,0,134293,1,0,0:0:0:0:
64,0,134351,1,0,0:0:0:0:
448,0,134409,1,0,0:0:0:0:
320,0,134466,1,0,0:0:0:0:
192,0,134524,1,0,0:0:0:0:
64,0,134582,1,0,0:0:0:0:
320,0,134639,1,0,0:0:0:0:
448,0,134697,1,0,0:0:0:0:
192,0,134755,1,0,0:0:0:0:
64,0,134870,1,0,0:0:0:0:
192,0,134985,1,0,0:0:0:0:
448,0,135101,1,0,0:0:0:0:
64,0,135216,1,0,0:0:0:0:
192,0,135274,1,0,0:0:0:0:
320,0,135332,1,0,0:0:0:0:
448,0,135447,1,0,0:0:0:0:
320,0,135562,1,0,0:0:0:0:
64,0,135678,1,0,0:0:0:0:
192,0,135735,1,0,0:0:0:0:
320,0,135793,1,0,0:0:0:0:
448,0,135851,1,0,0:0:0:0:
64,0,135909,1,0,0:0:0:0:
320,0,135966,1,0,0:0:0:0:
448,0,136024,1,0,0:0:0:0:
192,0,136082,1,0,0:0:0:0:
320,0,136139,1,0,0:0:0:0:
64,0,136197,1,0,0:0:0:0:
448,0,136255,1,0,0:0:0:0:
320,0,136312,1,0,0:0:0:0:
192,0,136370,1,0,0:0:0:0:
64,0,136428,1,0,0:0:0:0:
320,0,136485,1,0,0:0:0:0:
448,0,136543,1,0,0:0:0:0:
192,0,136601,1,0,0:0:0:0:
64,0,136716,1,0,0:0:0:0:
192,0,136832,1,0,0:0:0:0:
448,0,136947,1,0,0:0:0:0:
64,0,137062,1,0,0:0:0:0:
192,0,137120,1,0,0:0:0:0:
320,0,137178,1,0,0:0:0:0:
448,0,137293,1,0,0:0:0:0:
320,0,137409,1,0,0:0:0:0:
64,0,137524,1,0,0:0:0:0:
192,0,137582,1,0,0:0:0:0:
320,0,137639,1,0,0:0:0:0:
448,0,137697,1,0,0:0:0:0:
64,0,137755,1,0,0:0:0:0:
320,0,137812,1,0,0:0:0:0:
448,0,137870,1,0,0:0:0:0:
192,0,137928,1,0,0:0:0:0:
320,0,137985,1,0,0:0:0:0:
64,0,138043,1,0,0:0:0:0:
448,0,138101,1,0,0:0:0:0:
320,0,138159,1,0,0:0:0:0:
192,0,138216,1,0,0:0:0:0:
64,0,138274,1,0,0:0:0:0:
320,0,138332,1,0,0:0:0:0:
448,0,138389,1,0,0:0:0:0:
192,0,138447,1,0,0:0:0:0:
64,0,138562,1,0,0:0:0:0:
192,0,138678,1,0,0:0:0:0:
448,0,138793,1,0,0:0:0:0:
192,0,138909,1,0,0:0:0:0:
64,0,138909,1,0,0:0:0:0:
320,0,138966,1,0,0:0:0:0:
448,0,138966,1,0,0:0:0:0:
64,0,139024,1,0,0:0:0:0:
192,0,139024,1,0,0:0:0:0:
320,0,139082,1,0,0:0:0:0:
448,0,139082,1,0,0:0:0:0:
64,0,139139,1,0,0:0:0:0:
192,0,139139,1,0,0:0:0:0:
448,0,139255,1,0,0:0:0:0:
320,0,139255,1,0,0:0:0:0:
