osu file format v14

[General]
AudioFilename: audio.mp3
AudioLeadIn: 0
PreviewTime: 15562
Countdown: 0
SampleSet: Normal
StackLeniency: 0.7
Mode: 3
LetterboxInBreaks: 0
SpecialStyle: 0
WidescreenStoryboard: 1

[Editor]
Bookmarks: 901,15670,30439,45208,59977,74747,89401,104516,131977,139247
DistanceSpacing: 0.8
BeatDivisor: 4
GridSize: 32
TimelineZoom: 4.199999

[Metadata]
Title:Triumphal Return
TitleUnicode:Triumphal Return
Artist:TamaDo
ArtistUnicode:TamaDo
Creator:Sebaex
Version:4K Afterlife
Source:A-1 ClimaX 7th -Break Through!-
Tags:bms epilogue instrumental electronic speedcore dee2 digital emergency exit 2 event tamago-dofu piano video game [-roxas-] blocko 第14回自称無名bms作家が物申す!highspeed speedstream chordstream chordjack stamina double stair high speed stream chord trill jack cj bracket symmetrical rice 2017
BeatmapID:2630355
BeatmapSetID:1265691

[Difficulty]
HPDrainRate:8.8
CircleSize:4
OverallDifficulty:8.8
ApproachRate:5
SliderMultiplier:1.4
SliderTickRate:1

[Events]
//Background and Video events
0,0,"bg.jpg",0,0
//Break Periods
//Storyboard Layer 0 (Background)
//Storyboard Layer 1 (Fail)
//Storyboard Layer 2 (Pass)
//Storyboard Layer 3 (Foreground)
//Storyboard Layer 4 (Overlay)
//Storyboard Sound Samples

[TimingPoints]
909,230.769231,4,1,1,15,1,0
15678,-100,4,1,1,30,0,1
30447,-100,4,1,1,30,0,0
104524,-100,4,1,1,30,0,1
131985,-100,4,1,1,30,0,0

[HitObjects]
192,192,909,5,0,0:0:0:0:
448,192,909,1,0,0:0:0:0:
96,192,1139,1,0,0:0:0:0:
352,192,1255,1,0,0:0:0:0:
480,192,1255,1,0,0:0:0:0:
224,192,1370,1,0,0:0:0:0:
320,192,1370,1,0,0:0:0:0:
96,192,1485,1,0,0:0:0:0:
480,192,1485,1,0,0:0:0:0:
224,192,1601,1,0,0:0:0:0:
352,192,1716,1,0,0:0:0:0:
480,192,1716,1,0,0:0:0:0:
224,192,1832,1,0,0:0:0:0:
448,192,1832,1,0,0:0:0:0:
96,192,1947,1,0,0:0:0:0:
352,192,1947,1,0,0:0:0:0:
64,192,2062,1,0,0:0:0:0:
320,192,2062,1,0,0:0:0:0:
448,192,2178,1,0,0:0:0:0:
64,192,2293,1,0,0:0:0:0:
192,192,2293,1,0,0:0:0:0:
320,192,2409,1,0,0:0:0:0:
96,192,2524,1,0,0:0:0:0:
448,192,2524,1,0,0:0:0:0:
352,192,2755,1,0,0:0:0:0:
192,192,2755,1,0,0:0:0:0:
64,192,2985,1,0,0:0:0:0:
352,192,3101,1,0,0:0:0:0:
480,192,3101,1,0,0:0:0:0:
224,192,3216,1,0,0:0:0:0:
320,192,3216,1,0,0:0:0:0:
96,192,3332,1,0,0:0:0:0:
480,192,3332,1,0,0:0:0:0:
352,192,3447,1,0,0:0:0:0:
224,192,3562,1,0,0:0:0:0:
480,192,3562,1,0,0:0:0:0:
96,192,3678,1,0,0:0:0:0:
320,192,3678,1,0,0:0:0:0:
224,192,3909,1,0,0:0:0:0:
352,192,4024,1,0,0:0:0:0:
96,192,4139,1,0,0:0:0:0:
480,192,4139,1,0,0:0:0:0:
224,192,4255,1,0,0:0:0:0:
480,192,4255,1,0,0:0:0:0:
96,192,4370,1,0,0:0:0:0:
352,192,4370,1,0,0:0:0:0:
96,192,4485,1,0,0:0:0:0:
480,192,4485,1,0,0:0:0:0:
224,192,4601,1,0,0:0:0:0:
480,192,4601,1,0,0:0:0:0:
352,192,4832,1,0,0:0:0:0:
96,192,4947,1,0,0:0:0:0:
480,192,4947,1,0,0:0:0:0:
224,192,5062,1,0,0:0:0:0:
320,192,5062,1,0,0:0:0:0:
96,192,5178,1,0,0:0:0:0:
192,192,5178,1,0,0:0:0:0:
480,192,5293,1,0,0:0:0:0:
224,192,5409,1,0,0:0:0:0:
352,192,5409,1,0,0:0:0:0:
96,192,5524,1,0,0:0:0:0:
320,192,5524,1,0,0:0:0:0:
224,192,5639,1,0,0:0:0:0:
480,192,5639,1,0,0:0:0:0:
224,192,5755,1,0,0:0:0:0:
480,192,5755,1,0,0:0:0:0:
352,192,5870,1,0,0:0:0:0:
96,192,5985,1,0,0:0:0:0:
480,192,5985,1,0,0:0:0:0:
224,192,6101,1,0,0:0:0:0:
320,192,6216,1,0,0:0:0:0:
96,192,6332,1,0,0:0:0:0:
480,192,6332,1,0,0:0:0:0:
224,192,6447,1,0,0:0:0:0:
352,192,6447,1,0,0:0:0:0:
96,192,6678,1,0,0:0:0:0:
480,192,6793,1,0,0:0:0:0:
352,192,6909,1,0,0:0:0:0:
224,192,6909,1,0,0:0:0:0:
96,192,7024,1,0,0:0:0:0:
480,192,7139,1,0,0:0:0:0:
224,192,7370,1,0,0:0:0:0:
480,192,7370,1,0,0:0:0:0:
224,192,7601,1,0,0:0:0:0:
480,192,7601,1,0,0:0:0:0:
96,192,7716,1,0,0:0:0:0:
192,192,7803,1,0,0:0:0:0:
320,192,7832,1,0,0:0:0:0:
480,192,7832,1,0,0:0:0:0:
96,192,7947,1,0,0:0:0:0:
320,192,7947,1,0,0:0:0:0:
192,192,8062,1,0,0:0:0:0:
448,192,8062,1,0,0:0:0:0:
96,192,8178,1,0,0:0:0:0:
192,192,8178,1,0,0:0:0:0:
64,192,8293,1,0,0:0:0:0:
352,192,8293,1,0,0:0:0:0:
480,192,8293,1,0,0:0:0:0:
224,192,8524,1,0,0:0:0:0:
352,192,8639,1,0,0:0:0:0:
480,192,8639,1,0,0:0:0:0:
96,192,8755,1,0,0:0:0:0:
320,192,8755,1,0,0:0:0:0:
224,192,8870,1,0,0:0:0:0:
480,192,8870,1,0,0:0:0:0:
352,192,8985,1,0,0:0:0:0:
64,192,9101,1,0,0:0:0:0:
480,192,9101,1,0,0:0:0:0:
224,192,9216,1,0,0:0:0:0:
448,192,9216,1,0,0:0:0:0:
96,192,9332,1,0,0:0:0:0:
352,192,9332,1,0,0:0:0:0:
64,192,9447,1,0,0:0:0:0:
320,192,9447,1,0,0:0:0:0:
448,192,9562,1,0,0:0:0:0:
64,192,9678,1,0,0:0:0:0:
192,192,9678,1,0,0:0:0:0:
320,192,9793,1,0,0:0:0:0:
224,192,9909,1,0,0:0:0:0:
480,192,9909,1,0,0:0:0:0:
96,192,10139,1,0,0:0:0:0:
352,192,10139,1,0,0:0:0:0:
224,192,10370,1,0,0:0:0:0:
96,192,10485,1,0,0:0:0:0:
352,192,10485,1,0,0:0:0:0:
480,192,10601,1,0,0:0:0:0:
64,192,10601,1,0,0:0:0:0:
224,192,10716,1,0,0:0:0:0:
320,192,10716,1,0,0:0:0:0:
64,192,10832,1,0,0:0:0:0:
480,192,10947,1,0,0:0:0:0:
320,192,10947,1,0,0:0:0:0:
224,192,11062,1,0,0:0:0:0:
320,192,11062,1,0,0:0:0:0:
96,192,11293,1,0,0:0:0:0:
224,192,11409,1,0,0:0:0:0:
96,192,11524,1,0,0:0:0:0:
480,192,11524,1,0,0:0:0:0:
224,192,11639,1,0,0:0:0:0:
480,192,11639,1,0,0:0:0:0:
96,192,11755,1,0,0:0:0:0:
352,192,11755,1,0,0:0:0:0:
96,192,11870,1,0,0:0:0:0:
480,192,11870,1,0,0:0:0:0:
480,192,11985,1,0,0:0:0:0:
192,192,11985,1,0,0:0:0:0:
352,192,12216,1,0,0:0:0:0:
96,192,12332,1,0,0:0:0:0:
224,192,12332,1,0,0:0:0:0:
480,192,12447,1,0,0:0:0:0:
192,192,12447,1,0,0:0:0:0:
96,192,12562,1,0,0:0:0:0:
320,192,12562,1,0,0:0:0:0:
192,192,12678,1,0,0:0:0:0:
352,192,12793,1,0,0:0:0:0:
448,192,12793,1,0,0:0:0:0:
224,192,12909,1,0,0:0:0:0:
448,192,12909,1,0,0:0:0:0:
96,192,13024,1,0,0:0:0:0:
352,192,13024,1,0,0:0:0:0:
96,192,13139,1,0,0:0:0:0:
352,192,13139,1,0,0:0:0:0:
480,192,13255,1,0,0:0:0:0:
96,192,13370,1,0,0:0:0:0:
352,192,13370,1,0,0:0:0:0:
224,192,13601,1,0,0:0:0:0:
480,192,13601,1,0,0:0:0:0:
96,192,13716,1,0,0:0:0:0:
352,192,13716,1,0,0:0:0:0:
352,192,13832,1,0,0:0:0:0:
480,192,13832,1,0,0:0:0:0:
480,192,14062,1,0,0:0:0:0:
96,192,14178,1,0,0:0:0:0:
352,192,14178,1,0,0:0:0:0:
224,192,14293,1,0,0:0:0:0:
320,192,14293,1,0,0:0:0:0:
64,192,14409,1,0,0:0:0:0:
320,192,14524,1,0,0:0:0:0:
448,192,14524,1,0,0:0:0:0:
96,192,14755,1,0,0:0:0:0:
192,192,14755,1,0,0:0:0:0:
320,192,14769,1,0,0:0:0:0:
448,192,14784,1,0,0:0:0:0:
480,192,15216,1,0,0:0:0:0:
352,192,15245,1,0,0:0:0:0:
224,192,15274,1,0,0:0:0:0:
96,192,15332,1,0,0:0:0:0:
480,192,15447,1,0,0:0:0:0:
96,192,15562,1,0,0:0:0:0:
96,192,15678,1,0,0:0:0:0:
224,192,15678,1,0,0:0:0:0:
480,192,15678,1,0,0:0:0:0:
352,192,15735,1,0,0:0:0:0:
192,192,15793,1,0,0:0:0:0:
448,192,15851,1,0,0:0:0:0:
96,192,15909,1,0,0:0:0:0:
224,192,15909,1,0,0:0:0:0:
320,192,15909,1,0,0:0:0:0:
448,192,15966,1,0,0:0:0:0:
96,192,16024,1,0,0:0:0:0:
320,192,16024,1,0,0:0:0:0:
192,192,16082,1,0,0:0:0:0:
448,192,16139,1,0,0:0:0:0:
320,192,16197,1,0,0:0:0:0:
96,192,16255,1,0,0:0:0:0:
192,192,16255,1,0,0:0:0:0:
320,192,16312,1,0,0:0:0:0:
96,192,16370,1,0,0:0:0:0:
192,192,16370,1,0,0:0:0:0:
480,192,16370,1,0,0:0:0:0:
320,192,16428,1,0,0:0:0:0:
192,192,16485,1,0,0:0:0:0:
480,192,16485,1,0,0:0:0:0:
96,192,16543,1,0,0:0:0:0:
448,192,16601,1,0,0:0:0:0:
352,192,16601,1,0,0:0:0:0:
192,192,16659,1,0,0:0:0:0:
64,192,16716,1,0,0:0:0:0:
448,192,16716,1,0,0:0:0:0:
192,192,16774,1,0,0:0:0:0:
64,192,16832,1,0,0:0:0:0:
320,192,16832,1,0,0:0:0:0:
480,192,16832,1,0,0:0:0:0:
192,192,16889,1,0,0:0:0:0:
320,192,16947,1,0,0:0:0:0:
448,192,17005,1,0,0:0:0:0:
320,192,17062,1,0,0:0:0:0:
192,192,17062,1,0,0:0:0:0:
64,192,17120,1,0,0:0:0:0:
320,192,17178,1,0,0:0:0:0:
480,192,17178,1,0,0:0:0:0:
192,192,17235,1,0,0:0:0:0:
96,192,17293,1,0,0:0:0:0:
320,192,17293,1,0,0:0:0:0:
480,192,17293,1,0,0:0:0:0:
192,192,17351,1,0,0:0:0:0:
448,192,17409,1,0,0:0:0:0:
320,192,17466,1,0,0:0:0:0:
192,192,17524,1,0,0:0:0:0:
64,192,17524,1,0,0:0:0:0:
480,192,17582,1,0,0:0:0:0:
192,192,17639,1,0,0:0:0:0:
320,192,17697,1,0,0:0:0:0:
96,192,17755,1,0,0:0:0:0:
224,192,17755,1,0,0:0:0:0:
448,192,17755,1,0,0:0:0:0:
320,192,17812,1,0,0:0:0:0:
96,192,17870,1,0,0:0:0:0:
448,192,17870,1,0,0:0:0:0:
352,192,17928,1,0,0:0:0:0:
192,192,17985,1,0,0:0:0:0:
64,192,18043,1,0,0:0:0:0:
352,192,18101,1,0,0:0:0:0:
480,192,18101,1,0,0:0:0:0:
96,192,18159,1,0,0:0:0:0:
224,192,18216,1,0,0:0:0:0:
352,192,18216,1,0,0:0:0:0:
480,192,18216,1,0,0:0:0:0:
96,192,18274,1,0,0:0:0:0:
320,192,18332,1,0,0:0:0:0:
192,192,18332,1,0,0:0:0:0:
448,192,18389,1,0,0:0:0:0:
64,192,18447,1,0,0:0:0:0:
192,192,18447,1,0,0:0:0:0:
320,192,18505,1,0,0:0:0:0:
448,192,18562,1,0,0:0:0:0:
192,192,18620,1,0,0:0:0:0:
96,192,18678,1,0,0:0:0:0:
448,192,18678,1,0,0:0:0:0:
320,192,18678,1,0,0:0:0:0:
192,192,18735,1,0,0:0:0:0:
320,192,18793,1,0,0:0:0:0:
448,192,18851,1,0,0:0:0:0:
96,192,18909,1,0,0:0:0:0:
192,192,18909,1,0,0:0:0:0:
320,192,18966,1,0,0:0:0:0:
64,192,19024,1,0,0:0:0:0:
448,192,19024,1,0,0:0:0:0:
192,192,19082,1,0,0:0:0:0:
448,192,19139,1,0,0:0:0:0:
320,192,19139,1,0,0:0:0:0:
64,192,19139,1,0,0:0:0:0:
192,192,19197,1,0,0:0:0:0:
320,192,19255,1,0,0:0:0:0:
448,192,19255,1,0,0:0:0:0:
64,192,19312,1,0,0:0:0:0:
320,192,19370,1,0,0:0:0:0:
192,192,19370,1,0,0:0:0:0:
448,192,19428,1,0,0:0:0:0:
64,192,19485,1,0,0:0:0:0:
320,192,19543,1,0,0:0:0:0:
64,192,19601,1,0,0:0:0:0:
448,192,19601,1,0,0:0:0:0:
192,192,19601,1,0,0:0:0:0:
320,192,19659,1,0,0:0:0:0:
64,192,19716,1,0,0:0:0:0:
192,192,19716,1,0,0:0:0:0:
448,192,19774,1,0,0:0:0:0:
320,192,19832,1,0,0:0:0:0:
192,192,19889,1,0,0:0:0:0:
448,192,19947,1,0,0:0:0:0:
64,192,19947,1,0,0:0:0:0:
192,192,20005,1,0,0:0:0:0:
448,192,20062,1,0,0:0:0:0:
320,192,20062,1,0,0:0:0:0:
64,192,20062,1,0,0:0:0:0:
192,192,20120,1,0,0:0:0:0:
320,192,20178,1,0,0:0:0:0:
448,192,20178,1,0,0:0:0:0:
64,192,20235,1,0,0:0:0:0:
192,192,20293,1,0,0:0:0:0:
320,192,20293,1,0,0:0:0:0:
448,192,20351,1,0,0:0:0:0:
192,192,20409,1,0,0:0:0:0:
64,192,20409,1,0,0:0:0:0:
320,192,20466,1,0,0:0:0:0:
64,192,20524,1,0,0:0:0:0:
448,192,20524,1,0,0:0:0:0:
192,192,20524,1,0,0:0:0:0:
320,192,20582,1,0,0:0:0:0:
448,192,20639,1,0,0:0:0:0:
192,192,20697,1,0,0:0:0:0:
64,192,20755,1,0,0:0:0:0:
448,192,20755,1,0,0:0:0:0:
320,192,20755,1,0,0:0:0:0:
192,192,20812,1,0,0:0:0:0:
320,192,20870,1,0,0:0:0:0:
64,192,20928,1,0,0:0:0:0:
448,192,20985,1,0,0:0:0:0:
192,192,20985,1,0,0:0:0:0:
320,192,21043,1,0,0:0:0:0:
448,192,21101,1,0,0:0:0:0:
64,192,21101,1,0,0:0:0:0:
192,192,21101,1,0,0:0:0:0:
320,192,21159,1,0,0:0:0:0:
64,192,21216,1,0,0:0:0:0:
192,192,21216,1,0,0:0:0:0:
320,192,21274,1,0,0:0:0:0:
448,192,21332,1,0,0:0:0:0:
64,192,21389,1,0,0:0:0:0:
320,192,21447,1,0,0:0:0:0:
192,192,21447,1,0,0:0:0:0:
448,192,21447,1,0,0:0:0:0:
64,192,21505,1,0,0:0:0:0:
192,192,21562,1,0,0:0:0:0:
320,192,21620,1,0,0:0:0:0:
448,192,21678,1,0,0:0:0:0:
192,192,21735,1,0,0:0:0:0:
448,192,21793,1,0,0:0:0:0:
64,192,21793,1,0,0:0:0:0:
320,192,21851,1,0,0:0:0:0:
448,192,21909,1,0,0:0:0:0:
64,192,21909,1,0,0:0:0:0:
192,192,21909,1,0,0:0:0:0:
320,192,21966,1,0,0:0:0:0:
192,192,22024,1,0,0:0:0:0:
64,192,22082,1,0,0:0:0:0:
448,192,22139,1,0,0:0:0:0:
320,192,22139,1,0,0:0:0:0:
192,192,22139,1,0,0:0:0:0:
64,192,22197,1,0,0:0:0:0:
448,192,22255,1,0,0:0:0:0:
320,192,22312,1,0,0:0:0:0:
192,192,22370,1,0,0:0:0:0:
64,192,22370,1,0,0:0:0:0:
480,192,22370,1,0,0:0:0:0:
320,192,22428,1,0,0:0:0:0:
64,192,22485,1,0,0:0:0:0:
192,192,22543,1,0,0:0:0:0:
320,192,22601,1,0,0:0:0:0:
448,192,22601,1,0,0:0:0:0:
192,192,22659,1,0,0:0:0:0:
448,192,22716,1,0,0:0:0:0:
64,192,22716,1,0,0:0:0:0:
320,192,22774,1,0,0:0:0:0:
64,192,22832,1,0,0:0:0:0:
192,192,22832,1,0,0:0:0:0:
480,192,22832,1,0,0:0:0:0:
320,192,22947,1,0,0:0:0:0:
64,192,22947,1,0,0:0:0:0:
448,192,22947,1,0,0:0:0:0:
64,192,23062,1,0,0:0:0:0:
320,192,23062,1,0,0:0:0:0:
192,192,23062,1,0,0:0:0:0:
448,192,23120,1,0,0:0:0:0:
192,192,23178,1,0,0:0:0:0:
320,192,23235,1,0,0:0:0:0:
64,192,23293,1,0,0:0:0:0:
192,192,23293,1,0,0:0:0:0:
480,192,23293,1,0,0:0:0:0:
320,192,23351,1,0,0:0:0:0:
192,192,23409,1,0,0:0:0:0:
64,192,23409,1,0,0:0:0:0:
448,192,23466,1,0,0:0:0:0:
192,192,23524,1,0,0:0:0:0:
320,192,23582,1,0,0:0:0:0:
448,192,23639,1,0,0:0:0:0:
64,192,23639,1,0,0:0:0:0:
192,192,23697,1,0,0:0:0:0:
320,192,23755,1,0,0:0:0:0:
64,192,23755,1,0,0:0:0:0:
480,192,23755,1,0,0:0:0:0:
192,192,23812,1,0,0:0:0:0:
320,192,23870,1,0,0:0:0:0:
480,192,23870,1,0,0:0:0:0:
64,192,23928,1,0,0:0:0:0:
192,192,23985,1,0,0:0:0:0:
320,192,23985,1,0,0:0:0:0:
448,192,24043,1,0,0:0:0:0:
192,192,24101,1,0,0:0:0:0:
64,192,24101,1,0,0:0:0:0:
320,192,24159,1,0,0:0:0:0:
192,192,24216,1,0,0:0:0:0:
64,192,24216,1,0,0:0:0:0:
480,192,24216,1,0,0:0:0:0:
320,192,24274,1,0,0:0:0:0:
192,192,24332,1,0,0:0:0:0:
64,192,24389,1,0,0:0:0:0:
448,192,24447,1,0,0:0:0:0:
320,192,24447,1,0,0:0:0:0:
192,192,24505,1,0,0:0:0:0:
448,192,24562,1,0,0:0:0:0:
64,192,24562,1,0,0:0:0:0:
192,192,24620,1,0,0:0:0:0:
96,192,24678,1,0,0:0:0:0:
448,192,24678,1,0,0:0:0:0:
352,192,24678,1,0,0:0:0:0:
192,192,24735,1,0,0:0:0:0:
320,192,24793,1,0,0:0:0:0:
96,192,24851,1,0,0:0:0:0:
224,192,24909,1,0,0:0:0:0:
480,192,24909,1,0,0:0:0:0:
320,192,24966,1,0,0:0:0:0:
64,192,25024,1,0,0:0:0:0:
320,192,25082,1,0,0:0:0:0:
448,192,25139,1,0,0:0:0:0:
192,192,25139,1,0,0:0:0:0:
64,192,25139,1,0,0:0:0:0:
320,192,25197,1,0,0:0:0:0:
64,192,25255,1,0,0:0:0:0:
192,192,25255,1,0,0:0:0:0:
448,192,25312,1,0,0:0:0:0:
224,192,25370,1,0,0:0:0:0:
320,192,25370,1,0,0:0:0:0:
64,192,25428,1,0,0:0:0:0:
448,192,25485,1,0,0:0:0:0:
320,192,25485,1,0,0:0:0:0:
192,192,25543,1,0,0:0:0:0:
96,192,25601,1,0,0:0:0:0:
320,192,25601,1,0,0:0:0:0:
448,192,25601,1,0,0:0:0:0:
192,192,25659,1,0,0:0:0:0:
448,192,25716,1,0,0:0:0:0:
64,192,25716,1,0,0:0:0:0:
320,192,25774,1,0,0:0:0:0:
192,192,25832,1,0,0:0:0:0:
448,192,25832,1,0,0:0:0:0:
96,192,25889,1,0,0:0:0:0:
320,192,25947,1,0,0:0:0:0:
448,192,26005,1,0,0:0:0:0:
96,192,26062,1,0,0:0:0:0:
224,192,26062,1,0,0:0:0:0:
352,192,26062,1,0,0:0:0:0:
480,192,26120,1,0,0:0:0:0:
224,192,26178,1,0,0:0:0:0:
320,192,26235,1,0,0:0:0:0:
64,192,26293,1,0,0:0:0:0:
448,192,26293,1,0,0:0:0:0:
192,192,26351,1,0,0:0:0:0:
448,192,26409,1,0,0:0:0:0:
320,192,26409,1,0,0:0:0:0:
192,192,26466,1,0,0:0:0:0:
320,192,26524,1,0,0:0:0:0:
448,192,26524,1,0,0:0:0:0:
64,192,26524,1,0,0:0:0:0:
192,192,26582,1,0,0:0:0:0:
448,192,26639,1,0,0:0:0:0:
64,192,26639,1,0,0:0:0:0:
320,192,26697,1,0,0:0:0:0:
64,192,26755,1,0,0:0:0:0:
192,192,26755,1,0,0:0:0:0:
448,192,26812,1,0,0:0:0:0:
320,192,26870,1,0,0:0:0:0:
64,192,26928,1,0,0:0:0:0:
192,192,26985,1,0,0:0:0:0:
320,192,26985,1,0,0:0:0:0:
480,192,26985,1,0,0:0:0:0:
64,192,27043,1,0,0:0:0:0:
320,192,27101,1,0,0:0:0:0:
448,192,27101,1,0,0:0:0:0:
192,192,27159,1,0,0:0:0:0:
64,192,27216,1,0,0:0:0:0:
448,192,27274,1,0,0:0:0:0:
352,192,27332,1,0,0:0:0:0:
64,192,27332,1,0,0:0:0:0:
224,192,27332,1,0,0:0:0:0:
448,192,27389,1,0,0:0:0:0:
352,192,27447,1,0,0:0:0:0:
64,192,27447,1,0,0:0:0:0:
224,192,27505,1,0,0:0:0:0:
96,192,27562,1,0,0:0:0:0:
352,192,27562,1,0,0:0:0:0:
480,192,27562,1,0,0:0:0:0:
224,192,27620,1,0,0:0:0:0:
320,192,27678,1,0,0:0:0:0:
64,192,27735,1,0,0:0:0:0:
192,192,27793,1,0,0:0:0:0:
320,192,27793,1,0,0:0:0:0:
480,192,27793,1,0,0:0:0:0:
64,192,27851,1,0,0:0:0:0:
192,192,27909,1,0,0:0:0:0:
448,192,27909,1,0,0:0:0:0:
320,192,27966,1,0,0:0:0:0:
96,192,28024,1,0,0:0:0:0:
192,192,28024,1,0,0:0:0:0:
448,192,28024,1,0,0:0:0:0:
320,192,28082,1,0,0:0:0:0:
192,192,28139,1,0,0:0:0:0:
64,192,28197,1,0,0:0:0:0:
352,192,28255,1,0,0:0:0:0:
480,192,28255,1,0,0:0:0:0:
224,192,28312,1,0,0:0:0:0:
96,192,28370,1,0,0:0:0:0:
352,192,28370,1,0,0:0:0:0:
480,192,28370,1,0,0:0:0:0:
224,192,28428,1,0,0:0:0:0:
96,192,28485,1,0,0:0:0:0:
480,192,28485,1,0,0:0:0:0:
320,192,28543,1,0,0:0:0:0:
96,192,28601,1,0,0:0:0:0:
192,192,28601,1,0,0:0:0:0:
480,192,28601,1,0,0:0:0:0:
320,192,28659,1,0,0:0:0:0:
64,192,28716,1,0,0:0:0:0:
192,192,28774,1,0,0:0:0:0:
96,192,28832,1,0,0:0:0:0:
320,192,28832,1,0,0:0:0:0:
448,192,28832,1,0,0:0:0:0:
192,192,28889,1,0,0:0:0:0:
320,192,28947,1,0,0:0:0:0:
448,192,29005,1,0,0:0:0:0:
192,192,29062,1,0,0:0:0:0:
64,192,29120,1,0,0:0:0:0:
448,192,29178,1,0,0:0:0:0:
320,192,29178,1,0,0:0:0:0:
192,192,29235,1,0,0:0:0:0:
448,192,29293,1,0,0:0:0:0:
64,192,29293,1,0,0:0:0:0:
352,192,29293,1,0,0:0:0:0:
192,192,29351,1,0,0:0:0:0:
448,192,29409,1,0,0:0:0:0:
320,192,29466,1,0,0:0:0:0:
96,192,29524,1,0,0:0:0:0:
192,192,29524,1,0,0:0:0:0:
480,192,29582,1,0,0:0:0:0:
96,192,29639,1,0,0:0:0:0:
224,192,29697,1,0,0:0:0:0:
96,192,29755,1,0,0:0:0:0:
352,192,29755,1,0,0:0:0:0:
480,192,29755,1,0,0:0:0:0:
224,192,29812,1,0,0:0:0:0:
352,192,29870,1,0,0:0:0:0:
480,192,29928,1,0,0:0:0:0:
96,192,29985,1,0,0:0:0:0:
224,192,30014,1,0,0:0:0:0:
352,192,30043,1,0,0:0:0:0:
480,192,30101,1,0,0:0:0:0:
96,192,30101,1,0,0:0:0:0:
224,192,30159,1,0,0:0:0:0:
352,192,30216,1,0,0:0:0:0:
480,192,30216,1,0,0:0:0:0:
96,192,30274,1,0,0:0:0:0:
224,192,30332,1,0,0:0:0:0:
480,192,30332,1,0,0:0:0:0:
352,192,30389,1,0,0:0:0:0:
96,192,30447,1,0,0:0:0:0:
224,192,30447,1,0,0:0:0:0:
480,192,30447,1,0,0:0:0:0:
352,192,30505,1,0,0:0:0:0:
224,192,30562,1,0,0:0:0:0:
480,192,30620,1,0,0:0:0:0:
96,192,30678,1,0,0:0:0:0:
352,192,30678,1,0,0:0:0:0:
96,192,30793,1,0,0:0:0:0:
352,192,30793,1,0,0:0:0:0:
480,192,30793,1,0,0:0:0:0:
224,192,30909,1,0,0:0:0:0:
352,192,30909,1,0,0:0:0:0:
96,192,31024,1,0,0:0:0:0:
224,192,31024,1,0,0:0:0:0:
480,192,31024,1,0,0:0:0:0:
96,192,31139,1,0,0:0:0:0:
480,192,31139,1,0,0:0:0:0:
224,192,31197,1,0,0:0:0:0:
352,192,31255,1,0,0:0:0:0:
448,192,31255,1,0,0:0:0:0:
64,192,31255,1,0,0:0:0:0:
192,192,31312,1,0,0:0:0:0:
352,192,31370,1,0,0:0:0:0:
480,192,31370,1,0,0:0:0:0:
64,192,31485,1,0,0:0:0:0:
320,192,31485,1,0,0:0:0:0:
192,192,31485,1,0,0:0:0:0:
96,192,31601,1,0,0:0:0:0:
480,192,31601,1,0,0:0:0:0:
320,192,31601,1,0,0:0:0:0:
352,192,31716,1,0,0:0:0:0:
192,192,31716,1,0,0:0:0:0:
480,192,31832,1,0,0:0:0:0:
64,192,31832,1,0,0:0:0:0:
192,192,31832,1,0,0:0:0:0:
320,192,31889,1,0,0:0:0:0:
192,192,31947,1,0,0:0:0:0:
64,192,32005,1,0,0:0:0:0:
352,192,32062,1,0,0:0:0:0:
480,192,32062,1,0,0:0:0:0:
192,192,32062,1,0,0:0:0:0:
64,192,32178,1,0,0:0:0:0:
352,192,32178,1,0,0:0:0:0:
96,192,32293,1,0,0:0:0:0:
224,192,32293,1,0,0:0:0:0:
480,192,32293,1,0,0:0:0:0:
192,192,32409,1,0,0:0:0:0:
352,192,32409,1,0,0:0:0:0:
64,192,32524,1,0,0:0:0:0:
480,192,32524,1,0,0:0:0:0:
96,192,32639,1,0,0:0:0:0:
224,192,32639,1,0,0:0:0:0:
352,192,32639,1,0,0:0:0:0:
480,192,32697,1,0,0:0:0:0:
224,192,32755,1,0,0:0:0:0:
352,192,32812,1,0,0:0:0:0:
96,192,32870,1,0,0:0:0:0:
224,192,32870,1,0,0:0:0:0:
480,192,32870,1,0,0:0:0:0:
96,192,32985,1,0,0:0:0:0:
480,192,32985,1,0,0:0:0:0:
224,192,33101,1,0,0:0:0:0:
352,192,33101,1,0,0:0:0:0:
448,192,33101,1,0,0:0:0:0:
320,192,33216,1,0,0:0:0:0:
64,192,33216,1,0,0:0:0:0:
448,192,33332,1,0,0:0:0:0:
192,192,33332,1,0,0:0:0:0:
320,192,33447,1,0,0:0:0:0:
192,192,33447,1,0,0:0:0:0:
64,192,33447,1,0,0:0:0:0:
480,192,33562,1,0,0:0:0:0:
64,192,33562,1,0,0:0:0:0:
96,192,33678,1,0,0:0:0:0:
224,192,33678,1,0,0:0:0:0:
480,192,33678,1,0,0:0:0:0:
352,192,33735,1,0,0:0:0:0:
96,192,33793,1,0,0:0:0:0:
224,192,33793,1,0,0:0:0:0:
448,192,33793,1,0,0:0:0:0:
224,192,33909,1,0,0:0:0:0:
320,192,33909,1,0,0:0:0:0:
480,192,33909,1,0,0:0:0:0:
96,192,34024,1,0,0:0:0:0:
320,192,34024,1,0,0:0:0:0:
192,192,34024,1,0,0:0:0:0:
96,192,34139,1,0,0:0:0:0:
448,192,34139,1,0,0:0:0:0:
320,192,34139,1,0,0:0:0:0:
192,192,34197,1,0,0:0:0:0:
448,192,34255,1,0,0:0:0:0:
64,192,34312,1,0,0:0:0:0:
192,192,34370,1,0,0:0:0:0:
320,192,34370,1,0,0:0:0:0:
320,192,34485,1,0,0:0:0:0:
64,192,34485,1,0,0:0:0:0:
448,192,34485,1,0,0:0:0:0:
96,192,34601,1,0,0:0:0:0:
192,192,34601,1,0,0:0:0:0:
448,192,34716,1,0,0:0:0:0:
224,192,34716,1,0,0:0:0:0:
352,192,34716,1,0,0:0:0:0:
64,192,34832,1,0,0:0:0:0:
448,192,34832,1,0,0:0:0:0:
320,192,34889,1,0,0:0:0:0:
192,192,34947,1,0,0:0:0:0:
64,192,34947,1,0,0:0:0:0:
448,192,34947,1,0,0:0:0:0:
320,192,35005,1,0,0:0:0:0:
192,192,35062,1,0,0:0:0:0:
64,192,35062,1,0,0:0:0:0:
448,192,35178,1,0,0:0:0:0:
320,192,35178,1,0,0:0:0:0:
192,192,35178,1,0,0:0:0:0:
320,192,35293,1,0,0:0:0:0:
64,192,35293,1,0,0:0:0:0:
448,192,35293,1,0,0:0:0:0:
192,192,35409,1,0,0:0:0:0:
320,192,35409,1,0,0:0:0:0:
96,192,35524,1,0,0:0:0:0:
192,192,35524,1,0,0:0:0:0:
480,192,35524,1,0,0:0:0:0:
320,192,35582,1,0,0:0:0:0:
192,192,35639,1,0,0:0:0:0:
64,192,35697,1,0,0:0:0:0:
448,192,35755,1,0,0:0:0:0:
320,192,35755,1,0,0:0:0:0:
480,192,35870,1,0,0:0:0:0:
64,192,35870,1,0,0:0:0:0:
192,192,35870,1,0,0:0:0:0:
320,192,35985,1,0,0:0:0:0:
192,192,35985,1,0,0:0:0:0:
448,192,36101,1,0,0:0:0:0:
64,192,36101,1,0,0:0:0:0:
96,192,36216,1,0,0:0:0:0:
224,192,36216,1,0,0:0:0:0:
352,192,36216,1,0,0:0:0:0:
480,192,36274,1,0,0:0:0:0:
96,192,36332,1,0,0:0:0:0:
224,192,36389,1,0,0:0:0:0:
480,192,36447,1,0,0:0:0:0:
352,192,36505,1,0,0:0:0:0:
96,192,36562,1,0,0:0:0:0:
224,192,36562,1,0,0:0:0:0:
480,192,36620,1,0,0:0:0:0:
224,192,36678,1,0,0:0:0:0:
352,192,36678,1,0,0:0:0:0:
64,192,36678,1,0,0:0:0:0:
448,192,36735,1,0,0:0:0:0:
320,192,36793,1,0,0:0:0:0:
192,192,36851,1,0,0:0:0:0:
352,192,36909,1,0,0:0:0:0:
480,192,36909,1,0,0:0:0:0:
64,192,36909,1,0,0:0:0:0:
192,192,37024,1,0,0:0:0:0:
320,192,37024,1,0,0:0:0:0:
96,192,37139,1,0,0:0:0:0:
224,192,37139,1,0,0:0:0:0:
480,192,37139,1,0,0:0:0:0:
352,192,37255,1,0,0:0:0:0:
64,192,37255,1,0,0:0:0:0:
192,192,37370,1,0,0:0:0:0:
320,192,37370,1,0,0:0:0:0:
480,192,37370,1,0,0:0:0:0:
64,192,37428,1,0,0:0:0:0:
320,192,37485,1,0,0:0:0:0:
448,192,37485,1,0,0:0:0:0:
192,192,37543,1,0,0:0:0:0:
96,192,37601,1,0,0:0:0:0:
448,192,37601,1,0,0:0:0:0:
352,192,37601,1,0,0:0:0:0:
224,192,37716,1,0,0:0:0:0:
64,192,37716,1,0,0:0:0:0:
480,192,37716,1,0,0:0:0:0:
96,192,37832,1,0,0:0:0:0:
224,192,37832,1,0,0:0:0:0:
320,192,37832,1,0,0:0:0:0:
448,192,37889,1,0,0:0:0:0:
192,192,37947,1,0,0:0:0:0:
320,192,38005,1,0,0:0:0:0:
448,192,38062,1,0,0:0:0:0:
64,192,38062,1,0,0:0:0:0:
224,192,38178,1,0,0:0:0:0:
480,192,38178,1,0,0:0:0:0:
64,192,38178,1,0,0:0:0:0:
352,192,38293,1,0,0:0:0:0:
192,192,38293,1,0,0:0:0:0:
96,192,38409,1,0,0:0:0:0:
480,192,38409,1,0,0:0:0:0:
320,192,38409,1,0,0:0:0:0:
480,192,38524,1,0,0:0:0:0:
192,192,38524,1,0,0:0:0:0:
320,192,38582,1,0,0:0:0:0:
192,192,38639,1,0,0:0:0:0:
64,192,38639,1,0,0:0:0:0:
448,192,38639,1,0,0:0:0:0:
320,192,38697,1,0,0:0:0:0:
192,192,38755,1,0,0:0:0:0:
64,192,38755,1,0,0:0:0:0:
320,192,38870,1,0,0:0:0:0:
64,192,38870,1,0,0:0:0:0:
448,192,38870,1,0,0:0:0:0:
224,192,38985,1,0,0:0:0:0:
448,192,38985,1,0,0:0:0:0:
320,192,38985,1,0,0:0:0:0:
320,192,39101,1,0,0:0:0:0:
64,192,39101,1,0,0:0:0:0:
96,192,39216,1,0,0:0:0:0:
224,192,39216,1,0,0:0:0:0:
480,192,39216,1,0,0:0:0:0:
352,192,39274,1,0,0:0:0:0:
224,192,39332,1,0,0:0:0:0:
480,192,39389,1,0,0:0:0:0:
96,192,39447,1,0,0:0:0:0:
224,192,39447,1,0,0:0:0:0:
352,192,39447,1,0,0:0:0:0:
352,192,39562,1,0,0:0:0:0:
480,192,39562,1,0,0:0:0:0:
96,192,39678,1,0,0:0:0:0:
224,192,39678,1,0,0:0:0:0:
480,192,39678,1,0,0:0:0:0:
96,192,39793,1,0,0:0:0:0:
352,192,39793,1,0,0:0:0:0:
224,192,39909,1,0,0:0:0:0:
480,192,39909,1,0,0:0:0:0:
96,192,40024,1,0,0:0:0:0:
224,192,40024,1,0,0:0:0:0:
352,192,40024,1,0,0:0:0:0:
480,192,40082,1,0,0:0:0:0:
224,192,40139,1,0,0:0:0:0:
352,192,40197,1,0,0:0:0:0:
96,192,40255,1,0,0:0:0:0:
224,192,40255,1,0,0:0:0:0:
480,192,40255,1,0,0:0:0:0:
96,192,40370,1,0,0:0:0:0:
480,192,40370,1,0,0:0:0:0:
320,192,40485,1,0,0:0:0:0:
64,192,40485,1,0,0:0:0:0:
448,192,40485,1,0,0:0:0:0:
320,192,40601,1,0,0:0:0:0:
192,192,40601,1,0,0:0:0:0:
320,192,40716,1,0,0:0:0:0:
64,192,40716,1,0,0:0:0:0:
96,192,40832,1,0,0:0:0:0:
192,192,40832,1,0,0:0:0:0:
480,192,40832,1,0,0:0:0:0:
192,192,40947,1,0,0:0:0:0:
352,192,40947,1,0,0:0:0:0:
64,192,41062,1,0,0:0:0:0:
352,192,41062,1,0,0:0:0:0:
480,192,41062,1,0,0:0:0:0:
192,192,41120,1,0,0:0:0:0:
352,192,41178,1,0,0:0:0:0:
480,192,41178,1,0,0:0:0:0:
64,192,41178,1,0,0:0:0:0:
96,192,41293,1,0,0:0:0:0:
224,192,41293,1,0,0:0:0:0:
320,192,41293,1,0,0:0:0:0:
192,192,41409,1,0,0:0:0:0:
352,192,41409,1,0,0:0:0:0:
448,192,41409,1,0,0:0:0:0:
64,192,41524,1,0,0:0:0:0:
320,192,41524,1,0,0:0:0:0:
480,192,41524,1,0,0:0:0:0:
192,192,41582,1,0,0:0:0:0:
352,192,41639,1,0,0:0:0:0:
64,192,41697,1,0,0:0:0:0:
192,192,41755,1,0,0:0:0:0:
480,192,41755,1,0,0:0:0:0:
64,192,41870,1,0,0:0:0:0:
320,192,41870,1,0,0:0:0:0:
448,192,41870,1,0,0:0:0:0:
96,192,41985,1,0,0:0:0:0:
192,192,41985,1,0,0:0:0:0:
480,192,42101,1,0,0:0:0:0:
192,192,42101,1,0,0:0:0:0:
320,192,42101,1,0,0:0:0:0:
96,192,42216,1,0,0:0:0:0:
480,192,42216,1,0,0:0:0:0:
320,192,42274,1,0,0:0:0:0:
192,192,42332,1,0,0:0:0:0:
448,192,42332,1,0,0:0:0:0:
64,192,42332,1,0,0:0:0:0:
320,192,42389,1,0,0:0:0:0:
64,192,42447,1,0,0:0:0:0:
192,192,42447,1,0,0:0:0:0:
448,192,42562,1,0,0:0:0:0:
352,192,42562,1,0,0:0:0:0:
192,192,42562,1,0,0:0:0:0:
64,192,42678,1,0,0:0:0:0:
320,192,42678,1,0,0:0:0:0:
480,192,42678,1,0,0:0:0:0:
192,192,42793,1,0,0:0:0:0:
64,192,42793,1,0,0:0:0:0:
96,192,42909,1,0,0:0:0:0:
448,192,42909,1,0,0:0:0:0:
352,192,42909,1,0,0:0:0:0:
192,192,42966,1,0,0:0:0:0:
320,192,43024,1,0,0:0:0:0:
64,192,43082,1,0,0:0:0:0:
448,192,43139,1,0,0:0:0:0:
224,192,43139,1,0,0:0:0:0:
320,192,43139,1,0,0:0:0:0:
192,192,43255,1,0,0:0:0:0:
320,192,43255,1,0,0:0:0:0:
64,192,43255,1,0,0:0:0:0:
352,192,43370,1,0,0:0:0:0:
64,192,43370,1,0,0:0:0:0:
448,192,43428,1,0,0:0:0:0:
192,192,43485,1,0,0:0:0:0:
320,192,43543,1,0,0:0:0:0:
448,192,43601,1,0,0:0:0:0:
64,192,43601,1,0,0:0:0:0:
192,192,43659,1,0,0:0:0:0:
320,192,43716,1,0,0:0:0:0:
480,192,43716,1,0,0:0:0:0:
224,192,43774,1,0,0:0:0:0:
64,192,43774,1,0,0:0:0:0:
352,192,43832,1,0,0:0:0:0:
480,192,43832,1,0,0:0:0:0:
224,192,43889,1,0,0:0:0:0:
96,192,43947,1,0,0:0:0:0:
480,192,43947,1,0,0:0:0:0:
96,192,44062,1,0,0:0:0:0:
192,192,44062,1,0,0:0:0:0:
448,192,44062,1,0,0:0:0:0:
192,192,44178,1,0,0:0:0:0:
320,192,44178,1,0,0:0:0:0:
96,192,44293,1,0,0:0:0:0:
352,192,44293,1,0,0:0:0:0:
480,192,44293,1,0,0:0:0:0:
96,192,44409,1,0,0:0:0:0:
224,192,44409,1,0,0:0:0:0:
480,192,44409,1,0,0:0:0:0:
96,192,44639,128,0,44870:0:0:0:0:
352,192,44639,128,0,44870:0:0:0:0:
480,192,44639,128,0,44870:0:0:0:0:
96,192,44985,1,0,0:0:0:0:
192,192,44985,1,0,0:0:0:0:
480,192,44985,1,0,0:0:0:0:
96,192,45101,1,0,0:0:0:0:
320,192,45101,1,0,0:0:0:0:
480,192,45101,1,0,0:0:0:0:
96,192,45216,1,0,0:0:0:0:
224,192,45216,1,0,0:0:0:0:
480,192,45216,1,0,0:0:0:0:
320,192,45216,1,0,0:0:0:0:
96,192,45447,1,0,0:0:0:0:
224,192,45562,1,0,0:0:0:0:
96,192,45678,1,0,0:0:0:0:
320,192,45678,1,0,0:0:0:0:
448,192,45793,1,0,0:0:0:0:
192,192,45909,1,0,0:0:0:0:
352,192,45909,1,0,0:0:0:0:
480,192,45966,1,0,0:0:0:0:
64,192,46024,1,0,0:0:0:0:
192,192,46082,1,0,0:0:0:0:
96,192,46139,1,0,0:0:0:0:
320,192,46139,1,0,0:0:0:0:
480,192,46139,1,0,0:0:0:0:
352,192,46370,1,0,0:0:0:0:
224,192,46485,1,0,0:0:0:0:
480,192,46485,1,0,0:0:0:0:
224,192,46716,1,0,0:0:0:0:
96,192,46832,1,0,0:0:0:0:
352,192,46832,1,0,0:0:0:0:
480,192,46832,1,0,0:0:0:0:
96,192,46947,1,0,0:0:0:0:
480,192,46947,1,0,0:0:0:0:
224,192,47062,1,0,0:0:0:0:
352,192,47062,1,0,0:0:0:0:
480,192,47062,1,0,0:0:0:0:
64,192,47293,1,0,0:0:0:0:
352,192,47409,1,0,0:0:0:0:
192,192,47524,1,0,0:0:0:0:
480,192,47524,1,0,0:0:0:0:
64,192,47639,1,0,0:0:0:0:
352,192,47755,1,0,0:0:0:0:
480,192,47755,1,0,0:0:0:0:
224,192,47812,1,0,0:0:0:0:
96,192,47870,1,0,0:0:0:0:
96,192,47985,1,0,0:0:0:0:
224,192,47985,1,0,0:0:0:0:
480,192,47985,1,0,0:0:0:0:
96,192,48216,1,0,0:0:0:0:
224,192,48332,1,0,0:0:0:0:
352,192,48332,1,0,0:0:0:0:
480,192,48332,1,0,0:0:0:0:
480,192,48562,1,0,0:0:0:0:
96,192,48678,1,0,0:0:0:0:
224,192,48678,1,0,0:0:0:0:
352,192,48678,1,0,0:0:0:0:
96,192,48793,1,0,0:0:0:0:
224,192,48909,1,0,0:0:0:0:
352,192,48909,1,0,0:0:0:0:
480,192,48909,1,0,0:0:0:0:
96,192,49139,1,0,0:0:0:0:
224,192,49255,1,0,0:0:0:0:
480,192,49255,1,0,0:0:0:0:
96,192,49370,1,0,0:0:0:0:
352,192,49370,1,0,0:0:0:0:
480,192,49370,1,0,0:0:0:0:
224,192,49485,1,0,0:0:0:0:
64,192,49601,1,0,0:0:0:0:
480,192,49601,1,0,0:0:0:0:
320,192,49716,1,0,0:0:0:0:
96,192,49832,1,0,0:0:0:0:
192,192,49832,1,0,0:0:0:0:
480,192,49832,1,0,0:0:0:0:
192,192,50062,1,0,0:0:0:0:
64,192,50178,1,0,0:0:0:0:
320,192,50178,1,0,0:0:0:0:
96,192,50293,1,0,0:0:0:0:
480,192,50293,1,0,0:0:0:0:
192,192,50293,1,0,0:0:0:0:
320,192,50409,1,0,0:0:0:0:
96,192,50524,1,0,0:0:0:0:
480,192,50524,1,0,0:0:0:0:
224,192,50601,1,0,0:0:0:0:
352,192,50668,1,0,0:0:0:0:
96,192,50755,1,0,0:0:0:0:
224,192,50755,1,0,0:0:0:0:
480,192,50755,1,0,0:0:0:0:
96,192,50985,1,0,0:0:0:0:
224,192,51101,1,0,0:0:0:0:
352,192,51101,1,0,0:0:0:0:
96,192,51216,1,0,0:0:0:0:
352,192,51216,1,0,0:0:0:0:
480,192,51216,1,0,0:0:0:0:
224,192,51332,1,0,0:0:0:0:
480,192,51332,1,0,0:0:0:0:
96,192,51447,1,0,0:0:0:0:
224,192,51447,1,0,0:0:0:0:
352,192,51447,1,0,0:0:0:0:
352,192,51562,1,0,0:0:0:0:
480,192,51562,1,0,0:0:0:0:
96,192,51678,1,0,0:0:0:0:
224,192,51678,1,0,0:0:0:0:
480,192,51678,1,0,0:0:0:0:
96,192,51909,1,0,0:0:0:0:
224,192,52024,1,0,0:0:0:0:
480,192,52024,1,0,0:0:0:0:
320,192,52255,1,0,0:0:0:0:
480,192,52370,1,0,0:0:0:0:
192,192,52370,1,0,0:0:0:0:
96,192,52485,1,0,0:0:0:0:
96,192,52601,1,0,0:0:0:0:
480,192,52601,1,0,0:0:0:0:
192,192,52601,1,0,0:0:0:0:
480,192,52716,1,0,0:0:0:0:
352,192,52832,1,0,0:0:0:0:
96,192,52947,1,0,0:0:0:0:
480,192,52947,1,0,0:0:0:0:
96,192,53062,1,0,0:0:0:0:
352,192,53062,1,0,0:0:0:0:
480,192,53062,1,0,0:0:0:0:
224,192,53178,1,0,0:0:0:0:
320,192,53293,1,0,0:0:0:0:
480,192,53409,1,0,0:0:0:0:
64,192,53409,1,0,0:0:0:0:
224,192,53524,1,0,0:0:0:0:
320,192,53639,1,0,0:0:0:0:
320,192,53755,1,0,0:0:0:0:
448,192,53755,1,0,0:0:0:0:
224,192,53870,1,0,0:0:0:0:
480,192,53870,1,0,0:0:0:0:
64,192,53870,1,0,0:0:0:0:
96,192,53985,1,0,0:0:0:0:
320,192,53985,1,0,0:0:0:0:
224,192,54101,1,0,0:0:0:0:
96,192,54216,1,0,0:0:0:0:
352,192,54216,1,0,0:0:0:0:
480,192,54216,1,0,0:0:0:0:
352,192,54332,1,0,0:0:0:0:
96,192,54447,1,0,0:0:0:0:
224,192,54447,1,0,0:0:0:0:
480,192,54447,1,0,0:0:0:0:
352,192,54562,1,0,0:0:0:0:
224,192,54678,1,0,0:0:0:0:
96,192,54793,1,0,0:0:0:0:
352,192,54793,1,0,0:0:0:0:
96,192,54909,1,0,0:0:0:0:
224,192,54909,1,0,0:0:0:0:
480,192,54909,1,0,0:0:0:0:
352,192,55024,1,0,0:0:0:0:
96,192,55139,1,0,0:0:0:0:
480,192,55139,1,0,0:0:0:0:
224,192,55255,1,0,0:0:0:0:
352,192,55255,1,0,0:0:0:0:
96,192,55370,1,0,0:0:0:0:
224,192,55370,1,0,0:0:0:0:
480,192,55370,1,0,0:0:0:0:
352,192,55485,1,0,0:0:0:0:
96,192,55601,1,0,0:0:0:0:
480,192,55601,1,0,0:0:0:0:
192,192,55716,1,0,0:0:0:0:
352,192,55832,1,0,0:0:0:0:
448,192,55832,1,0,0:0:0:0:
64,192,55832,1,0,0:0:0:0:
320,192,55947,1,0,0:0:0:0:
480,192,56062,1,0,0:0:0:0:
64,192,56062,1,0,0:0:0:0:
192,192,56062,1,0,0:0:0:0:
224,192,56178,1,0,0:0:0:0:
320,192,56178,1,0,0:0:0:0:
96,192,56293,1,0,0:0:0:0:
480,192,56293,1,0,0:0:0:0:
320,192,56293,1,0,0:0:0:0:
192,192,56409,1,0,0:0:0:0:
352,192,56524,1,0,0:0:0:0:
96,192,56639,1,0,0:0:0:0:
480,192,56639,1,0,0:0:0:0:
224,192,56755,1,0,0:0:0:0:
352,192,56755,1,0,0:0:0:0:
480,192,56755,1,0,0:0:0:0:
96,192,56870,1,0,0:0:0:0:
480,192,56985,1,0,0:0:0:0:
352,192,57101,1,0,0:0:0:0:
192,192,57101,1,0,0:0:0:0:
96,192,57216,1,0,0:0:0:0:
224,192,57216,1,0,0:0:0:0:
480,192,57216,1,0,0:0:0:0:
352,192,57332,1,0,0:0:0:0:
96,192,57447,1,0,0:0:0:0:
480,192,57447,1,0,0:0:0:0:
224,192,57562,1,0,0:0:0:0:
352,192,57562,1,0,0:0:0:0:
96,192,57678,1,0,0:0:0:0:
352,192,57678,1,0,0:0:0:0:
480,192,57678,1,0,0:0:0:0:
352,192,57793,1,0,0:0:0:0:
96,192,57909,1,0,0:0:0:0:
480,192,57909,1,0,0:0:0:0:
224,192,58024,1,0,0:0:0:0:
96,192,58139,1,0,0:0:0:0:
480,192,58139,1,0,0:0:0:0:
320,192,58139,1,0,0:0:0:0:
352,192,58255,1,0,0:0:0:0:
224,192,58370,1,0,0:0:0:0:
96,192,58485,1,0,0:0:0:0:
480,192,58485,1,0,0:0:0:0:
96,192,58601,1,0,0:0:0:0:
224,192,58601,1,0,0:0:0:0:
480,192,58601,1,0,0:0:0:0:
352,192,58716,1,0,0:0:0:0:
224,192,58832,1,0,0:0:0:0:
96,192,58947,1,0,0:0:0:0:
352,192,58947,1,0,0:0:0:0:
224,192,59062,1,0,0:0:0:0:
352,192,59062,1,0,0:0:0:0:
480,192,59062,1,0,0:0:0:0:
224,192,59178,1,0,0:0:0:0:
96,192,59293,1,0,0:0:0:0:
480,192,59293,1,0,0:0:0:0:
352,192,59409,1,0,0:0:0:0:
96,192,59524,1,0,0:0:0:0:
224,192,59524,1,0,0:0:0:0:
480,192,59524,1,0,0:0:0:0:
96,192,59639,1,0,0:0:0:0:
224,192,59755,1,0,0:0:0:0:
480,192,59755,1,0,0:0:0:0:
96,192,59870,1,0,0:0:0:0:
320,192,59870,1,0,0:0:0:0:
352,192,59985,1,0,0:0:0:0:
480,192,59985,1,0,0:0:0:0:
192,192,59985,1,0,0:0:0:0:
64,192,59985,1,0,0:0:0:0:
352,192,60101,1,0,0:0:0:0:
192,192,60101,1,0,0:0:0:0:
192,192,60216,1,0,0:0:0:0:
448,192,60216,1,0,0:0:0:0:
64,192,60216,1,0,0:0:0:0:
448,192,60332,1,0,0:0:0:0:
320,192,60332,1,0,0:0:0:0:
192,192,60447,1,0,0:0:0:0:
320,192,60447,1,0,0:0:0:0:
64,192,60447,1,0,0:0:0:0:
192,192,60562,1,0,0:0:0:0:
448,192,60562,1,0,0:0:0:0:
96,192,60678,1,0,0:0:0:0:
320,192,60678,1,0,0:0:0:0:
192,192,60678,1,0,0:0:0:0:
448,192,60793,1,0,0:0:0:0:
64,192,60793,1,0,0:0:0:0:
320,192,60909,1,0,0:0:0:0:
224,192,60909,1,0,0:0:0:0:
480,192,60909,1,0,0:0:0:0:
64,192,60909,1,0,0:0:0:0:
352,192,61024,1,0,0:0:0:0:
192,192,61024,1,0,0:0:0:0:
480,192,61139,1,0,0:0:0:0:
64,192,61139,1,0,0:0:0:0:
192,192,61139,1,0,0:0:0:0:
96,192,61255,1,0,0:0:0:0:
320,192,61255,1,0,0:0:0:0:
224,192,61370,1,0,0:0:0:0:
352,192,61370,1,0,0:0:0:0:
448,192,61370,1,0,0:0:0:0:
480,192,61485,1,0,0:0:0:0:
64,192,61485,1,0,0:0:0:0:
96,192,61601,1,0,0:0:0:0:
352,192,61601,1,0,0:0:0:0:
192,192,61601,1,0,0:0:0:0:
192,192,61716,1,0,0:0:0:0:
448,192,61716,1,0,0:0:0:0:
224,192,61832,1,0,0:0:0:0:
480,192,61832,1,0,0:0:0:0:
352,192,61832,1,0,0:0:0:0:
64,192,61832,1,0,0:0:0:0:
352,192,61947,1,0,0:0:0:0:
96,192,61947,1,0,0:0:0:0:
480,192,62062,1,0,0:0:0:0:
224,192,62062,1,0,0:0:0:0:
320,192,62062,1,0,0:0:0:0:
96,192,62178,1,0,0:0:0:0:
224,192,62178,1,0,0:0:0:0:
448,192,62178,1,0,0:0:0:0:
320,192,62293,1,0,0:0:0:0:
192,192,62293,1,0,0:0:0:0:
96,192,62409,1,0,0:0:0:0:
448,192,62409,1,0,0:0:0:0:
192,192,62524,1,0,0:0:0:0:
64,192,62524,1,0,0:0:0:0:
320,192,62524,1,0,0:0:0:0:
192,192,62639,1,0,0:0:0:0:
448,192,62639,1,0,0:0:0:0:
96,192,62755,1,0,0:0:0:0:
320,192,62755,1,0,0:0:0:0:
480,192,62755,1,0,0:0:0:0:
192,192,62755,1,0,0:0:0:0:
352,192,62870,1,0,0:0:0:0:
64,192,62870,1,0,0:0:0:0:
480,192,62985,1,0,0:0:0:0:
192,192,62985,1,0,0:0:0:0:
320,192,62985,1,0,0:0:0:0:
448,192,63101,1,0,0:0:0:0:
64,192,63101,1,0,0:0:0:0:
96,192,63216,1,0,0:0:0:0:
224,192,63216,1,0,0:0:0:0:
480,192,63332,1,0,0:0:0:0:
320,192,63332,1,0,0:0:0:0:
192,192,63447,1,0,0:0:0:0:
320,192,63447,1,0,0:0:0:0:
64,192,63447,1,0,0:0:0:0:
192,192,63562,1,0,0:0:0:0:
320,192,63562,1,0,0:0:0:0:
448,192,63562,1,0,0:0:0:0:
96,192,63678,1,0,0:0:0:0:
320,192,63678,1,0,0:0:0:0:
480,192,63678,1,0,0:0:0:0:
192,192,63678,1,0,0:0:0:0:
64,192,63793,1,0,0:0:0:0:
192,192,63793,1,0,0:0:0:0:
64,192,63909,1,0,0:0:0:0:
320,192,63909,1,0,0:0:0:0:
448,192,63909,1,0,0:0:0:0:
320,192,64024,1,0,0:0:0:0:
192,192,64024,1,0,0:0:0:0:
448,192,64024,1,0,0:0:0:0:
64,192,64139,1,0,0:0:0:0:
448,192,64139,1,0,0:0:0:0:
96,192,64255,1,0,0:0:0:0:
192,192,64255,1,0,0:0:0:0:
320,192,64370,1,0,0:0:0:0:
192,192,64370,1,0,0:0:0:0:
480,192,64370,1,0,0:0:0:0:
64,192,64485,1,0,0:0:0:0:
320,192,64485,1,0,0:0:0:0:
96,192,64601,1,0,0:0:0:0:
224,192,64601,1,0,0:0:0:0:
352,192,64601,1,0,0:0:0:0:
448,192,64601,1,0,0:0:0:0:
224,192,64716,1,0,0:0:0:0:
448,192,64716,1,0,0:0:0:0:
96,192,64832,1,0,0:0:0:0:
448,192,64832,1,0,0:0:0:0:
320,192,64832,1,0,0:0:0:0:
64,192,64947,1,0,0:0:0:0:
320,192,64947,1,0,0:0:0:0:
192,192,64947,1,0,0:0:0:0:
192,192,65062,1,0,0:0:0:0:
448,192,65062,1,0,0:0:0:0:
96,192,65178,1,0,0:0:0:0:
320,192,65178,1,0,0:0:0:0:
352,192,65293,1,0,0:0:0:0:
480,192,65293,1,0,0:0:0:0:
192,192,65293,1,0,0:0:0:0:
448,192,65409,1,0,0:0:0:0:
64,192,65409,1,0,0:0:0:0:
96,192,65524,1,0,0:0:0:0:
480,192,65524,1,0,0:0:0:0:
192,192,65524,1,0,0:0:0:0:
320,192,65524,1,0,0:0:0:0:
320,192,65639,1,0,0:0:0:0:
192,192,65639,1,0,0:0:0:0:
96,192,65755,1,0,0:0:0:0:
320,192,65755,1,0,0:0:0:0:
448,192,65755,1,0,0:0:0:0:
96,192,65870,1,0,0:0:0:0:
192,192,65870,1,0,0:0:0:0:
448,192,65870,1,0,0:0:0:0:
320,192,65985,1,0,0:0:0:0:
192,192,65985,1,0,0:0:0:0:
448,192,66101,1,0,0:0:0:0:
64,192,66101,1,0,0:0:0:0:
64,192,66216,1,0,0:0:0:0:
320,192,66216,1,0,0:0:0:0:
480,192,66216,1,0,0:0:0:0:
192,192,66332,1,0,0:0:0:0:
320,192,66332,1,0,0:0:0:0:
192,192,66447,1,0,0:0:0:0:
352,192,66447,1,0,0:0:0:0:
480,192,66447,1,0,0:0:0:0:
64,192,66447,1,0,0:0:0:0:
192,192,66562,1,0,0:0:0:0:
64,192,66562,1,0,0:0:0:0:
64,192,66678,1,0,0:0:0:0:
352,192,66678,1,0,0:0:0:0:
448,192,66678,1,0,0:0:0:0:
224,192,66793,1,0,0:0:0:0:
320,192,66793,1,0,0:0:0:0:
448,192,66909,1,0,0:0:0:0:
192,192,66909,1,0,0:0:0:0:
64,192,66909,1,0,0:0:0:0:
320,192,66966,1,0,0:0:0:0:
64,192,67024,1,0,0:0:0:0:
448,192,67024,1,0,0:0:0:0:
192,192,67082,1,0,0:0:0:0:
448,192,67139,1,0,0:0:0:0:
320,192,67139,1,0,0:0:0:0:
64,192,67139,1,0,0:0:0:0:
96,192,67255,1,0,0:0:0:0:
448,192,67255,1,0,0:0:0:0:
320,192,67255,1,0,0:0:0:0:
192,192,67370,1,0,0:0:0:0:
64,192,67370,1,0,0:0:0:0:
480,192,67370,1,0,0:0:0:0:
320,192,67370,1,0,0:0:0:0:
320,192,67485,1,0,0:0:0:0:
192,192,67485,1,0,0:0:0:0:
96,192,67601,1,0,0:0:0:0:
320,192,67601,1,0,0:0:0:0:
480,192,67601,1,0,0:0:0:0:
320,192,67716,1,0,0:0:0:0:
192,192,67716,1,0,0:0:0:0:
480,192,67832,1,0,0:0:0:0:
64,192,67832,1,0,0:0:0:0:
192,192,67832,1,0,0:0:0:0:
448,192,67947,1,0,0:0:0:0:
64,192,67947,1,0,0:0:0:0:
96,192,68062,1,0,0:0:0:0:
192,192,68062,1,0,0:0:0:0:
320,192,68062,1,0,0:0:0:0:
480,192,68178,1,0,0:0:0:0:
320,192,68178,1,0,0:0:0:0:
96,192,68293,1,0,0:0:0:0:
224,192,68293,1,0,0:0:0:0:
320,192,68293,1,0,0:0:0:0:
448,192,68293,1,0,0:0:0:0:
192,192,68409,1,0,0:0:0:0:
64,192,68409,1,0,0:0:0:0:
96,192,68524,1,0,0:0:0:0:
480,192,68524,1,0,0:0:0:0:
320,192,68524,1,0,0:0:0:0:
352,192,68639,1,0,0:0:0:0:
192,192,68639,1,0,0:0:0:0:
352,192,68755,1,0,0:0:0:0:
480,192,68755,1,0,0:0:0:0:
64,192,68755,1,0,0:0:0:0:
448,192,68870,1,0,0:0:0:0:
192,192,68870,1,0,0:0:0:0:
320,192,68985,1,0,0:0:0:0:
192,192,68985,1,0,0:0:0:0:
64,192,68985,1,0,0:0:0:0:
96,192,69101,1,0,0:0:0:0:
448,192,69101,1,0,0:0:0:0:
224,192,69216,1,0,0:0:0:0:
352,192,69216,1,0,0:0:0:0:
480,192,69216,1,0,0:0:0:0:
64,192,69216,1,0,0:0:0:0:
320,192,69332,1,0,0:0:0:0:
192,192,69332,1,0,0:0:0:0:
448,192,69447,1,0,0:0:0:0:
64,192,69447,1,0,0:0:0:0:
192,192,69447,1,0,0:0:0:0:
448,192,69562,1,0,0:0:0:0:
352,192,69562,1,0,0:0:0:0:
64,192,69562,1,0,0:0:0:0:
192,192,69678,1,0,0:0:0:0:
320,192,69678,1,0,0:0:0:0:
96,192,69793,1,0,0:0:0:0:
448,192,69793,1,0,0:0:0:0:
192,192,69909,1,0,0:0:0:0:
480,192,69909,1,0,0:0:0:0:
64,192,69909,1,0,0:0:0:0:
320,192,70024,1,0,0:0:0:0:
192,192,70024,1,0,0:0:0:0:
96,192,70139,1,0,0:0:0:0:
480,192,70139,1,0,0:0:0:0:
320,192,70139,1,0,0:0:0:0:
192,192,70139,1,0,0:0:0:0:
64,192,70255,1,0,0:0:0:0:
448,192,70255,1,0,0:0:0:0:
448,192,70370,1,0,0:0:0:0:
224,192,70370,1,0,0:0:0:0:
320,192,70370,1,0,0:0:0:0:
192,192,70485,1,0,0:0:0:0:
64,192,70485,1,0,0:0:0:0:
352,192,70601,1,0,0:0:0:0:
448,192,70601,1,0,0:0:0:0:
320,192,70716,1,0,0:0:0:0:
192,192,70716,1,0,0:0:0:0:
96,192,70832,1,0,0:0:0:0:
352,192,70832,1,0,0:0:0:0:
480,192,70832,1,0,0:0:0:0:
96,192,70947,1,0,0:0:0:0:
224,192,70947,1,0,0:0:0:0:
480,192,70947,1,0,0:0:0:0:
96,192,71062,1,0,0:0:0:0:
352,192,71062,1,0,0:0:0:0:
480,192,71062,1,0,0:0:0:0:
192,192,71062,1,0,0:0:0:0:
224,192,71178,1,0,0:0:0:0:
352,192,71178,1,0,0:0:0:0:
96,192,71293,1,0,0:0:0:0:
480,192,71293,1,0,0:0:0:0:
224,192,71409,1,0,0:0:0:0:
352,192,71409,1,0,0:0:0:0:
480,192,71409,1,0,0:0:0:0:
96,192,71524,1,0,0:0:0:0:
224,192,71524,1,0,0:0:0:0:
96,192,71639,1,0,0:0:0:0:
480,192,71639,1,0,0:0:0:0:
224,192,71755,1,0,0:0:0:0:
352,192,71755,1,0,0:0:0:0:
480,192,71755,1,0,0:0:0:0:
64,192,71870,1,0,0:0:0:0:
320,192,71870,1,0,0:0:0:0:
96,192,71985,1,0,0:0:0:0:
448,192,71985,1,0,0:0:0:0:
192,192,71985,1,0,0:0:0:0:
320,192,71985,1,0,0:0:0:0:
480,192,72101,1,0,0:0:0:0:
192,192,72101,1,0,0:0:0:0:
96,192,72216,1,0,0:0:0:0:
352,192,72216,1,0,0:0:0:0:
192,192,72216,1,0,0:0:0:0:
96,192,72332,1,0,0:0:0:0:
480,192,72332,1,0,0:0:0:0:
320,192,72332,1,0,0:0:0:0:
480,192,72447,1,0,0:0:0:0:
192,192,72447,1,0,0:0:0:0:
96,192,72562,1,0,0:0:0:0:
224,192,72562,1,0,0:0:0:0:
352,192,72562,1,0,0:0:0:0:
480,192,72678,1,0,0:0:0:0:
64,192,72678,1,0,0:0:0:0:
320,192,72678,1,0,0:0:0:0:
448,192,72793,1,0,0:0:0:0:
192,192,72793,1,0,0:0:0:0:
96,192,72909,1,0,0:0:0:0:
352,192,72909,1,0,0:0:0:0:
480,192,72909,1,0,0:0:0:0:
192,192,72909,1,0,0:0:0:0:
96,192,73024,1,0,0:0:0:0:
320,192,73024,1,0,0:0:0:0:
192,192,73024,1,0,0:0:0:0:
224,192,73139,1,0,0:0:0:0:
320,192,73139,1,0,0:0:0:0:
480,192,73139,1,0,0:0:0:0:
448,192,73255,1,0,0:0:0:0:
64,192,73255,1,0,0:0:0:0:
224,192,73370,1,0,0:0:0:0:
320,192,73370,1,0,0:0:0:0:
96,192,73485,1,0,0:0:0:0:
192,192,73485,1,0,0:0:0:0:
96,192,73601,1,0,0:0:0:0:
352,192,73601,1,0,0:0:0:0:
480,192,73601,1,0,0:0:0:0:
224,192,73716,1,0,0:0:0:0:
352,192,73716,1,0,0:0:0:0:
96,192,73832,1,0,0:0:0:0:
224,192,73832,1,0,0:0:0:0:
480,192,73832,1,0,0:0:0:0:
352,192,73889,1,0,0:0:0:0:
224,192,73947,1,0,0:0:0:0:
96,192,74005,1,0,0:0:0:0:
352,192,74062,1,0,0:0:0:0:
480,192,74062,1,0,0:0:0:0:
224,192,74120,1,0,0:0:0:0:
96,192,74178,1,0,0:0:0:0:
480,192,74235,1,0,0:0:0:0:
224,192,74293,1,0,0:0:0:0:
352,192,74293,1,0,0:0:0:0:
96,192,74351,1,0,0:0:0:0:
352,192,74409,1,0,0:0:0:0:
480,192,74409,1,0,0:0:0:0:
224,192,74466,1,0,0:0:0:0:
96,192,74524,1,0,0:0:0:0:
352,192,74524,1,0,0:0:0:0:
480,192,74524,1,0,0:0:0:0:
224,192,74582,1,0,0:0:0:0:
96,192,74639,1,0,0:0:0:0:
480,192,74639,1,0,0:0:0:0:
352,192,74697,1,0,0:0:0:0:
96,192,74755,1,0,0:0:0:0:
224,192,74755,1,0,0:0:0:0:
480,192,74755,1,0,0:0:0:0:
352,192,74812,1,0,0:0:0:0:
224,192,74870,1,0,0:0:0:0:
96,192,74928,1,0,0:0:0:0:
224,192,74985,1,0,0:0:0:0:
352,192,74985,1,0,0:0:0:0:
480,192,74985,1,0,0:0:0:0:
96,192,75043,1,0,0:0:0:0:
352,192,75101,1,0,0:0:0:0:
480,192,75159,1,0,0:0:0:0:
96,192,75216,1,0,0:0:0:0:
224,192,75216,1,0,0:0:0:0:
352,192,75274,1,0,0:0:0:0:
96,192,75332,1,0,0:0:0:0:
224,192,75332,1,0,0:0:0:0:
352,192,75389,1,0,0:0:0:0:
96,192,75447,1,0,0:0:0:0:
224,192,75447,1,0,0:0:0:0:
480,192,75447,1,0,0:0:0:0:
352,192,75505,1,0,0:0:0:0:
64,192,75562,1,0,0:0:0:0:
480,192,75562,1,0,0:0:0:0:
192,192,75620,1,0,0:0:0:0:
352,192,75678,1,0,0:0:0:0:
64,192,75735,1,0,0:0:0:0:
352,192,75793,1,0,0:0:0:0:
480,192,75793,1,0,0:0:0:0:
224,192,75851,1,0,0:0:0:0:
96,192,75909,1,0,0:0:0:0:
352,192,75909,1,0,0:0:0:0:
480,192,75909,1,0,0:0:0:0:
224,192,75966,1,0,0:0:0:0:
480,192,76024,1,0,0:0:0:0:
352,192,76082,1,0,0:0:0:0:
96,192,76139,1,0,0:0:0:0:
224,192,76139,1,0,0:0:0:0:
480,192,76197,1,0,0:0:0:0:
96,192,76255,1,0,0:0:0:0:
352,192,76255,1,0,0:0:0:0:
224,192,76312,1,0,0:0:0:0:
96,192,76370,1,0,0:0:0:0:
352,192,76370,1,0,0:0:0:0:
480,192,76370,1,0,0:0:0:0:
224,192,76428,1,0,0:0:0:0:
480,192,76485,1,0,0:0:0:0:
352,192,76543,1,0,0:0:0:0:
96,192,76601,1,0,0:0:0:0:
224,192,76601,1,0,0:0:0:0:
480,192,76659,1,0,0:0:0:0:
96,192,76716,1,0,0:0:0:0:
224,192,76774,1,0,0:0:0:0:
96,192,76832,1,0,0:0:0:0:
352,192,76832,1,0,0:0:0:0:
480,192,76832,1,0,0:0:0:0:
224,192,76889,1,0,0:0:0:0:
352,192,76947,1,0,0:0:0:0:
480,192,77005,1,0,0:0:0:0:
96,192,77062,1,0,0:0:0:0:
224,192,77062,1,0,0:0:0:0:
352,192,77120,1,0,0:0:0:0:
96,192,77178,1,0,0:0:0:0:
480,192,77178,1,0,0:0:0:0:
224,192,77235,1,0,0:0:0:0:
96,192,77293,1,0,0:0:0:0:
352,192,77293,1,0,0:0:0:0:
480,192,77293,1,0,0:0:0:0:
224,192,77351,1,0,0:0:0:0:
352,192,77409,1,0,0:0:0:0:
480,192,77409,1,0,0:0:0:0:
96,192,77466,1,0,0:0:0:0:
224,192,77524,1,0,0:0:0:0:
352,192,77524,1,0,0:0:0:0:
480,192,77582,1,0,0:0:0:0:
96,192,77639,1,0,0:0:0:0:
224,192,77639,1,0,0:0:0:0:
352,192,77697,1,0,0:0:0:0:
96,192,77755,1,0,0:0:0:0:
224,192,77755,1,0,0:0:0:0:
352,192,77812,1,0,0:0:0:0:
480,192,77812,1,0,0:0:0:0:
96,192,77870,1,0,0:0:0:0:
224,192,77870,1,0,0:0:0:0:
352,192,77928,1,0,0:0:0:0:
480,192,77928,1,0,0:0:0:0:
96,192,77985,1,0,0:0:0:0:
224,192,77985,1,0,0:0:0:0:
352,192,78043,1,0,0:0:0:0:
224,192,78101,1,0,0:0:0:0:
480,192,78101,1,0,0:0:0:0:
96,192,78159,1,0,0:0:0:0:
224,192,78216,1,0,0:0:0:0:
352,192,78216,1,0,0:0:0:0:
480,192,78216,1,0,0:0:0:0:
96,192,78274,1,0,0:0:0:0:
352,192,78332,1,0,0:0:0:0:
480,192,78332,1,0,0:0:0:0:
224,192,78389,1,0,0:0:0:0:
96,192,78447,1,0,0:0:0:0:
480,192,78447,1,0,0:0:0:0:
224,192,78505,1,0,0:0:0:0:
352,192,78562,1,0,0:0:0:0:
96,192,78620,1,0,0:0:0:0:
224,192,78678,1,0,0:0:0:0:
352,192,78678,1,0,0:0:0:0:
480,192,78678,1,0,0:0:0:0:
96,192,78735,1,0,0:0:0:0:
352,192,78793,1,0,0:0:0:0:
480,192,78851,1,0,0:0:0:0:
96,192,78909,1,0,0:0:0:0:
224,192,78909,1,0,0:0:0:0:
352,192,78966,1,0,0:0:0:0:
96,192,79024,1,0,0:0:0:0:
224,192,79024,1,0,0:0:0:0:
352,192,79082,1,0,0:0:0:0:
96,192,79139,1,0,0:0:0:0:
224,192,79139,1,0,0:0:0:0:
480,192,79139,1,0,0:0:0:0:
352,192,79197,1,0,0:0:0:0:
64,192,79255,1,0,0:0:0:0:
480,192,79255,1,0,0:0:0:0:
192,192,79312,1,0,0:0:0:0:
352,192,79370,1,0,0:0:0:0:
480,192,79370,1,0,0:0:0:0:
224,192,79428,1,0,0:0:0:0:
352,192,79485,1,0,0:0:0:0:
480,192,79485,1,0,0:0:0:0:
224,192,79543,1,0,0:0:0:0:
96,192,79601,1,0,0:0:0:0:
352,192,79601,1,0,0:0:0:0:
480,192,79601,1,0,0:0:0:0:
224,192,79659,1,0,0:0:0:0:
64,192,79716,1,0,0:0:0:0:
320,192,79774,1,0,0:0:0:0:
224,192,79832,1,0,0:0:0:0:
64,192,79832,1,0,0:0:0:0:
480,192,79832,1,0,0:0:0:0:
320,192,79889,1,0,0:0:0:0:
64,192,79947,1,0,0:0:0:0:
448,192,79947,1,0,0:0:0:0:
192,192,80005,1,0,0:0:0:0:
64,192,80062,1,0,0:0:0:0:
320,192,80062,1,0,0:0:0:0:
480,192,80062,1,0,0:0:0:0:
192,192,80120,1,0,0:0:0:0:
320,192,80178,1,0,0:0:0:0:
64,192,80235,1,0,0:0:0:0:
448,192,80293,1,0,0:0:0:0:
192,192,80293,1,0,0:0:0:0:
320,192,80293,1,0,0:0:0:0:
64,192,80351,1,0,0:0:0:0:
448,192,80409,1,0,0:0:0:0:
192,192,80409,1,0,0:0:0:0:
320,192,80466,1,0,0:0:0:0:
448,192,80524,1,0,0:0:0:0:
64,192,80524,1,0,0:0:0:0:
192,192,80524,1,0,0:0:0:0:
320,192,80582,1,0,0:0:0:0:
192,192,80639,1,0,0:0:0:0:
64,192,80639,1,0,0:0:0:0:
320,192,80697,1,0,0:0:0:0:
448,192,80755,1,0,0:0:0:0:
64,192,80755,1,0,0:0:0:0:
192,192,80812,1,0,0:0:0:0:
448,192,80870,1,0,0:0:0:0:
320,192,80870,1,0,0:0:0:0:
192,192,80928,1,0,0:0:0:0:
448,192,80985,1,0,0:0:0:0:
64,192,80985,1,0,0:0:0:0:
320,192,80985,1,0,0:0:0:0:
192,192,81043,1,0,0:0:0:0:
64,192,81101,1,0,0:0:0:0:
448,192,81101,1,0,0:0:0:0:
352,192,81159,1,0,0:0:0:0:
96,192,81216,1,0,0:0:0:0:
224,192,81216,1,0,0:0:0:0:
352,192,81274,1,0,0:0:0:0:
480,192,81274,1,0,0:0:0:0:
96,192,81332,1,0,0:0:0:0:
224,192,81332,1,0,0:0:0:0:
352,192,81389,1,0,0:0:0:0:
480,192,81389,1,0,0:0:0:0:
96,192,81447,1,0,0:0:0:0:
224,192,81447,1,0,0:0:0:0:
480,192,81505,1,0,0:0:0:0:
192,192,81562,1,0,0:0:0:0:
320,192,81562,1,0,0:0:0:0:
448,192,81620,1,0,0:0:0:0:
64,192,81620,1,0,0:0:0:0:
192,192,81678,1,0,0:0:0:0:
320,192,81678,1,0,0:0:0:0:
64,192,81735,1,0,0:0:0:0:
320,192,81793,1,0,0:0:0:0:
448,192,81793,1,0,0:0:0:0:
192,192,81851,1,0,0:0:0:0:
448,192,81909,1,0,0:0:0:0:
64,192,81909,1,0,0:0:0:0:
320,192,81966,1,0,0:0:0:0:
448,192,82024,1,0,0:0:0:0:
192,192,82024,1,0,0:0:0:0:
64,192,82082,1,0,0:0:0:0:
448,192,82139,1,0,0:0:0:0:
192,192,82139,1,0,0:0:0:0:
320,192,82139,1,0,0:0:0:0:
64,192,82197,1,0,0:0:0:0:
448,192,82255,1,0,0:0:0:0:
320,192,82312,1,0,0:0:0:0:
96,192,82370,1,0,0:0:0:0:
224,192,82370,1,0,0:0:0:0:
448,192,82370,1,0,0:0:0:0:
320,192,82428,1,0,0:0:0:0:
96,192,82485,1,0,0:0:0:0:
224,192,82485,1,0,0:0:0:0:
448,192,82543,1,0,0:0:0:0:
320,192,82601,1,0,0:0:0:0:
64,192,82659,1,0,0:0:0:0:
320,192,82716,1,0,0:0:0:0:
448,192,82716,1,0,0:0:0:0:
192,192,82774,1,0,0:0:0:0:
96,192,82832,1,0,0:0:0:0:
448,192,82832,1,0,0:0:0:0:
352,192,82832,1,0,0:0:0:0:
192,192,82889,1,0,0:0:0:0:
448,192,82947,1,0,0:0:0:0:
320,192,83005,1,0,0:0:0:0:
192,192,83062,1,0,0:0:0:0:
64,192,83062,1,0,0:0:0:0:
480,192,83062,1,0,0:0:0:0:
320,192,83120,1,0,0:0:0:0:
64,192,83178,1,0,0:0:0:0:
192,192,83235,1,0,0:0:0:0:
96,192,83293,1,0,0:0:0:0:
448,192,83293,1,0,0:0:0:0:
352,192,83293,1,0,0:0:0:0:
192,192,83351,1,0,0:0:0:0:
448,192,83409,1,0,0:0:0:0:
320,192,83409,1,0,0:0:0:0:
64,192,83466,1,0,0:0:0:0:
192,192,83524,1,0,0:0:0:0:
320,192,83582,1,0,0:0:0:0:
64,192,83639,1,0,0:0:0:0:
448,192,83639,1,0,0:0:0:0:
224,192,83697,1,0,0:0:0:0:
96,192,83755,1,0,0:0:0:0:
352,192,83755,1,0,0:0:0:0:
480,192,83755,1,0,0:0:0:0:
224,192,83812,1,0,0:0:0:0:
448,192,83870,1,0,0:0:0:0:
320,192,83928,1,0,0:0:0:0:
96,192,83985,1,0,0:0:0:0:
224,192,83985,1,0,0:0:0:0:
448,192,83985,1,0,0:0:0:0:
320,192,84043,1,0,0:0:0:0:
64,192,84101,1,0,0:0:0:0:
224,192,84159,1,0,0:0:0:0:
96,192,84216,1,0,0:0:0:0:
352,192,84216,1,0,0:0:0:0:
480,192,84216,1,0,0:0:0:0:
224,192,84274,1,0,0:0:0:0:
448,192,84332,1,0,0:0:0:0:
352,192,84389,1,0,0:0:0:0:
96,192,84447,1,0,0:0:0:0:
224,192,84447,1,0,0:0:0:0:
480,192,84447,1,0,0:0:0:0:
352,192,84505,1,0,0:0:0:0:
64,192,84562,1,0,0:0:0:0:
448,192,84562,1,0,0:0:0:0:
192,192,84620,1,0,0:0:0:0:
64,192,84678,1,0,0:0:0:0:
352,192,84678,1,0,0:0:0:0:
448,192,84678,1,0,0:0:0:0:
192,192,84735,1,0,0:0:0:0:
64,192,84793,1,0,0:0:0:0:
320,192,84851,1,0,0:0:0:0:
192,192,84909,1,0,0:0:0:0:
448,192,84909,1,0,0:0:0:0:
64,192,84909,1,0,0:0:0:0:
320,192,84966,1,0,0:0:0:0:
448,192,85024,1,0,0:0:0:0:
64,192,85082,1,0,0:0:0:0:
192,192,85139,1,0,0:0:0:0:
320,192,85139,1,0,0:0:0:0:
448,192,85197,1,0,0:0:0:0:
192,192,85255,1,0,0:0:0:0:
320,192,85255,1,0,0:0:0:0:
64,192,85255,1,0,0:0:0:0:
448,192,85312,1,0,0:0:0:0:
192,192,85370,1,0,0:0:0:0:
320,192,85428,1,0,0:0:0:0:
448,192,85485,1,0,0:0:0:0:
64,192,85485,1,0,0:0:0:0:
192,192,85543,1,0,0:0:0:0:
320,192,85601,1,0,0:0:0:0:
64,192,85601,1,0,0:0:0:0:
448,192,85601,1,0,0:0:0:0:
192,192,85659,1,0,0:0:0:0:
448,192,85716,1,0,0:0:0:0:
320,192,85716,1,0,0:0:0:0:
64,192,85774,1,0,0:0:0:0:
320,192,85832,1,0,0:0:0:0:
192,192,85832,1,0,0:0:0:0:
448,192,85889,1,0,0:0:0:0:
64,192,85947,1,0,0:0:0:0:
192,192,86005,1,0,0:0:0:0:
96,192,86062,1,0,0:0:0:0:
320,192,86062,1,0,0:0:0:0:
480,192,86062,1,0,0:0:0:0:
192,192,86120,1,0,0:0:0:0:
320,192,86178,1,0,0:0:0:0:
480,192,86178,1,0,0:0:0:0:
224,192,86235,1,0,0:0:0:0:
64,192,86293,1,0,0:0:0:0:
448,192,86351,1,0,0:0:0:0:
320,192,86409,1,0,0:0:0:0:
192,192,86409,1,0,0:0:0:0:
64,192,86466,1,0,0:0:0:0:
320,192,86524,1,0,0:0:0:0:
224,192,86524,1,0,0:0:0:0:
448,192,86524,1,0,0:0:0:0:
64,192,86582,1,0,0:0:0:0:
448,192,86639,1,0,0:0:0:0:
320,192,86697,1,0,0:0:0:0:
96,192,86755,1,0,0:0:0:0:
448,192,86755,1,0,0:0:0:0:
192,192,86755,1,0,0:0:0:0:
320,192,86812,1,0,0:0:0:0:
64,192,86870,1,0,0:0:0:0:
192,192,86928,1,0,0:0:0:0:
64,192,86985,1,0,0:0:0:0:
320,192,86985,1,0,0:0:0:0:
480,192,86985,1,0,0:0:0:0:
192,192,87043,1,0,0:0:0:0:
320,192,87101,1,0,0:0:0:0:
64,192,87159,1,0,0:0:0:0:
192,192,87216,1,0,0:0:0:0:
320,192,87216,1,0,0:0:0:0:
480,192,87216,1,0,0:0:0:0:
64,192,87274,1,0,0:0:0:0:
448,192,87332,1,0,0:0:0:0:
192,192,87332,1,0,0:0:0:0:
320,192,87389,1,0,0:0:0:0:
192,192,87447,1,0,0:0:0:0:
64,192,87447,1,0,0:0:0:0:
480,192,87447,1,0,0:0:0:0:
320,192,87505,1,0,0:0:0:0:
192,192,87562,1,0,0:0:0:0:
64,192,87562,1,0,0:0:0:0:
448,192,87620,1,0,0:0:0:0:
320,192,87678,1,0,0:0:0:0:
192,192,87678,1,0,0:0:0:0:
64,192,87735,1,0,0:0:0:0:
448,192,87793,1,0,0:0:0:0:
320,192,87851,1,0,0:0:0:0:
96,192,87909,1,0,0:0:0:0:
224,192,87909,1,0,0:0:0:0:
448,192,87909,1,0,0:0:0:0:
320,192,87966,1,0,0:0:0:0:
64,192,88024,1,0,0:0:0:0:
192,192,88082,1,0,0:0:0:0:
448,192,88139,1,0,0:0:0:0:
320,192,88139,1,0,0:0:0:0:
192,192,88197,1,0,0:0:0:0:
64,192,88255,1,0,0:0:0:0:
448,192,88312,1,0,0:0:0:0:
96,192,88370,1,0,0:0:0:0:
224,192,88370,1,0,0:0:0:0:
320,192,88370,1,0,0:0:0:0:
448,192,88428,1,0,0:0:0:0:
224,192,88485,1,0,0:0:0:0:
96,192,88543,1,0,0:0:0:0:
352,192,88601,1,0,0:0:0:0:
480,192,88601,1,0,0:0:0:0:
96,192,88659,1,0,0:0:0:0:
224,192,88659,1,0,0:0:0:0:
352,192,88716,1,0,0:0:0:0:
480,192,88716,1,0,0:0:0:0:
96,192,88774,1,0,0:0:0:0:
224,192,88774,1,0,0:0:0:0:
352,192,88832,1,0,0:0:0:0:
480,192,88832,1,0,0:0:0:0:
224,192,88947,1,0,0:0:0:0:
352,192,88947,1,0,0:0:0:0:
96,192,89005,1,0,0:0:0:0:
480,192,89005,1,0,0:0:0:0:
224,192,89062,1,0,0:0:0:0:
352,192,89062,1,0,0:0:0:0:
480,192,89120,1,0,0:0:0:0:
96,192,89178,1,0,0:0:0:0:
224,192,89178,1,0,0:0:0:0:
352,192,89235,1,0,0:0:0:0:
96,192,89293,1,0,0:0:0:0:
480,192,89293,1,0,0:0:0:0:
224,192,89351,1,0,0:0:0:0:
352,192,89409,1,0,0:0:0:0:
480,192,89409,1,0,0:0:0:0:
96,192,89466,1,0,0:0:0:0:
224,192,89524,1,0,0:0:0:0:
352,192,89524,1,0,0:0:0:0:
480,192,89524,1,0,0:0:0:0:
96,192,89582,1,0,0:0:0:0:
224,192,89639,1,0,0:0:0:0:
352,192,89697,1,0,0:0:0:0:
480,192,89755,1,0,0:0:0:0:
96,192,89812,1,0,0:0:0:0:
224,192,89870,1,0,0:0:0:0:
352,192,89870,1,0,0:0:0:0:
480,192,89928,1,0,0:0:0:0:
352,192,89985,1,0,0:0:0:0:
224,192,90043,1,0,0:0:0:0:
96,192,90101,1,0,0:0:0:0:
480,192,90101,1,0,0:0:0:0:
352,192,90159,1,0,0:0:0:0:
224,192,90216,1,0,0:0:0:0:
480,192,90274,1,0,0:0:0:0:
224,192,90332,1,0,0:0:0:0:
352,192,90332,1,0,0:0:0:0:
96,192,90389,1,0,0:0:0:0:
480,192,90447,1,0,0:0:0:0:
224,192,90505,1,0,0:0:0:0:
96,192,90562,1,0,0:0:0:0:
352,192,90562,1,0,0:0:0:0:
480,192,90620,1,0,0:0:0:0:
96,192,90678,1,0,0:0:0:0:
224,192,90678,1,0,0:0:0:0:
352,192,90735,1,0,0:0:0:0:
480,192,90793,1,0,0:0:0:0:
96,192,90851,1,0,0:0:0:0:
224,192,90909,1,0,0:0:0:0:
480,192,90909,1,0,0:0:0:0:
352,192,90966,1,0,0:0:0:0:
224,192,91024,1,0,0:0:0:0:
96,192,91082,1,0,0:0:0:0:
352,192,91139,1,0,0:0:0:0:
480,192,91139,1,0,0:0:0:0:
224,192,91197,1,0,0:0:0:0:
96,192,91255,1,0,0:0:0:0:
480,192,91312,1,0,0:0:0:0:
96,192,91370,1,0,0:0:0:0:
352,192,91370,1,0,0:0:0:0:
224,192,91428,1,0,0:0:0:0:
352,192,91485,1,0,0:0:0:0:
480,192,91543,1,0,0:0:0:0:
224,192,91601,1,0,0:0:0:0:
352,192,91659,1,0,0:0:0:0:
96,192,91716,1,0,0:0:0:0:
480,192,91716,1,0,0:0:0:0:
224,192,91774,1,0,0:0:0:0:
480,192,91832,1,0,0:0:0:0:
352,192,91889,1,0,0:0:0:0:
96,192,91947,1,0,0:0:0:0:
224,192,91947,1,0,0:0:0:0:
480,192,92005,1,0,0:0:0:0:
352,192,92062,1,0,0:0:0:0:
224,192,92120,1,0,0:0:0:0:
96,192,92178,1,0,0:0:0:0:
480,192,92178,1,0,0:0:0:0:
352,192,92235,1,0,0:0:0:0:
224,192,92293,1,0,0:0:0:0:
96,192,92351,1,0,0:0:0:0:
352,192,92409,1,0,0:0:0:0:
480,192,92466,1,0,0:0:0:0:
96,192,92524,1,0,0:0:0:0:
224,192,92582,1,0,0:0:0:0:
352,192,92639,1,0,0:0:0:0:
480,192,92697,1,0,0:0:0:0:
96,192,92755,1,0,0:0:0:0:
224,192,92755,1,0,0:0:0:0:
352,192,92812,1,0,0:0:0:0:
96,192,92870,1,0,0:0:0:0:
480,192,92870,1,0,0:0:0:0:
224,192,92928,1,0,0:0:0:0:
352,192,92985,1,0,0:0:0:0:
480,192,92985,1,0,0:0:0:0:
96,192,93043,1,0,0:0:0:0:
224,192,93101,1,0,0:0:0:0:
352,192,93101,1,0,0:0:0:0:
480,192,93159,1,0,0:0:0:0:
96,192,93216,1,0,0:0:0:0:
224,192,93216,1,0,0:0:0:0:
352,192,93274,1,0,0:0:0:0:
480,192,93332,1,0,0:0:0:0:
96,192,93389,1,0,0:0:0:0:
224,192,93447,1,0,0:0:0:0:
352,192,93505,1,0,0:0:0:0:
96,192,93562,1,0,0:0:0:0:
480,192,93562,1,0,0:0:0:0:
224,192,93620,1,0,0:0:0:0:
352,192,93678,1,0,0:0:0:0:
64,192,93735,1,0,0:0:0:0:
320,192,93793,1,0,0:0:0:0:
448,192,93793,1,0,0:0:0:0:
192,192,93851,1,0,0:0:0:0:
64,192,93909,1,0,0:0:0:0:
352,192,93966,1,0,0:0:0:0:
224,192,94024,1,0,0:0:0:0:
480,192,94024,1,0,0:0:0:0:
96,192,94082,1,0,0:0:0:0:
192,192,94139,1,0,0:0:0:0:
352,192,94197,1,0,0:0:0:0:
96,192,94255,1,0,0:0:0:0:
480,192,94255,1,0,0:0:0:0:
224,192,94312,1,0,0:0:0:0:
352,192,94370,1,0,0:0:0:0:
480,192,94370,1,0,0:0:0:0:
96,192,94428,1,0,0:0:0:0:
224,192,94485,1,0,0:0:0:0:
352,192,94543,1,0,0:0:0:0:
96,192,94601,1,0,0:0:0:0:
480,192,94601,1,0,0:0:0:0:
352,192,94659,1,0,0:0:0:0:
224,192,94716,1,0,0:0:0:0:
480,192,94774,1,0,0:0:0:0:
352,192,94832,1,0,0:0:0:0:
224,192,94889,1,0,0:0:0:0:
96,192,94947,1,0,0:0:0:0:
480,192,94947,1,0,0:0:0:0:
352,192,95005,1,0,0:0:0:0:
96,192,95062,1,0,0:0:0:0:
224,192,95062,1,0,0:0:0:0:
480,192,95120,1,0,0:0:0:0:
224,192,95178,1,0,0:0:0:0:
352,192,95235,1,0,0:0:0:0:
96,192,95293,1,0,0:0:0:0:
480,192,95293,1,0,0:0:0:0:
224,192,95351,1,0,0:0:0:0:
352,192,95409,1,0,0:0:0:0:
448,192,95466,1,0,0:0:0:0:
224,192,95524,1,0,0:0:0:0:
64,192,95524,1,0,0:0:0:0:
320,192,95582,1,0,0:0:0:0:
448,192,95639,1,0,0:0:0:0:
192,192,95697,1,0,0:0:0:0:
64,192,95755,1,0,0:0:0:0:
448,192,95812,1,0,0:0:0:0:
320,192,95870,1,0,0:0:0:0:
64,192,95928,1,0,0:0:0:0:
320,192,95985,1,0,0:0:0:0:
224,192,95985,1,0,0:0:0:0:
448,192,96043,1,0,0:0:0:0:
64,192,96101,1,0,0:0:0:0:
192,192,96159,1,0,0:0:0:0:
448,192,96216,1,0,0:0:0:0:
320,192,96216,1,0,0:0:0:0:
64,192,96274,1,0,0:0:0:0:
192,192,96332,1,0,0:0:0:0:
448,192,96389,1,0,0:0:0:0:
320,192,96389,1,0,0:0:0:0:
64,192,96447,1,0,0:0:0:0:
192,192,96447,1,0,0:0:0:0:
320,192,96505,1,0,0:0:0:0:
96,192,96562,1,0,0:0:0:0:
448,192,96562,1,0,0:0:0:0:
192,192,96620,1,0,0:0:0:0:
448,192,96678,1,0,0:0:0:0:
320,192,96678,1,0,0:0:0:0:
64,192,96735,1,0,0:0:0:0:
320,192,96793,1,0,0:0:0:0:
192,192,96793,1,0,0:0:0:0:
448,192,96851,1,0,0:0:0:0:
192,192,96909,1,0,0:0:0:0:
64,192,96909,1,0,0:0:0:0:
320,192,96966,1,0,0:0:0:0:
448,192,97024,1,0,0:0:0:0:
64,192,97082,1,0,0:0:0:0:
192,192,97139,1,0,0:0:0:0:
320,192,97197,1,0,0:0:0:0:
448,192,97255,1,0,0:0:0:0:
64,192,97255,1,0,0:0:0:0:
192,192,97312,1,0,0:0:0:0:
320,192,97370,1,0,0:0:0:0:
64,192,97428,1,0,0:0:0:0:
448,192,97485,1,0,0:0:0:0:
320,192,97485,1,0,0:0:0:0:
192,192,97543,1,0,0:0:0:0:
64,192,97601,1,0,0:0:0:0:
448,192,97659,1,0,0:0:0:0:
192,192,97716,1,0,0:0:0:0:
320,192,97716,1,0,0:0:0:0:
64,192,97774,1,0,0:0:0:0:
192,192,97832,1,0,0:0:0:0:
320,192,97889,1,0,0:0:0:0:
64,192,97947,1,0,0:0:0:0:
448,192,97947,1,0,0:0:0:0:
192,192,98005,1,0,0:0:0:0:
448,192,98062,1,0,0:0:0:0:
320,192,98062,1,0,0:0:0:0:
64,192,98120,1,0,0:0:0:0:
192,192,98178,1,0,0:0:0:0:
320,192,98235,1,0,0:0:0:0:
224,192,98293,1,0,0:0:0:0:
480,192,98293,1,0,0:0:0:0:
64,192,98351,1,0,0:0:0:0:
320,192,98409,1,0,0:0:0:0:
192,192,98466,1,0,0:0:0:0:
64,192,98524,1,0,0:0:0:0:
480,192,98524,1,0,0:0:0:0:
320,192,98582,1,0,0:0:0:0:
192,192,98639,1,0,0:0:0:0:
64,192,98697,1,0,0:0:0:0:
224,192,98755,1,0,0:0:0:0:
320,192,98755,1,0,0:0:0:0:
448,192,98812,1,0,0:0:0:0:
64,192,98870,1,0,0:0:0:0:
192,192,98928,1,0,0:0:0:0:
320,192,98985,1,0,0:0:0:0:
448,192,99043,1,0,0:0:0:0:
192,192,99101,1,0,0:0:0:0:
64,192,99101,1,0,0:0:0:0:
320,192,99159,1,0,0:0:0:0:
448,192,99216,1,0,0:0:0:0:
192,192,99274,1,0,0:0:0:0:
64,192,99332,1,0,0:0:0:0:
352,192,99332,1,0,0:0:0:0:
448,192,99389,1,0,0:0:0:0:
192,192,99447,1,0,0:0:0:0:
64,192,99505,1,0,0:0:0:0:
320,192,99562,1,0,0:0:0:0:
480,192,99562,1,0,0:0:0:0:
192,192,99620,1,0,0:0:0:0:
64,192,99678,1,0,0:0:0:0:
320,192,99735,1,0,0:0:0:0:
448,192,99793,1,0,0:0:0:0:
64,192,99851,1,0,0:0:0:0:
192,192,99909,1,0,0:0:0:0:
448,192,99966,1,0,0:0:0:0:
192,192,100024,1,0,0:0:0:0:
352,192,100082,1,0,0:0:0:0:
96,192,100139,1,0,0:0:0:0:
480,192,100139,1,0,0:0:0:0:
352,192,100197,1,0,0:0:0:0:
96,192,100255,1,0,0:0:0:0:
224,192,100255,1,0,0:0:0:0:
480,192,100312,1,0,0:0:0:0:
224,192,100370,1,0,0:0:0:0:
352,192,100370,1,0,0:0:0:0:
96,192,100428,1,0,0:0:0:0:
352,192,100485,1,0,0:0:0:0:
480,192,100485,1,0,0:0:0:0:
96,192,100543,1,0,0:0:0:0:
224,192,100601,1,0,0:0:0:0:
480,192,100601,1,0,0:0:0:0:
352,192,100659,1,0,0:0:0:0:
480,192,100716,1,0,0:0:0:0:
96,192,100774,1,0,0:0:0:0:
224,192,100832,1,0,0:0:0:0:
352,192,100832,1,0,0:0:0:0:
480,192,100889,1,0,0:0:0:0:
96,192,100947,1,0,0:0:0:0:
224,192,100947,1,0,0:0:0:0:
352,192,101005,1,0,0:0:0:0:
480,192,101062,1,0,0:0:0:0:
224,192,101120,1,0,0:0:0:0:
96,192,101178,1,0,0:0:0:0:
352,192,101178,1,0,0:0:0:0:
480,192,101235,1,0,0:0:0:0:
224,192,101293,1,0,0:0:0:0:
96,192,101351,1,0,0:0:0:0:
352,192,101409,1,0,0:0:0:0:
480,192,101409,1,0,0:0:0:0:
224,192,101466,1,0,0:0:0:0:
96,192,101524,1,0,0:0:0:0:
320,192,101582,1,0,0:0:0:0:
192,192,101639,1,0,0:0:0:0:
480,192,101639,1,0,0:0:0:0:
96,192,101697,1,0,0:0:0:0:
320,192,101755,1,0,0:0:0:0:
448,192,101812,1,0,0:0:0:0:
96,192,101870,1,0,0:0:0:0:
192,192,101870,1,0,0:0:0:0:
320,192,101928,1,0,0:0:0:0:
480,192,101985,1,0,0:0:0:0:
64,192,102043,1,0,0:0:0:0:
448,192,102101,1,0,0:0:0:0:
224,192,102101,1,0,0:0:0:0:
320,192,102159,1,0,0:0:0:0:
224,192,102216,1,0,0:0:0:0:
64,192,102216,1,0,0:0:0:0:
448,192,102274,1,0,0:0:0:0:
352,192,102332,1,0,0:0:0:0:
64,192,102332,1,0,0:0:0:0:
224,192,102389,1,0,0:0:0:0:
480,192,102447,1,0,0:0:0:0:
64,192,102447,1,0,0:0:0:0:
192,192,102505,1,0,0:0:0:0:
448,192,102562,1,0,0:0:0:0:
320,192,102562,1,0,0:0:0:0:
64,192,102620,1,0,0:0:0:0:
224,192,102678,1,0,0:0:0:0:
320,192,102678,1,0,0:0:0:0:
448,192,102735,1,0,0:0:0:0:
192,192,102793,1,0,0:0:0:0:
64,192,102793,1,0,0:0:0:0:
320,192,102851,1,0,0:0:0:0:
448,192,102909,1,0,0:0:0:0:
64,192,102909,1,0,0:0:0:0:
320,192,102966,1,0,0:0:0:0:
64,192,103024,1,0,0:0:0:0:
192,192,103024,1,0,0:0:0:0:
448,192,103082,1,0,0:0:0:0:
192,192,103139,1,0,0:0:0:0:
320,192,103139,1,0,0:0:0:0:
64,192,103197,1,0,0:0:0:0:
448,192,103255,1,0,0:0:0:0:
192,192,103255,1,0,0:0:0:0:
320,192,103312,1,0,0:0:0:0:
96,192,103370,1,0,0:0:0:0:
224,192,103370,1,0,0:0:0:0:
352,192,103428,1,0,0:0:0:0:
480,192,103428,1,0,0:0:0:0:
96,192,103485,1,0,0:0:0:0:
224,192,103485,1,0,0:0:0:0:
352,192,103543,1,0,0:0:0:0:
480,192,103543,1,0,0:0:0:0:
96,192,103601,1,0,0:0:0:0:
224,192,103601,1,0,0:0:0:0:
352,192,103659,1,0,0:0:0:0:
480,192,103659,1,0,0:0:0:0:
96,192,103716,1,0,0:0:0:0:
224,192,103716,1,0,0:0:0:0:
352,192,103774,1,0,0:0:0:0:
480,192,103774,1,0,0:0:0:0:
96,192,103832,1,0,0:0:0:0:
224,192,103860,1,0,0:0:0:0:
352,192,103889,1,0,0:0:0:0:
480,192,103918,1,0,0:0:0:0:
96,192,103947,1,0,0:0:0:0:
224,192,103976,1,0,0:0:0:0:
352,192,104005,1,0,0:0:0:0:
480,192,104034,1,0,0:0:0:0:
192,192,104062,1,0,0:0:0:0:
64,192,104091,1,0,0:0:0:0:
448,192,104120,1,0,0:0:0:0:
320,192,104149,1,0,0:0:0:0:
192,192,104178,1,0,0:0:0:0:
64,192,104207,1,0,0:0:0:0:
448,192,104235,1,0,0:0:0:0:
320,192,104264,1,0,0:0:0:0:
192,192,104293,1,0,0:0:0:0:
64,192,104293,1,0,0:0:0:0:
96,192,104524,1,0,0:0:0:0:
224,192,104524,1,0,0:0:0:0:
352,192,104524,1,0,0:0:0:0:
480,192,104582,1,0,0:0:0:0:
224,192,104639,1,0,0:0:0:0:
352,192,104697,1,0,0:0:0:0:
96,192,104755,1,0,0:0:0:0:
224,192,104755,1,0,0:0:0:0:
480,192,104812,1,0,0:0:0:0:
64,192,104870,1,0,0:0:0:0:
352,192,104870,1,0,0:0:0:0:
192,192,104928,1,0,0:0:0:0:
96,192,104985,1,0,0:0:0:0:
448,192,104985,1,0,0:0:0:0:
352,192,104985,1,0,0:0:0:0:
192,192,105043,1,0,0:0:0:0:
320,192,105101,1,0,0:0:0:0:
448,192,105101,1,0,0:0:0:0:
64,192,105159,1,0,0:0:0:0:
448,192,105216,1,0,0:0:0:0:
192,192,105216,1,0,0:0:0:0:
320,192,105274,1,0,0:0:0:0:
64,192,105332,1,0,0:0:0:0:
192,192,105332,1,0,0:0:0:0:
448,192,105389,1,0,0:0:0:0:
96,192,105447,1,0,0:0:0:0:
224,192,105447,1,0,0:0:0:0:
320,192,105447,1,0,0:0:0:0:
448,192,105505,1,0,0:0:0:0:
224,192,105562,1,0,0:0:0:0:
96,192,105620,1,0,0:0:0:0:
352,192,105678,1,0,0:0:0:0:
480,192,105678,1,0,0:0:0:0:
224,192,105735,1,0,0:0:0:0:
64,192,105793,1,0,0:0:0:0:
480,192,105793,1,0,0:0:0:0:
320,192,105851,1,0,0:0:0:0:
96,192,105909,1,0,0:0:0:0:
192,192,105909,1,0,0:0:0:0:
480,192,105909,1,0,0:0:0:0:
320,192,105966,1,0,0:0:0:0:
64,192,106024,1,0,0:0:0:0:
192,192,106082,1,0,0:0:0:0:
96,192,106139,1,0,0:0:0:0:
320,192,106139,1,0,0:0:0:0:
480,192,106139,1,0,0:0:0:0:
192,192,106197,1,0,0:0:0:0:
480,192,106255,1,0,0:0:0:0:
320,192,106312,1,0,0:0:0:0:
96,192,106370,1,0,0:0:0:0:
192,192,106370,1,0,0:0:0:0:
480,192,106370,1,0,0:0:0:0:
320,192,106428,1,0,0:0:0:0:
64,192,106485,1,0,0:0:0:0:
192,192,106485,1,0,0:0:0:0:
448,192,106543,1,0,0:0:0:0:
320,192,106601,1,0,0:0:0:0:
64,192,106659,1,0,0:0:0:0:
224,192,106716,1,0,0:0:0:0:
480,192,106716,1,0,0:0:0:0:
320,192,106774,1,0,0:0:0:0:
224,192,106832,1,0,0:0:0:0:
64,192,106832,1,0,0:0:0:0:
480,192,106832,1,0,0:0:0:0:
320,192,106889,1,0,0:0:0:0:
64,192,106947,1,0,0:0:0:0:
192,192,106947,1,0,0:0:0:0:
448,192,107005,1,0,0:0:0:0:
320,192,107062,1,0,0:0:0:0:
192,192,107062,1,0,0:0:0:0:
64,192,107120,1,0,0:0:0:0:
320,192,107178,1,0,0:0:0:0:
480,192,107235,1,0,0:0:0:0:
96,192,107293,1,0,0:0:0:0:
224,192,107293,1,0,0:0:0:0:
352,192,107293,1,0,0:0:0:0:
480,192,107351,1,0,0:0:0:0:
192,192,107409,1,0,0:0:0:0:
320,192,107466,1,0,0:0:0:0:
96,192,107524,1,0,0:0:0:0:
192,192,107524,1,0,0:0:0:0:
448,192,107582,1,0,0:0:0:0:
320,192,107639,1,0,0:0:0:0:
64,192,107639,1,0,0:0:0:0:
192,192,107697,1,0,0:0:0:0:
320,192,107755,1,0,0:0:0:0:
480,192,107755,1,0,0:0:0:0:
64,192,107755,1,0,0:0:0:0:
192,192,107812,1,0,0:0:0:0:
448,192,107870,1,0,0:0:0:0:
64,192,107870,1,0,0:0:0:0:
320,192,107928,1,0,0:0:0:0:
224,192,107985,1,0,0:0:0:0:
64,192,107985,1,0,0:0:0:0:
480,192,107985,1,0,0:0:0:0:
320,192,108043,1,0,0:0:0:0:
192,192,108101,1,0,0:0:0:0:
480,192,108159,1,0,0:0:0:0:
96,192,108216,1,0,0:0:0:0:
224,192,108216,1,0,0:0:0:0:
352,192,108216,1,0,0:0:0:0:
480,192,108274,1,0,0:0:0:0:
224,192,108332,1,0,0:0:0:0:
64,192,108332,1,0,0:0:0:0:
320,192,108389,1,0,0:0:0:0:
448,192,108447,1,0,0:0:0:0:
64,192,108505,1,0,0:0:0:0:
224,192,108562,1,0,0:0:0:0:
320,192,108562,1,0,0:0:0:0:
448,192,108620,1,0,0:0:0:0:
192,192,108678,1,0,0:0:0:0:
64,192,108678,1,0,0:0:0:0:
352,192,108678,1,0,0:0:0:0:
448,192,108735,1,0,0:0:0:0:
192,192,108793,1,0,0:0:0:0:
64,192,108793,1,0,0:0:0:0:
320,192,108851,1,0,0:0:0:0:
64,192,108909,1,0,0:0:0:0:
480,192,108909,1,0,0:0:0:0:
192,192,108966,1,0,0:0:0:0:
320,192,109024,1,0,0:0:0:0:
480,192,109024,1,0,0:0:0:0:
192,192,109082,1,0,0:0:0:0:
64,192,109139,1,0,0:0:0:0:
352,192,109139,1,0,0:0:0:0:
480,192,109139,1,0,0:0:0:0:
192,192,109197,1,0,0:0:0:0:
64,192,109255,1,0,0:0:0:0:
480,192,109312,1,0,0:0:0:0:
96,192,109370,1,0,0:0:0:0:
224,192,109370,1,0,0:0:0:0:
352,192,109370,1,0,0:0:0:0:
480,192,109428,1,0,0:0:0:0:
96,192,109485,1,0,0:0:0:0:
224,192,109485,1,0,0:0:0:0:
352,192,109543,1,0,0:0:0:0:
96,192,109601,1,0,0:0:0:0:
480,192,109601,1,0,0:0:0:0:
224,192,109659,1,0,0:0:0:0:
96,192,109716,1,0,0:0:0:0:
352,192,109716,1,0,0:0:0:0:
480,192,109716,1,0,0:0:0:0:
224,192,109774,1,0,0:0:0:0:
352,192,109832,1,0,0:0:0:0:
480,192,109832,1,0,0:0:0:0:
96,192,109889,1,0,0:0:0:0:
224,192,109947,1,0,0:0:0:0:
352,192,110005,1,0,0:0:0:0:
96,192,110062,1,0,0:0:0:0:
224,192,110062,1,0,0:0:0:0:
480,192,110062,1,0,0:0:0:0:
352,192,110120,1,0,0:0:0:0:
480,192,110178,1,0,0:0:0:0:
192,192,110235,1,0,0:0:0:0:
320,192,110293,1,0,0:0:0:0:
64,192,110351,1,0,0:0:0:0:
448,192,110409,1,0,0:0:0:0:
352,192,110409,1,0,0:0:0:0:
192,192,110466,1,0,0:0:0:0:
64,192,110524,1,0,0:0:0:0:
352,192,110524,1,0,0:0:0:0:
480,192,110524,1,0,0:0:0:0:
192,192,110582,1,0,0:0:0:0:
64,192,110639,1,0,0:0:0:0:
448,192,110697,1,0,0:0:0:0:
96,192,110755,1,0,0:0:0:0:
224,192,110755,1,0,0:0:0:0:
320,192,110755,1,0,0:0:0:0:
448,192,110812,1,0,0:0:0:0:
320,192,110870,1,0,0:0:0:0:
64,192,110928,1,0,0:0:0:0:
320,192,110985,1,0,0:0:0:0:
192,192,110985,1,0,0:0:0:0:
480,192,110985,1,0,0:0:0:0:
64,192,111043,1,0,0:0:0:0:
192,192,111101,1,0,0:0:0:0:
480,192,111159,1,0,0:0:0:0:
224,192,111216,1,0,0:0:0:0:
352,192,111216,1,0,0:0:0:0:
96,192,111274,1,0,0:0:0:0:
352,192,111332,1,0,0:0:0:0:
480,192,111332,1,0,0:0:0:0:
224,192,111389,1,0,0:0:0:0:
96,192,111447,1,0,0:0:0:0:
352,192,111447,1,0,0:0:0:0:
480,192,111447,1,0,0:0:0:0:
96,192,111562,1,0,0:0:0:0:
224,192,111562,1,0,0:0:0:0:
480,192,111562,1,0,0:0:0:0:
96,192,111678,1,0,0:0:0:0:
224,192,111678,1,0,0:0:0:0:
352,192,111678,1,0,0:0:0:0:
480,192,111735,1,0,0:0:0:0:
192,192,111793,1,0,0:0:0:0:
320,192,111851,1,0,0:0:0:0:
96,192,111909,1,0,0:0:0:0:
192,192,111909,1,0,0:0:0:0:
480,192,111909,1,0,0:0:0:0:
320,192,111966,1,0,0:0:0:0:
64,192,112024,1,0,0:0:0:0:
480,192,112024,1,0,0:0:0:0:
224,192,112082,1,0,0:0:0:0:
320,192,112139,1,0,0:0:0:0:
192,192,112197,1,0,0:0:0:0:
96,192,112255,1,0,0:0:0:0:
448,192,112255,1,0,0:0:0:0:
320,192,112312,1,0,0:0:0:0:
96,192,112370,1,0,0:0:0:0:
192,192,112370,1,0,0:0:0:0:
480,192,112370,1,0,0:0:0:0:
320,192,112428,1,0,0:0:0:0:
192,192,112485,1,0,0:0:0:0:
64,192,112485,1,0,0:0:0:0:
320,192,112543,1,0,0:0:0:0:
192,192,112601,1,0,0:0:0:0:
448,192,112601,1,0,0:0:0:0:
64,192,112659,1,0,0:0:0:0:
320,192,112716,1,0,0:0:0:0:
448,192,112716,1,0,0:0:0:0:
192,192,112774,1,0,0:0:0:0:
96,192,112832,1,0,0:0:0:0:
448,192,112832,1,0,0:0:0:0:
352,192,112832,1,0,0:0:0:0:
192,192,112889,1,0,0:0:0:0:
352,192,112947,1,0,0:0:0:0:
448,192,113005,1,0,0:0:0:0:
192,192,113062,1,0,0:0:0:0:
64,192,113062,1,0,0:0:0:0:
320,192,113120,1,0,0:0:0:0:
64,192,113178,1,0,0:0:0:0:
448,192,113178,1,0,0:0:0:0:
192,192,113235,1,0,0:0:0:0:
320,192,113293,1,0,0:0:0:0:
64,192,113293,1,0,0:0:0:0:
480,192,113293,1,0,0:0:0:0:
192,192,113351,1,0,0:0:0:0:
320,192,113409,1,0,0:0:0:0:
224,192,113466,1,0,0:0:0:0:
64,192,113524,1,0,0:0:0:0:
480,192,113524,1,0,0:0:0:0:
320,192,113582,1,0,0:0:0:0:
192,192,113639,1,0,0:0:0:0:
96,192,113697,1,0,0:0:0:0:
224,192,113755,1,0,0:0:0:0:
352,192,113755,1,0,0:0:0:0:
480,192,113755,1,0,0:0:0:0:
96,192,113812,1,0,0:0:0:0:
224,192,113870,1,0,0:0:0:0:
480,192,113870,1,0,0:0:0:0:
352,192,113928,1,0,0:0:0:0:
96,192,113985,1,0,0:0:0:0:
224,192,114043,1,0,0:0:0:0:
96,192,114101,1,0,0:0:0:0:
480,192,114101,1,0,0:0:0:0:
352,192,114159,1,0,0:0:0:0:
96,192,114216,1,0,0:0:0:0:
224,192,114216,1,0,0:0:0:0:
480,192,114216,1,0,0:0:0:0:
352,192,114274,1,0,0:0:0:0:
96,192,114332,1,0,0:0:0:0:
224,192,114332,1,0,0:0:0:0:
480,192,114389,1,0,0:0:0:0:
96,192,114447,1,0,0:0:0:0:
320,192,114447,1,0,0:0:0:0:
480,192,114505,1,0,0:0:0:0:
192,192,114562,1,0,0:0:0:0:
96,192,114620,1,0,0:0:0:0:
224,192,114678,1,0,0:0:0:0:
352,192,114678,1,0,0:0:0:0:
480,192,114678,1,0,0:0:0:0:
96,192,114735,1,0,0:0:0:0:
320,192,114793,1,0,0:0:0:0:
192,192,114851,1,0,0:0:0:0:
64,192,114909,1,0,0:0:0:0:
480,192,114909,1,0,0:0:0:0:
352,192,114966,1,0,0:0:0:0:
64,192,115024,1,0,0:0:0:0:
192,192,115024,1,0,0:0:0:0:
320,192,115082,1,0,0:0:0:0:
64,192,115139,1,0,0:0:0:0:
448,192,115139,1,0,0:0:0:0:
192,192,115139,1,0,0:0:0:0:
320,192,115197,1,0,0:0:0:0:
448,192,115255,1,0,0:0:0:0:
64,192,115255,1,0,0:0:0:0:
192,192,115312,1,0,0:0:0:0:
320,192,115370,1,0,0:0:0:0:
448,192,115370,1,0,0:0:0:0:
64,192,115428,1,0,0:0:0:0:
320,192,115485,1,0,0:0:0:0:
192,192,115543,1,0,0:0:0:0:
64,192,115601,1,0,0:0:0:0:
352,192,115601,1,0,0:0:0:0:
480,192,115601,1,0,0:0:0:0:
192,192,115659,1,0,0:0:0:0:
64,192,115716,1,0,0:0:0:0:
320,192,115716,1,0,0:0:0:0:
448,192,115774,1,0,0:0:0:0:
192,192,115832,1,0,0:0:0:0:
320,192,115832,1,0,0:0:0:0:
448,192,115889,1,0,0:0:0:0:
192,192,115947,1,0,0:0:0:0:
64,192,115947,1,0,0:0:0:0:
320,192,116005,1,0,0:0:0:0:
96,192,116062,1,0,0:0:0:0:
224,192,116062,1,0,0:0:0:0:
448,192,116062,1,0,0:0:0:0:
320,192,116120,1,0,0:0:0:0:
224,192,116178,1,0,0:0:0:0:
448,192,116178,1,0,0:0:0:0:
96,192,116235,1,0,0:0:0:0:
352,192,116293,1,0,0:0:0:0:
480,192,116293,1,0,0:0:0:0:
96,192,116351,1,0,0:0:0:0:
224,192,116351,1,0,0:0:0:0:
352,192,116409,1,0,0:0:0:0:
480,192,116409,1,0,0:0:0:0:
96,192,116466,1,0,0:0:0:0:
224,192,116466,1,0,0:0:0:0:
352,192,116524,1,0,0:0:0:0:
480,192,116524,1,0,0:0:0:0:
96,192,116582,1,0,0:0:0:0:
224,192,116582,1,0,0:0:0:0:
352,192,116639,1,0,0:0:0:0:
480,192,116639,1,0,0:0:0:0:
224,192,116697,1,0,0:0:0:0:
96,192,116755,1,0,0:0:0:0:
480,192,116755,1,0,0:0:0:0:
352,192,116812,1,0,0:0:0:0:
96,192,116870,1,0,0:0:0:0:
224,192,116870,1,0,0:0:0:0:
480,192,116928,1,0,0:0:0:0:
224,192,116985,1,0,0:0:0:0:
352,192,116985,1,0,0:0:0:0:
96,192,117043,1,0,0:0:0:0:
352,192,117101,1,0,0:0:0:0:
480,192,117101,1,0,0:0:0:0:
224,192,117159,1,0,0:0:0:0:
96,192,117216,1,0,0:0:0:0:
320,192,117216,1,0,0:0:0:0:
480,192,117216,1,0,0:0:0:0:
192,192,117274,1,0,0:0:0:0:
320,192,117332,1,0,0:0:0:0:
64,192,117389,1,0,0:0:0:0:
448,192,117447,1,0,0:0:0:0:
224,192,117447,1,0,0:0:0:0:
352,192,117447,1,0,0:0:0:0:
64,192,117505,1,0,0:0:0:0:
448,192,117562,1,0,0:0:0:0:
320,192,117562,1,0,0:0:0:0:
64,192,117620,1,0,0:0:0:0:
192,192,117678,1,0,0:0:0:0:
480,192,117735,1,0,0:0:0:0:
96,192,117793,1,0,0:0:0:0:
352,192,117793,1,0,0:0:0:0:
224,192,117851,1,0,0:0:0:0:
96,192,117909,1,0,0:0:0:0:
352,192,117909,1,0,0:0:0:0:
480,192,117909,1,0,0:0:0:0:
224,192,117966,1,0,0:0:0:0:
448,192,118024,1,0,0:0:0:0:
352,192,118024,1,0,0:0:0:0:
64,192,118082,1,0,0:0:0:0:
448,192,118139,1,0,0:0:0:0:
224,192,118139,1,0,0:0:0:0:
320,192,118197,1,0,0:0:0:0:
96,192,118255,1,0,0:0:0:0:
224,192,118255,1,0,0:0:0:0:
352,192,118312,1,0,0:0:0:0:
96,192,118370,1,0,0:0:0:0:
224,192,118370,1,0,0:0:0:0:
480,192,118370,1,0,0:0:0:0:
352,192,118428,1,0,0:0:0:0:
96,192,118485,1,0,0:0:0:0:
224,192,118543,1,0,0:0:0:0:
96,192,118601,1,0,0:0:0:0:
480,192,118601,1,0,0:0:0:0:
352,192,118659,1,0,0:0:0:0:
224,192,118716,1,0,0:0:0:0:
480,192,118716,1,0,0:0:0:0:
96,192,118774,1,0,0:0:0:0:
224,192,118832,1,0,0:0:0:0:
352,192,118832,1,0,0:0:0:0:
480,192,118832,1,0,0:0:0:0:
96,192,118889,1,0,0:0:0:0:
352,192,118947,1,0,0:0:0:0:
224,192,119005,1,0,0:0:0:0:
96,192,119062,1,0,0:0:0:0:
480,192,119062,1,0,0:0:0:0:
352,192,119120,1,0,0:0:0:0:
224,192,119178,1,0,0:0:0:0:
96,192,119235,1,0,0:0:0:0:
224,192,119293,1,0,0:0:0:0:
352,192,119293,1,0,0:0:0:0:
480,192,119293,1,0,0:0:0:0:
96,192,119351,1,0,0:0:0:0:
224,192,119409,1,0,0:0:0:0:
480,192,119409,1,0,0:0:0:0:
352,192,119466,1,0,0:0:0:0:
96,192,119524,1,0,0:0:0:0:
448,192,119582,1,0,0:0:0:0:
96,192,119639,1,0,0:0:0:0:
192,192,119639,1,0,0:0:0:0:
352,192,119697,1,0,0:0:0:0:
96,192,119755,1,0,0:0:0:0:
224,192,119755,1,0,0:0:0:0:
480,192,119755,1,0,0:0:0:0:
352,192,119812,1,0,0:0:0:0:
96,192,119870,1,0,0:0:0:0:
448,192,119870,1,0,0:0:0:0:
192,192,119928,1,0,0:0:0:0:
320,192,119985,1,0,0:0:0:0:
448,192,119985,1,0,0:0:0:0:
64,192,120043,1,0,0:0:0:0:
320,192,120101,1,0,0:0:0:0:
224,192,120159,1,0,0:0:0:0:
96,192,120216,1,0,0:0:0:0:
352,192,120216,1,0,0:0:0:0:
480,192,120216,1,0,0:0:0:0:
224,192,120274,1,0,0:0:0:0:
96,192,120332,1,0,0:0:0:0:
448,192,120389,1,0,0:0:0:0:
192,192,120447,1,0,0:0:0:0:
352,192,120447,1,0,0:0:0:0:
480,192,120505,1,0,0:0:0:0:
224,192,120562,1,0,0:0:0:0:
64,192,120562,1,0,0:0:0:0:
320,192,120620,1,0,0:0:0:0:
224,192,120678,1,0,0:0:0:0:
480,192,120678,1,0,0:0:0:0:
64,192,120678,1,0,0:0:0:0:
320,192,120735,1,0,0:0:0:0:
64,192,120793,1,0,0:0:0:0:
480,192,120793,1,0,0:0:0:0:
192,192,120851,1,0,0:0:0:0:
64,192,120909,1,0,0:0:0:0:
480,192,120909,1,0,0:0:0:0:
320,192,120966,1,0,0:0:0:0:
192,192,121024,1,0,0:0:0:0:
64,192,121082,1,0,0:0:0:0:
192,192,121139,1,0,0:0:0:0:
352,192,121139,1,0,0:0:0:0:
480,192,121139,1,0,0:0:0:0:
64,192,121197,1,0,0:0:0:0:
352,192,121255,1,0,0:0:0:0:
480,192,121255,1,0,0:0:0:0:
224,192,121312,1,0,0:0:0:0:
96,192,121370,1,0,0:0:0:0:
320,192,121428,1,0,0:0:0:0:
96,192,121485,1,0,0:0:0:0:
480,192,121485,1,0,0:0:0:0:
192,192,121543,1,0,0:0:0:0:
96,192,121601,1,0,0:0:0:0:
320,192,121601,1,0,0:0:0:0:
480,192,121601,1,0,0:0:0:0:
192,192,121659,1,0,0:0:0:0:
448,192,121716,1,0,0:0:0:0:
320,192,121716,1,0,0:0:0:0:
192,192,121774,1,0,0:0:0:0:
96,192,121832,1,0,0:0:0:0:
320,192,121832,1,0,0:0:0:0:
448,192,121889,1,0,0:0:0:0:
192,192,121947,1,0,0:0:0:0:
64,192,121947,1,0,0:0:0:0:
320,192,122005,1,0,0:0:0:0:
192,192,122062,1,0,0:0:0:0:
64,192,122062,1,0,0:0:0:0:
480,192,122062,1,0,0:0:0:0:
320,192,122120,1,0,0:0:0:0:
192,192,122178,1,0,0:0:0:0:
320,192,122235,1,0,0:0:0:0:
64,192,122293,1,0,0:0:0:0:
480,192,122293,1,0,0:0:0:0:
352,192,122351,1,0,0:0:0:0:
192,192,122409,1,0,0:0:0:0:
480,192,122409,1,0,0:0:0:0:
64,192,122466,1,0,0:0:0:0:
192,192,122524,1,0,0:0:0:0:
352,192,122524,1,0,0:0:0:0:
480,192,122524,1,0,0:0:0:0:
64,192,122582,1,0,0:0:0:0:
192,192,122639,1,0,0:0:0:0:
320,192,122639,1,0,0:0:0:0:
448,192,122697,1,0,0:0:0:0:
96,192,122755,1,0,0:0:0:0:
224,192,122755,1,0,0:0:0:0:
352,192,122812,1,0,0:0:0:0:
480,192,122870,1,0,0:0:0:0:
96,192,122928,1,0,0:0:0:0:
224,192,122985,1,0,0:0:0:0:
352,192,122985,1,0,0:0:0:0:
480,192,122985,1,0,0:0:0:0:
96,192,123043,1,0,0:0:0:0:
224,192,123101,1,0,0:0:0:0:
352,192,123159,1,0,0:0:0:0:
480,192,123216,1,0,0:0:0:0:
352,192,123274,1,0,0:0:0:0:
224,192,123332,1,0,0:0:0:0:
480,192,123332,1,0,0:0:0:0:
96,192,123389,1,0,0:0:0:0:
224,192,123447,1,0,0:0:0:0:
352,192,123447,1,0,0:0:0:0:
480,192,123447,1,0,0:0:0:0:
96,192,123505,1,0,0:0:0:0:
448,192,123562,1,0,0:0:0:0:
320,192,123620,1,0,0:0:0:0:
96,192,123678,1,0,0:0:0:0:
192,192,123678,1,0,0:0:0:0:
480,192,123678,1,0,0:0:0:0:
320,192,123735,1,0,0:0:0:0:
192,192,123793,1,0,0:0:0:0:
96,192,123851,1,0,0:0:0:0:
224,192,123909,1,0,0:0:0:0:
352,192,123909,1,0,0:0:0:0:
480,192,123909,1,0,0:0:0:0:
96,192,123966,1,0,0:0:0:0:
480,192,124024,1,0,0:0:0:0:
352,192,124082,1,0,0:0:0:0:
96,192,124139,1,0,0:0:0:0:
224,192,124139,1,0,0:0:0:0:
320,192,124197,1,0,0:0:0:0:
64,192,124255,1,0,0:0:0:0:
448,192,124255,1,0,0:0:0:0:
192,192,124312,1,0,0:0:0:0:
64,192,124370,1,0,0:0:0:0:
352,192,124370,1,0,0:0:0:0:
480,192,124370,1,0,0:0:0:0:
448,192,124485,1,0,0:0:0:0:
224,192,124485,1,0,0:0:0:0:
64,192,124485,1,0,0:0:0:0:
96,192,124601,1,0,0:0:0:0:
480,192,124601,1,0,0:0:0:0:
224,192,124659,1,0,0:0:0:0:
320,192,124716,1,0,0:0:0:0:
64,192,124774,1,0,0:0:0:0:
320,192,124832,1,0,0:0:0:0:
224,192,124832,1,0,0:0:0:0:
480,192,124832,1,0,0:0:0:0:
64,192,124889,1,0,0:0:0:0:
448,192,124947,1,0,0:0:0:0:
192,192,124947,1,0,0:0:0:0:
320,192,125005,1,0,0:0:0:0:
448,192,125062,1,0,0:0:0:0:
192,192,125120,1,0,0:0:0:0:
64,192,125178,1,0,0:0:0:0:
320,192,125178,1,0,0:0:0:0:
448,192,125235,1,0,0:0:0:0:
224,192,125293,1,0,0:0:0:0:
64,192,125293,1,0,0:0:0:0:
320,192,125293,1,0,0:0:0:0:
448,192,125351,1,0,0:0:0:0:
64,192,125409,1,0,0:0:0:0:
320,192,125409,1,0,0:0:0:0:
192,192,125466,1,0,0:0:0:0:
64,192,125524,1,0,0:0:0:0:
448,192,125524,1,0,0:0:0:0:
320,192,125582,1,0,0:0:0:0:
64,192,125639,1,0,0:0:0:0:
192,192,125639,1,0,0:0:0:0:
320,192,125697,1,0,0:0:0:0:
64,192,125755,1,0,0:0:0:0:
192,192,125755,1,0,0:0:0:0:
480,192,125755,1,0,0:0:0:0:
320,192,125812,1,0,0:0:0:0:
448,192,125870,1,0,0:0:0:0:
192,192,125928,1,0,0:0:0:0:
64,192,125985,1,0,0:0:0:0:
480,192,125985,1,0,0:0:0:0:
320,192,126043,1,0,0:0:0:0:
96,192,126101,1,0,0:0:0:0:
192,192,126101,1,0,0:0:0:0:
480,192,126159,1,0,0:0:0:0:
96,192,126216,1,0,0:0:0:0:
224,192,126216,1,0,0:0:0:0:
352,192,126216,1,0,0:0:0:0:
480,192,126274,1,0,0:0:0:0:
224,192,126332,1,0,0:0:0:0:
352,192,126389,1,0,0:0:0:0:
96,192,126447,1,0,0:0:0:0:
224,192,126447,1,0,0:0:0:0:
480,192,126505,1,0,0:0:0:0:
320,192,126562,1,0,0:0:0:0:
192,192,126620,1,0,0:0:0:0:
320,192,126678,1,0,0:0:0:0:
96,192,126678,1,0,0:0:0:0:
448,192,126678,1,0,0:0:0:0:
192,192,126735,1,0,0:0:0:0:
64,192,126793,1,0,0:0:0:0:
448,192,126793,1,0,0:0:0:0:
320,192,126851,1,0,0:0:0:0:
192,192,126909,1,0,0:0:0:0:
448,192,126966,1,0,0:0:0:0:
64,192,127024,1,0,0:0:0:0:
192,192,127024,1,0,0:0:0:0:
320,192,127082,1,0,0:0:0:0:
64,192,127139,1,0,0:0:0:0:
192,192,127139,1,0,0:0:0:0:
480,192,127139,1,0,0:0:0:0:
320,192,127197,1,0,0:0:0:0:
64,192,127255,1,0,0:0:0:0:
480,192,127255,1,0,0:0:0:0:
192,192,127312,1,0,0:0:0:0:
448,192,127370,1,0,0:0:0:0:
64,192,127370,1,0,0:0:0:0:
320,192,127428,1,0,0:0:0:0:
192,192,127485,1,0,0:0:0:0:
448,192,127543,1,0,0:0:0:0:
96,192,127601,1,0,0:0:0:0:
224,192,127601,1,0,0:0:0:0:
320,192,127601,1,0,0:0:0:0:
448,192,127659,1,0,0:0:0:0:
96,192,127716,1,0,0:0:0:0:
224,192,127774,1,0,0:0:0:0:
352,192,127832,1,0,0:0:0:0:
480,192,127832,1,0,0:0:0:0:
96,192,127889,1,0,0:0:0:0:
224,192,127947,1,0,0:0:0:0:
448,192,127947,1,0,0:0:0:0:
320,192,128005,1,0,0:0:0:0:
96,192,128062,1,0,0:0:0:0:
192,192,128062,1,0,0:0:0:0:
448,192,128062,1,0,0:0:0:0:
320,192,128120,1,0,0:0:0:0:
96,192,128178,1,0,0:0:0:0:
448,192,128178,1,0,0:0:0:0:
192,192,128235,1,0,0:0:0:0:
64,192,128293,1,0,0:0:0:0:
320,192,128293,1,0,0:0:0:0:
480,192,128293,1,0,0:0:0:0:
224,192,128351,1,0,0:0:0:0:
320,192,128409,1,0,0:0:0:0:
64,192,128466,1,0,0:0:0:0:
192,192,128524,1,0,0:0:0:0:
352,192,128524,1,0,0:0:0:0:
480,192,128524,1,0,0:0:0:0:
96,192,128582,1,0,0:0:0:0:
224,192,128639,1,0,0:0:0:0:
448,192,128639,1,0,0:0:0:0:
320,192,128697,1,0,0:0:0:0:
64,192,128755,1,0,0:0:0:0:
448,192,128812,1,0,0:0:0:0:
320,192,128870,1,0,0:0:0:0:
64,192,128870,1,0,0:0:0:0:
192,192,128870,1,0,0:0:0:0:
448,192,128928,1,0,0:0:0:0:
320,192,128985,1,0,0:0:0:0:
64,192,128985,1,0,0:0:0:0:
192,192,129043,1,0,0:0:0:0:
96,192,129101,1,0,0:0:0:0:
448,192,129101,1,0,0:0:0:0:
320,192,129101,1,0,0:0:0:0:
192,192,129159,1,0,0:0:0:0:
320,192,129216,1,0,0:0:0:0:
64,192,129274,1,0,0:0:0:0:
192,192,129332,1,0,0:0:0:0:
448,192,129332,1,0,0:0:0:0:
320,192,129332,1,0,0:0:0:0:
64,192,129389,1,0,0:0:0:0:
192,192,129447,1,0,0:0:0:0:
448,192,129447,1,0,0:0:0:0:
320,192,129505,1,0,0:0:0:0:
64,192,129562,1,0,0:0:0:0:
192,192,129562,1,0,0:0:0:0:
448,192,129562,1,0,0:0:0:0:
320,192,129620,1,0,0:0:0:0:
192,192,129678,1,0,0:0:0:0:
448,192,129735,1,0,0:0:0:0:
64,192,129793,1,0,0:0:0:0:
320,192,129793,1,0,0:0:0:0:
192,192,129851,1,0,0:0:0:0:
448,192,129909,1,0,0:0:0:0:
320,192,129909,1,0,0:0:0:0:
64,192,129909,1,0,0:0:0:0:
192,192,129966,1,0,0:0:0:0:
448,192,130024,1,0,0:0:0:0:
64,192,130024,1,0,0:0:0:0:
320,192,130082,1,0,0:0:0:0:
192,192,130139,1,0,0:0:0:0:
448,192,130139,1,0,0:0:0:0:
64,192,130139,1,0,0:0:0:0:
320,192,130197,1,0,0:0:0:0:
64,192,130255,1,0,0:0:0:0:
192,192,130312,1,0,0:0:0:0:
96,192,130370,1,0,0:0:0:0:
448,192,130370,1,0,0:0:0:0:
320,192,130370,1,0,0:0:0:0:
192,192,130428,1,0,0:0:0:0:
448,192,130485,1,0,0:0:0:0:
320,192,130543,1,0,0:0:0:0:
96,192,130601,1,0,0:0:0:0:
448,192,130601,1,0,0:0:0:0:
192,192,130601,1,0,0:0:0:0:
320,192,130659,1,0,0:0:0:0:
64,192,130716,1,0,0:0:0:0:
192,192,130774,1,0,0:0:0:0:
64,192,130832,1,0,0:0:0:0:
320,192,130832,1,0,0:0:0:0:
480,192,130832,1,0,0:0:0:0:
192,192,130889,1,0,0:0:0:0:
448,192,130947,1,0,0:0:0:0:
320,192,131005,1,0,0:0:0:0:
96,192,131062,1,0,0:0:0:0:
224,192,131062,1,0,0:0:0:0:
352,192,131120,1,0,0:0:0:0:
480,192,131120,1,0,0:0:0:0:
96,192,131178,1,0,0:0:0:0:
224,192,131178,1,0,0:0:0:0:
352,192,131235,1,0,0:0:0:0:
480,192,131235,1,0,0:0:0:0:
96,192,131293,1,0,0:0:0:0:
224,192,131293,1,0,0:0:0:0:
480,192,131351,1,0,0:0:0:0:
224,192,131409,1,0,0:0:0:0:
352,192,131409,1,0,0:0:0:0:
96,192,131466,1,0,0:0:0:0:
480,192,131466,1,0,0:0:0:0:
224,192,131524,1,0,0:0:0:0:
352,192,131524,1,0,0:0:0:0:
96,192,131582,1,0,0:0:0:0:
480,192,131582,1,0,0:0:0:0:
224,192,131639,1,0,0:0:0:0:
352,192,131639,1,0,0:0:0:0:
96,192,131697,1,0,0:0:0:0:
224,192,131755,1,0,0:0:0:0:
480,192,131755,1,0,0:0:0:0:
352,192,131812,1,0,0:0:0:0:
96,192,131870,1,0,0:0:0:0:
224,192,131870,1,0,0:0:0:0:
352,192,131928,1,0,0:0:0:0:
96,192,131985,1,0,0:0:0:0:
480,192,131985,1,0,0:0:0:0:
224,192,132043,1,0,0:0:0:0:
352,192,132101,1,0,0:0:0:0:
480,192,132159,1,0,0:0:0:0:
96,192,132216,1,0,0:0:0:0:
352,192,132274,1,0,0:0:0:0:
480,192,132332,1,0,0:0:0:0:
96,192,132389,1,0,0:0:0:0:
480,192,132447,1,0,0:0:0:0:
352,192,132505,1,0,0:0:0:0:
224,192,132562,1,0,0:0:0:0:
96,192,132620,1,0,0:0:0:0:
480,192,132678,1,0,0:0:0:0:
224,192,132735,1,0,0:0:0:0:
96,192,132793,1,0,0:0:0:0:
480,192,132851,1,0,0:0:0:0:
96,192,132909,1,0,0:0:0:0:
224,192,132966,1,0,0:0:0:0:
352,192,133024,1,0,0:0:0:0:
480,192,133082,1,0,0:0:0:0:
96,192,133139,1,0,0:0:0:0:
352,192,133197,1,0,0:0:0:0:
480,192,133255,1,0,0:0:0:0:
96,192,133312,1,0,0:0:0:0:
480,192,133370,1,0,0:0:0:0:
352,192,133428,1,0,0:0:0:0:
224,192,133485,1,0,0:0:0:0:
96,192,133543,1,0,0:0:0:0:
480,192,133601,1,0,0:0:0:0:
224,192,133659,1,0,0:0:0:0:
96,192,133716,1,0,0:0:0:0:
480,192,133774,1,0,0:0:0:0:
96,192,133832,1,0,0:0:0:0:
224,192,133889,1,0,0:0:0:0:
352,192,133947,1,0,0:0:0:0:
480,192,134005,1,0,0:0:0:0:
96,192,134062,1,0,0:0:0:0:
352,192,134120,1,0,0:0:0:0:
480,192,134178,1,0,0:0:0:0:
96,192,134235,1,0,0:0:0:0:
480,192,134293,1,0,0:0:0:0:
352,192,134351,1,0,0:0:0:0:
224,192,134409,1,0,0:0:0:0:
96,192,134466,1,0,0:0:0:0:
480,192,134524,1,0,0:0:0:0:
224,192,134582,1,0,0:0:0:0:
96,192,134639,1,0,0:0:0:0:
480,192,134697,1,0,0:0:0:0:
96,192,134755,1,0,0:0:0:0:
224,192,134812,1,0,0:0:0:0:
352,192,134870,1,0,0:0:0:0:
480,192,134928,1,0,0:0:0:0:
96,192,134985,1,0,0:0:0:0:
352,192,135043,1,0,0:0:0:0:
480,192,135101,1,0,0:0:0:0:
96,192,135159,1,0,0:0:0:0:
480,192,135216,1,0,0:0:0:0:
352,192,135274,1,0,0:0:0:0:
224,192,135332,1,0,0:0:0:0:
96,192,135389,1,0,0:0:0:0:
480,192,135447,1,0,0:0:0:0:
224,192,135505,1,0,0:0:0:0:
96,192,135562,1,0,0:0:0:0:
480,192,135620,1,0,0:0:0:0:
96,192,135678,1,0,0:0:0:0:
224,192,135735,1,0,0:0:0:0:
352,192,135793,1,0,0:0:0:0:
480,192,135851,1,0,0:0:0:0:
96,192,135909,1,0,0:0:0:0:
352,192,135966,1,0,0:0:0:0:
480,192,136024,1,0,0:0:0:0:
96,192,136082,1,0,0:0:0:0:
480,192,136139,1,0,0:0:0:0:
352,192,136197,1,0,0:0:0:0:
224,192,136255,1,0,0:0:0:0:
96,192,136312,1,0,0:0:0:0:
480,192,136370,1,0,0:0:0:0:
224,192,136428,1,0,0:0:0:0:
96,192,136485,1,0,0:0:0:0:
480,192,136543,1,0,0:0:0:0:
96,192,136601,1,0,0:0:0:0:
224,192,136659,1,0,0:0:0:0:
352,192,136716,1,0,0:0:0:0:
480,192,136774,1,0,0:0:0:0:
96,192,136832,1,0,0:0:0:0:
352,192,136889,1,0,0:0:0:0:
480,192,136947,1,0,0:0:0:0:
96,192,137005,1,0,0:0:0:0:
480,192,137062,1,0,0:0:0:0:
352,192,137120,1,0,0:0:0:0:
224,192,137178,1,0,0:0:0:0:
96,192,137235,1,0,0:0:0:0:
480,192,137293,1,0,0:0:0:0:
224,192,137351,1,0,0:0:0:0:
96,192,137409,1,0,0:0:0:0:
480,192,137466,1,0,0:0:0:0:
96,192,137524,1,0,0:0:0:0:
224,192,137582,1,0,0:0:0:0:
352,192,137639,1,0,0:0:0:0:
480,192,137697,1,0,0:0:0:0:
96,192,137755,1,0,0:0:0:0:
352,192,137812,1,0,0:0:0:0:
480,192,137870,1,0,0:0:0:0:
96,192,137928,1,0,0:0:0:0:
480,192,137985,1,0,0:0:0:0:
352,192,138043,1,0,0:0:0:0:
224,192,138101,1,0,0:0:0:0:
96,192,138159,1,0,0:0:0:0:
480,192,138216,1,0,0:0:0:0:
224,192,138274,1,0,0:0:0:0:
96,192,138332,1,0,0:0:0:0:
480,192,138389,1,0,0:0:0:0:
96,192,138447,1,0,0:0:0:0:
224,192,138505,1,0,0:0:0:0:
352,192,138562,1,0,0:0:0:0:
480,192,138620,1,0,0:0:0:0:
96,192,138678,1,0,0:0:0:0:
224,192,138735,1,0,0:0:0:0:
480,192,138793,1,0,0:0:0:0:
352,192,138851,1,0,0:0:0:0:
96,192,138909,1,0,0:0:0:0:
224,192,138909,1,0,0:0:0:0:
352,192,138966,1,0,0:0:0:0:
480,192,138966,1,0,0:0:0:0:
96,192,139024,1,0,0:0:0:0:
224,192,139024,1,0,0:0:0:0:
352,192,139082,1,0,0:0:0:0:
480,192,139082,1,0,0:0:0:0:
96,192,139139,1,0,0:0:0:0:
224,192,139139,1,0,0:0:0:0:
352,192,139255,1,0,0:0:0:0:
480,192,139255,1,0,0:0:0:0:
